Firefall – Firefall '76 & Luna Sea '77 & Elan '78 (2016)

Download
Firefall - Firefall '76 & Luna Sea '77 & Elan '78 (2016)

Firefall – Firefall ’76 & Luna Sea ’77 & Elan ’78 (2016)
EAC | Flac(Image) + Cue + Log & MP3 CBR 320Kbps
2CD | BGO Records, BGOCD1234 | ~ 787 or 281 Mb | Scans(jpg) -> 80 Mb
Rock, Country-rock, Folk-rock

Digitally remastered two CD set featuring a trio of albums by the country rockers formed by ex-Flying Burrito Rick Roberts and guitarist Larry Burnett. Other members included ex-Byrds/ Burrito’s drummer Michael Clarke, ex-Spirit/Jo Jo Gunne bassist Mark Andes and Jock Bartley. The self-titled Firefall was released in 1976 on Atlantic, reaching the US Top 30 with the single ‘You Are The Woman’ making the US Top 10. Luna Sea from 1977 also made the US Top 30 and the single ‘Just Remember I Love you’ made the US Top 20. Elan, released in 1978, was a US Top 30 success with the single ‘Strange Way’ making the US Top 20…

~ amazon

Firefall – Firefall ’76 & Luna Sea ’77 & Elan ’78 (2016):

Firefall - Firefall '76 & Luna Sea '77 & Elan '78 (2016)

Tracklist CD1:

Firefall 1976:
01 It Doesn’t Matter
02 Love Isn’t All
03 Livin’ Ain’t Livin’
04 No Way Out
05 Dolphin’s Lullaby
06 Cinderella
07 Sad Ol’ Love Song
08 You Are The Woman
09 Mexico
10 Do What You Want

Luna Sea 1977:
11 So Long
12 Just Remember I Love You
13 Sold On You
14 Someday Soon
15 Just Think

EAC Log
Exact Audio Copy V1.1 from 23. June 2015

Отчёт EAC об извлечении, выполненном 4. января 2017, 19:56

Firefall / CD1 – Firefall-Luna Sea

Дисковод: ASUS DRW-24B3ST Adapter: 0 ID: 0

Режим чтения : Достоверность
Использование точного потока : Да
Отключение кэша аудио : Да
Использование указателей C2 : Нет

Коррекция смещения при чтении : 6
Способность читать области Lead-in и Lead-out : Нет
Заполнение пропущенных сэмплов тишиной : Да
Удаление блоков с тишиной в начале и конце : Нет
При вычислениях CRC использовались нулевые сэмплы : Да
Интерфейс : Установленный внешний ASPI-интерфейс

Выходной формат : Пользовательский кодировщик
Выбранный битрейт : 1024 kBit/s
Качество : Высокий
Добавление ID3-тега : Нет
Утилита сжатия : C:Program Files (x86)Exact Audio CopyFLACFLAC.EXE
Дополнительные параметры : -6 -V -T "ARTIST=%artist%" -T "TITLE=%title%" -T "ALBUM=%albumtitle%" -T "DATE=%year%" -T "TRACKNUMBER=%tracknr%" -T "GENRE=%genre%" -T "COMMENT=%comment%" -T "BAND=%albuminterpret%" -T "ALBUMARTIST=%albuminterpret%" -T "COMPOSER=%composer%" %haslyrics%–tag-from-file=LYRICS="%lyricsfile%"%haslyrics% -T "DISCNUMBER=%cdnumber%" -T "TOTALDISCS=%totalcds%" -T "TOTALTRACKS=%numtracks%" %hascover%–picture="%coverfile%"%hascover% %source% -o %dest%

TOC извлечённого CD

Трек | Старт | Длительность | Начальный сектор | Конечный сектор
––––––––––––––––––––––––––––––––––-
1 | 0:00.00 | 3:32.41 | 0 | 15940
2 | 3:32.41 | 4:13.58 | 15941 | 34973
3 | 7:46.24 | 3:49.08 | 34974 | 52156
4 | 11:35.32 | 4:05.24 | 52157 | 70555
5 | 15:40.56 | 4:33.69 | 70556 | 91099
6 | 20:14.50 | 3:53.23 | 91100 | 108597
7 | 24:07.73 | 4:42.04 | 108598 | 129751
8 | 28:50.02 | 2:45.72 | 129752 | 142198
9 | 31:35.74 | 4:17.64 | 142199 | 161537
10 | 35:53.63 | 4:03.02 | 161538 | 179764
11 | 39:56.65 | 5:27.68 | 179765 | 204357
12 | 45:24.58 | 3:18.47 | 204358 | 219254
13 | 48:43.30 | 3:34.30 | 219255 | 235334
14 | 52:17.60 | 4:02.46 | 235335 | 253530
15 | 56:20.31 | 4:14.62 | 253531 | 272642

Характеристики диапазона извлечения и сообщения об ошибках

Выбранный диапазон

Имя файла C:Torrents – myFirefall – 2016 – Firefall-Luna Sea-ElanCD1 – 1976-1977 – Firefall-Luna SeaFirefall – CD1 – Firefall-Luna Sea.wav

Пиковый уровень 94.4 %
Скорость извлечения 3.2 X
Качество диапазона 100.0 %
CRC теста 5F488BE2
CRC копии 5F488BE2
Копирование… OK

Ошибок не произошло

AccurateRip: сводка

Трек 1 отсутствует в базе данных
Трек 2 отсутствует в базе данных
Трек 3 отсутствует в базе данных
Трек 4 отсутствует в базе данных
Трек 5 отсутствует в базе данных
Трек 6 отсутствует в базе данных
Трек 7 отсутствует в базе данных
Трек 8 отсутствует в базе данных
Трек 9 отсутствует в базе данных
Трек 10 отсутствует в базе данных
Трек 11 отсутствует в базе данных
Трек 12 отсутствует в базе данных
Трек 13 отсутствует в базе данных
Трек 14 отсутствует в базе данных
Трек 15 отсутствует в базе данных

Ни одного трека нет в базе AccurateRip

Конец отчёта

==== Контрольная сумма отчёта BEA571A8DBFBE05D86632DAE521A639B932D45124EA8F70B6ACC375B4E4F6C78 ====

DR Log
foobar2000 1.2.9 / Dynamic Range Meter 1.1.1
log date: 2017-01-05 19:47:53

––––––––––––––––––––––––––––––––––––––––
Analyzed: Firefall / CD1 – Firefall-Luna Sea
––––––––––––––––––––––––––––––––––––––––

DR Peak RMS Duration Track
––––––––––––––––––––––––––––––––––––––––
DR10 -1.00 dB -12.29 dB 3:33 01-It Doesn’t Matter
DR12 -0.50 dB -15.65 dB 4:14 02-Love Isn’t All
DR10 -0.50 dB -12.59 dB 3:49 03-Livin’ Ain’t Livin’
DR10 -0.50 dB -12.49 dB 4:05 04-No Way Out
DR13 -0.50 dB -16.40 dB 4:34 05-Dolphin’s Lullaby
DR11 -0.50 dB -13.69 dB 3:53 06-Cinderella
DR12 -0.50 dB -14.93 dB 4:42 07-Sad Ol’ Love Song
DR10 -0.50 dB -13.35 dB 2:46 08-You Are The Woman
DR10 -1.00 dB -13.22 dB 4:18 09-Mexico
DR10 -0.50 dB -12.48 dB 4:03 10-Do What You Want
DR11 -0.64 dB -14.45 dB 5:28 11-So Long
DR11 -0.50 dB -15.64 dB 3:19 12-Just Remember I Love You
DR10 -0.50 dB -13.32 dB 3:34 13-Sold On You
DR13 -0.50 dB -16.79 dB 4:03 14-Someday Soon
DR11 -0.50 dB -13.78 dB 4:15 15-Just Think
––––––––––––––––––––––––––––––––––––––––

Number of tracks: 15
Official DR value: DR11

Samplerate: 44100 Hz
Channels: 2
Bits per sample: 16
Bitrate: 892 kbps
Codec: FLAC
================================================================================

CUETools Log
[CUETools log; Date: 05.01.2017 19:24:50; Version: 2.1.4]
[CTDB TOCID: Le2s9xTX7MpAgFxj1hp6BwPWGeY-] found.
Track | CTDB Status
1 | (1/1) Accurately ripped
2 | (1/1) Accurately ripped
3 | (1/1) Accurately ripped
4 | (1/1) Accurately ripped
5 | (1/1) Accurately ripped
6 | (1/1) Accurately ripped
7 | (1/1) Accurately ripped
8 | (1/1) Accurately ripped
9 | (1/1) Accurately ripped
10 | (1/1) Accurately ripped
11 | (1/1) Accurately ripped
12 | (1/1) Accurately ripped
13 | (1/1) Accurately ripped
14 | (1/1) Accurately ripped
15 | (1/1) Accurately ripped
[AccurateRip ID: 00212336-01788f0b-e80e330f] disk not present in database.

Track Peak [ CRC32 ] [W/O NULL] [ LOG ]
– 94,4 [5F488BE2] [0509EB0B] CRC32
01 89,1 [251BF990] [74198619]
02 94,4 [899E491B] [5604DE81]
03 94,4 [D2D79CC8] [3808B7A2]
04 94,4 [AA4101AB] [1A1074A7]
05 94,4 [717B1D9C] [5BB18988]
06 94,4 [F7B6F948] [78348351]
07 94,4 [7501C703] [D53540D2]
08 94,4 [01E80F4D] [D2B751BB]
09 89,1 [F0F17161] [3933F1AF]
10 94,4 [68146D21] [C4BB367D]
11 92,8 [6CBDFB73] [B63C6C26]
12 94,4 [51138097] [386415E1]
13 94,4 [F0ABCF31] [7A8EC8CD]
14 94,4 [63360AF8] [D9437831]
15 94,4 [A86983B3] [CC086411]

Firefall - Firefall '76 & Luna Sea '77 & Elan '78 (2016)

Tracklist CD2:

Luna Sea (continued):
01 Gataway
02 Only A Fool
03 Head On Home
04 Piece Of Paper
05 Even Steven

Elan 1978:
06 Strange Way
07 Sweet And Sour
08 Wrong Side Of Town
09 CVount Your Blessings
10 Get You Back
11 Anymore
12 Baby
13 Goodbye,I Love You
14 Sweet Ann
15 Winds Of Change

EAC Log
Exact Audio Copy V1.1 from 23. June 2015

Отчёт EAC об извлечении, выполненном 4. января 2017, 20:26

Firefall / CD2 – Luna Sea – Elan

Дисковод: ASUS DRW-24B3ST Adapter: 0 ID: 0

Режим чтения : Достоверность
Использование точного потока : Да
Отключение кэша аудио : Да
Использование указателей C2 : Нет

Коррекция смещения при чтении : 6
Способность читать области Lead-in и Lead-out : Нет
Заполнение пропущенных сэмплов тишиной : Да
Удаление блоков с тишиной в начале и конце : Нет
При вычислениях CRC использовались нулевые сэмплы : Да
Интерфейс : Установленный внешний ASPI-интерфейс

Выходной формат : Пользовательский кодировщик
Выбранный битрейт : 1024 kBit/s
Качество : Высокий
Добавление ID3-тега : Нет
Утилита сжатия : C:Program Files (x86)Exact Audio CopyFLACFLAC.EXE
Дополнительные параметры : -6 -V -T "ARTIST=%artist%" -T "TITLE=%title%" -T "ALBUM=%albumtitle%" -T "DATE=%year%" -T "TRACKNUMBER=%tracknr%" -T "GENRE=%genre%" -T "COMMENT=%comment%" -T "BAND=%albuminterpret%" -T "ALBUMARTIST=%albuminterpret%" -T "COMPOSER=%composer%" %haslyrics%–tag-from-file=LYRICS="%lyricsfile%"%haslyrics% -T "DISCNUMBER=%cdnumber%" -T "TOTALDISCS=%totalcds%" -T "TOTALTRACKS=%numtracks%" %hascover%–picture="%coverfile%"%hascover% %source% -o %dest%

TOC извлечённого CD

Трек | Старт | Длительность | Начальный сектор | Конечный сектор
––––––––––––––––––––––––––––––––––-
1 | 0:00.00 | 3:46.01 | 0 | 16950
2 | 3:46.01 | 4:24.73 | 16951 | 36823
3 | 8:10.74 | 4:04.24 | 36824 | 55147
4 | 12:15.23 | 4:06.54 | 55148 | 73651
5 | 16:22.02 | 4:24.19 | 73652 | 93470
6 | 20:46.21 | 4:45.62 | 93471 | 114907
7 | 25:32.08 | 3:32.42 | 114908 | 130849
8 | 29:04.50 | 2:42.49 | 130850 | 143048
9 | 31:47.24 | 3:32.12 | 143049 | 158960
10 | 35:19.36 | 4:16.39 | 158961 | 178199
11 | 39:36.00 | 4:03.47 | 178200 | 196471
12 | 43:39.47 | 3:48.57 | 196472 | 213628
13 | 47:28.29 | 4:22.35 | 213629 | 233313
14 | 51:50.64 | 3:25.65 | 233314 | 248753
15 | 55:16.54 | 3:31.33 | 248754 | 264611

Характеристики диапазона извлечения и сообщения об ошибках

Выбранный диапазон

Имя файла C:Torrents – myFirefall – 2016 – Firefall-Luna Sea-ElanCD2 – 1977-1978 – Luna Sea-ElanFirefall – CD2 – Luna Sea – Elan.wav

Пиковый уровень 94.4 %
Скорость извлечения 8.6 X
Качество диапазона 99.9 %
CRC теста 1D50732B
CRC копии 1D50732B
Копирование… OK

Ошибок не произошло

AccurateRip: сводка

Трек 1 отсутствует в базе данных
Трек 2 отсутствует в базе данных
Трек 3 отсутствует в базе данных
Трек 4 отсутствует в базе данных
Трек 5 отсутствует в базе данных
Трек 6 отсутствует в базе данных
Трек 7 отсутствует в базе данных
Трек 8 отсутствует в базе данных
Трек 9 отсутствует в базе данных
Трек 10 отсутствует в базе данных
Трек 11 отсутствует в базе данных
Трек 12 отсутствует в базе данных
Трек 13 отсутствует в базе данных
Трек 14 отсутствует в базе данных
Трек 15 отсутствует в базе данных

Ни одного трека нет в базе AccurateRip

Конец отчёта

==== Контрольная сумма отчёта 4E1C8A2222D0D3E4E311EE3332614E9CE8855967F1B36EB4245EC01A2E04E22D ====

DR Log
foobar2000 1.2.9 / Dynamic Range Meter 1.1.1
log date: 2017-01-05 19:48:08

––––––––––––––––––––––––––––––––––––––––
Analyzed: Firefall / CD2 – Luna Sea – Elan
––––––––––––––––––––––––––––––––––––––––

DR Peak RMS Duration Track
––––––––––––––––––––––––––––––––––––––––
DR12 -0.50 dB -14.08 dB 3:46 01-Getaway
DR11 -0.50 dB -13.81 dB 4:25 02-Only A Fool
DR12 -0.50 dB -14.06 dB 4:04 03-Head On Home
DR12 -0.50 dB -15.40 dB 4:07 04-Piece Of Paper
DR12 -0.50 dB -13.62 dB 4:24 05-Even Steven
DR12 -0.50 dB -15.46 dB 4:46 06-Strange Way
DR12 -0.50 dB -14.36 dB 3:33 07-Sweet And Sour
DR13 -0.50 dB -15.27 dB 2:43 08-Wrong Side Of Town
DR12 -0.50 dB -14.37 dB 3:32 09-Count Your Blessings
DR11 -0.50 dB -13.27 dB 4:17 10-Get You Back
DR12 -0.50 dB -14.29 dB 4:04 11-Anymore
DR13 -0.50 dB -15.70 dB 3:49 12-Baby
DR11 -0.50 dB -13.73 dB 4:22 13-Goodbye, I Love You
DR14 -0.50 dB -16.33 dB 3:26 14-Sweet Ann
DR12 -0.50 dB -13.67 dB 3:31 15-Winds Of Change
––––––––––––––––––––––––––––––––––––––––

Number of tracks: 15
Official DR value: DR12

Samplerate: 44100 Hz
Channels: 2
Bits per sample: 16
Bitrate: 898 kbps
Codec: FLAC
================================================================================

CUETools Log
[CUETools log; Date: 05.01.2017 19:28:17; Version: 2.1.4]
[CTDB TOCID: _IijgMjOexWqUcScKs.5V93vJDs-] disk not present in database.
[AccurateRip ID: 0020f0cb-0173887f-ce0dc80f] disk not present in database.

Track Peak [ CRC32 ] [W/O NULL] [ LOG ]
– 94,4 [1D50732B] [C2F1C353] CRC32
01 94,4 [49388166] [586BDD43]
02 94,4 [B9824E4B] [E808069B]
03 94,4 [F73D6EE7] [9F542453]
04 94,4 [0FDF23EE] [BDDE7FE3]
05 94,4 [53E27A56] [52C76AEE]
06 94,4 [6815B08C] [3169B0FD]
07 94,4 [4480B77A] [AA21C8AC]
08 94,4 [A3F994F2] [651A656F]
09 94,4 [5623AED4] [E6EEB0EC]
10 94,4 [B476D6E1] [63CB4041]
11 94,4 [C1FA761B] [27FB5FC5]
12 94,4 [117E271B] [3062AB13]
13 94,4 [98BBCDF4] [2C9F769D]
14 94,4 [7AE2C44D] [231B4A13]
15 94,4 [CC05DDF7] [42B2145E]

Firefall - Firefall '76 & Luna Sea '77 & Elan '78 (2016)

All thanks go to Копысов

Download Firefall – Firefall ’76 & Luna Sea ’77 & Elan ’78 (2016):

Firefall – Firefall '76 & Luna Sea '77 & Elan '78 (2016) Download, Warez, DDL, Free, Full Album, Torrent, Legal.

Download