Festa Mobile – Diario Di Viaggio Della Festa Mobile (1973) [Reissue 2008]

Download
Festa Mobile - Diario Di Viaggio Della Festa Mobile (1973) [Reissue 2008]

Festa Mobile – Diario Di Viaggio Della Festa Mobile (1973) [Reissue 2008]
EAC Rip | FLAC (image+.cue+log) – 208 MB | MP3 CBR 320 kbps (LAME 3.93) – 78 MB | Covers (3 MB) included
Genre: Progressive Rock | RAR 3% Rec. | Label: Sony BMG Music (88697343702)

Festa Mobile were formed by the Boccuzzi brothers, coming from Monopoli. Working for RCA, they had the chance of playing with many important artist of the Italian pop music. Among the various experiences it’s worth mentioning the Jacopone musical, with Gianni Morandi and Paola Pitagora, whose "rhythm background" was played by Festa Mobile. RCA also released their only album, "Diario Di Viaggio Della Festa Mobile", a fantasy concept album with large space given to keyboards and vocals a bit too low compared to the musical background. The music is for the most part pretty fast space prog rock, and very Italian sounding in a similar vein as PFM. Their guitarist offers some very tasty Fripp-influenced riffs and he does a good job balancing the quirky piano lines.

Progarchives

Tracklist:
01. La Corte di Hon
02. Canto
03. Aristea
04. Ljalja
05. Ritorno

Total time: 31:52

EAC log
Exact Audio Copy V0.99 prebeta 4 from 23. January 2008

EAC extraction logfile from 24. January 2011, 9:21

Festa Mobile / Diario di viaggio della Festa mobile

Used drive : Optiarc DVD RW AD-7170S Adapter: 1 ID: 0

Read mode : Secure
Utilize accurate stream : Yes
Defeat audio cache : Yes
Make use of C2 pointers : No

Read offset correction : 48
Overread into Lead-In and Lead-Out : No
Fill up missing offset samples with silence : Yes
Delete leading and trailing silent blocks : No
Null samples used in CRC calculations : Yes
Used interface : Native Win32 interface for Win NT & 2000

Used output format : User Defined Encoder
Selected bitrate : 128 kBit/s
Quality : High
Add ID3 tag : No
Command line compressor : G:Program FilesExact Audio CopyFlacflac.exe
Additional command line options : -8 -V %s

TOC of the extracted CD

Track | Start | Length | Start sector | End sector
––––––––––––––––––––––––––––-
1 | 0:00.00 | 4:57.37 | 0 | 22311
2 | 4:57.37 | 6:11.44 | 22312 | 50180
3 | 11:09.06 | 5:05.49 | 50181 | 73104
4 | 16:14.55 | 6:53.46 | 73105 | 104125
5 | 23:08.26 | 8:43.47 | 104126 | 143397

Range status and errors

Selected range

Filename D:terr83Festa Mobile – Diario di viaggio della Festa mobile 1973CDImage.wav

Peak level 97.0 %
Range quality 100.0 %
Test CRC 5974CD20
Copy CRC 5974CD20
Copy OK

No errors occurred

AccurateRip summary

Track 1 cannot be verified as accurate (confidence 3) [0136513C], AccurateRip returned [6532949E]
Track 2 cannot be verified as accurate (confidence 3) [E0C5F169], AccurateRip returned [90392C33]
Track 3 cannot be verified as accurate (confidence 3) [860462AA], AccurateRip returned [346366C5]
Track 4 cannot be verified as accurate (confidence 3) [94DDDE99], AccurateRip returned [02F31113]
Track 5 cannot be verified as accurate (confidence 3) [391987A4], AccurateRip returned [8E6A98D2]

No tracks could be verified as accurate
You may have a different pressing from the one(s) in the database

End of status report

CUETools log
[CUETools log; Date: 30.12.2016 22:00:06; Version: 2.1.4]
[CTDB TOCID: sJ2TSdefOXLOj_k6qb7LnQbuG9E-] found.
Track | CTDB Status
1 | (7/7) Accurately ripped
2 | (7/7) Accurately ripped
3 | (7/7) Accurately ripped
4 | (7/7) Accurately ripped
5 | (6/7) Accurately ripped
[AccurateRip ID: 0005ffa2-001c833e-47077705] found.
Track [ CRC | V2 ] Status
01 [0136513c|32f168e0] (0+0/3) No match
02 [e0c5f169|6753b177] (0+0/3) No match
03 [860462aa|50061494] (0+0/3) No match
04 [94ddde99|8bd4a9b9] (0+0/3) No match
05 [391987a4|bf5ee65e] (0+0/3) No match
Offsetted by -549:
01 [6532949e] (3/3) Accurately ripped
02 [90392c33] (3/3) Accurately ripped
03 [346366c5] (3/3) Accurately ripped
04 [02f31113] (3/3) Accurately ripped
05 [8e6a98d2] (3/3) Accurately ripped

Track Peak [ CRC32 ] [W/O NULL] [ LOG ]
– 97,0 [5974CD20] [839A9137] CRC32
01 97,0 [29ADE69A] [816B7DCA]
02 97,0 [EBF04A0C] [32E12DB5]
03 97,0 [60DA1283] [EEA5230E]
04 97,0 [AE999F54] [5D8D234D]
05 97,0 [B1D7B496] [2B7085AE]

Thanks to terr83

Welcome to My Blog!

Festa Mobile – Diario Di Viaggio Della Festa Mobile (1973) [Reissue 2008] Download, Warez, DDL, Free, Full Album, Torrent, Legal.

Download