Feeder – The Best Of (Deluxe Edition) (2017)

Download
Feeder - The Best Of (Deluxe Edition) (2017)

Feeder – The Best Of (Deluxe Edition) (2017)
EAC Rip | FLAC (tracks+log+.cue) – 1,33 Gb | MP3 CBR 320 kbps – 435 Mb | 03:10:02
Alternative Rock, Post-Grunge | Label: BMG Rights Management

On September 29, the band will mark 21 years since their first release ‘Swim’ with a career-spanning 41-track greatest hits package and a mini album ‘Arrow’ of nine new songs – featuring the song ‘Figure You Out’.

“It’s very old-school,” frontman Grant Nicholas told NME about the track. “I love Americana artist. I’d be lying to you if I said it wasn’t influenced by what I listened to growing up. Obviously Tom Petty is a name that I’ve always dropped in interviews and I’ve been proud to mention. I wanted something that had the simplicity of a Tom Petty song.

He continued: “Lyrically it’s a love song, but it’s written in a very simple way, almost a story-like way. It still feels like Feeder but in a more, what’s the word…there’s a bit more maturity in it compared to some of our earlier stuff because it’s heavy. Not in a “I’m not trying to kid anyone” and prove that we’re this heavy grunge band because Feeder isn’t about that.

“You have to find different ways of doing that as you mature as a band. It’s a really classic song and I really think it’s one of my favourite on ‘Arrow’.”

Tracklist:
THE BEST OF – CD 1
1. Feeling A Moment
2. Come Back Around
3. Eskimo
4. Just The Way I’m Feeling
5. Forget About Tomorrow
6. Just A Day
7. Insomnia
8. Comfort In Sound
9. High
10. Buck Rogers
11. Pushing The Senses
12. Turn
13. Renegades
14. Lost & Found
15. Tender
16. Yesterday Went Too Soon
17. Shatter
18. Borders
19. Seven Days In The Sun
20. Piece By Piece
21. Another Day On Earth

THE BEST OF – CD 2
1. We Are The People
2. Universe Of Life
3. Idaho
4. Tumble And Fall
5. Crash
6. Silent Cry
7. Find The Colour
8. Day In Day Out
9. Down By The River
10. Paperweight
11. Tangerine
12. Cement
13. Suffocate
14. Side By Side
15. Stereo World
16. Paperfaces
17. Save Us
18. Tracing Lines
19. Miss You
20. Children Of The Sun

ARROW – CD 3
1. Figure You Out
2. Walk Away
3. Bees
4. Veins
5. Sound Of Birds
6. Arrow
7. Dive
8. Sirens
9. Landslide

EAC CD1
Exact Audio Copy V1.0 beta 3 from 29. August 2011

EAC extraction logfile from 10. October 2017, 19:59

Feeder / The Best Of

Used drive : MATSHITABD-MLT UJ260 Adapter: 0 ID: 0

Read mode : Secure
Utilize accurate stream : Yes
Defeat audio cache : Yes
Make use of C2 pointers : No

Read offset correction : 103
Overread into Lead-In and Lead-Out : No
Fill up missing offset samples with silence : Yes
Delete leading and trailing silent blocks : No
Null samples used in CRC calculations : Yes
Used interface : Native Win32 interface for Win NT & 2000
Gap handling : Appended to previous track

Used output format : User Defined Encoder
Selected bitrate : 1024 kBit/s
Quality : High
Add ID3 tag : No
Command line compressor : C:Program Files (x86)Exact Audio CopyFlacflac.exe
Additional command line options : -8 -V -T "artist=%artist%" -T "title=%title%" -T "album=%albumtitle%" -T "date=%year%" -T "tracknumber=%tracknr%" -T "genre=%genre%" %source%

TOC of the extracted CD

Track | Start | Length | Start sector | End sector
––––––––––––––––––––––––––––-
1 | 0:00.00 | 4:09.53 | 0 | 18727
2 | 4:09.53 | 3:13.54 | 18728 | 33256
3 | 7:23.32 | 3:49.20 | 33257 | 50451
4 | 11:12.52 | 4:23.08 | 50452 | 70184
5 | 15:35.60 | 3:50.67 | 70185 | 87501
6 | 19:26.52 | 4:05.44 | 87502 | 105920
7 | 23:32.21 | 2:53.24 | 105921 | 118919
8 | 26:25.45 | 3:39.40 | 118920 | 135384
9 | 30:05.10 | 4:33.48 | 135385 | 155907
10 | 34:38.58 | 3:14.14 | 155908 | 170471
11 | 37:52.72 | 3:28.24 | 170472 | 186095
12 | 41:21.21 | 4:32.32 | 186096 | 206527
13 | 45:53.53 | 3:39.12 | 206528 | 222964
14 | 49:32.65 | 2:58.02 | 222965 | 236316
15 | 52:30.67 | 4:17.06 | 236317 | 255597
16 | 56:47.73 | 4:20.55 | 255598 | 275152
17 | 61:08.53 | 2:58.57 | 275153 | 288559
18 | 64:07.35 | 3:30.22 | 288560 | 304331
19 | 67:37.57 | 3:40.22 | 304332 | 320853
20 | 71:18.04 | 3:51.07 | 320854 | 338185
21 | 75:09.11 | 3:54.38 | 338186 | 355773

Track 1

Filename D:EAC RipsFeeder – The Best Of (3 Discs) [FLAC]Disc 11 Feeling A Moment.wav

Pre-gap length 0:00:02.00

Peak level 94.8 %
Extraction speed 2.5 X
Track quality 100.0 %
Test CRC F3196936
Copy CRC F3196936
Track not present in AccurateRip database
Copy OK

Track 2

Filename D:EAC RipsFeeder – The Best Of (3 Discs) [FLAC]Disc 12 Come Back Around.wav

Peak level 98.8 %
Extraction speed 2.7 X
Track quality 100.0 %
Test CRC 4A9B4B74
Copy CRC 4A9B4B74
Track not present in AccurateRip database
Copy OK

Track 3

Filename D:EAC RipsFeeder – The Best Of (3 Discs) [FLAC]Disc 13 Eskimo.wav

Peak level 92.3 %
Extraction speed 2.9 X
Track quality 100.0 %
Test CRC 2499FD39
Copy CRC 2499FD39
Track not present in AccurateRip database
Copy OK

Track 4

Filename D:EAC RipsFeeder – The Best Of (3 Discs) [FLAC]Disc 14 Just The Way I’m Feeling.wav

Peak level 96.3 %
Extraction speed 3.2 X
Track quality 100.0 %
Test CRC 2F06B1DA
Copy CRC 2F06B1DA
Track not present in AccurateRip database
Copy OK

Track 5

Filename D:EAC RipsFeeder – The Best Of (3 Discs) [FLAC]Disc 15 Forget About Tomorrow.wav

Peak level 95.3 %
Extraction speed 3.3 X
Track quality 100.0 %
Test CRC 408B1523
Copy CRC 408B1523
Track not present in AccurateRip database
Copy OK

Track 6

Filename D:EAC RipsFeeder – The Best Of (3 Discs) [FLAC]Disc 16 Just A Day.wav

Peak level 80.1 %
Extraction speed 3.6 X
Track quality 100.0 %
Test CRC 67198E37
Copy CRC 67198E37
Track not present in AccurateRip database
Copy OK

Track 7

Filename D:EAC RipsFeeder – The Best Of (3 Discs) [FLAC]Disc 17 Insomnia.wav

Peak level 98.7 %
Extraction speed 3.5 X
Track quality 100.0 %
Test CRC 925DA0B3
Copy CRC 925DA0B3
Track not present in AccurateRip database
Copy OK

Track 8

Filename D:EAC RipsFeeder – The Best Of (3 Discs) [FLAC]Disc 18 Comfort In Sound.wav

Peak level 87.4 %
Extraction speed 3.7 X
Track quality 100.0 %
Test CRC 475172E4
Copy CRC 475172E4
Track not present in AccurateRip database
Copy OK

Track 9

Filename D:EAC RipsFeeder – The Best Of (3 Discs) [FLAC]Disc 19 High.wav

Peak level 98.4 %
Extraction speed 4.0 X
Track quality 100.0 %
Test CRC CABC03CC
Copy CRC CABC03CC
Track not present in AccurateRip database
Copy OK

Track 10

Filename D:EAC RipsFeeder – The Best Of (3 Discs) [FLAC]Disc 110 Buck Rogers.wav

Peak level 99.3 %
Extraction speed 2.8 X
Track quality 99.9 %
Test CRC 2337F795
Copy CRC 2337F795
Track not present in AccurateRip database
Copy OK

Track 11

Filename D:EAC RipsFeeder – The Best Of (3 Discs) [FLAC]Disc 111 Pushing The Senses.wav

Peak level 89.1 %
Extraction speed 4.1 X
Track quality 100.0 %
Test CRC F4D20E06
Copy CRC F4D20E06
Track not present in AccurateRip database
Copy OK

Track 12

Filename D:EAC RipsFeeder – The Best Of (3 Discs) [FLAC]Disc 112 Turn.wav

Peak level 90.3 %
Extraction speed 4.4 X
Track quality 100.0 %
Test CRC 62FA7FD0
Copy CRC 62FA7FD0
Track not present in AccurateRip database
Copy OK

Track 13

Filename D:EAC RipsFeeder – The Best Of (3 Discs) [FLAC]Disc 113 Renegades.wav

Peak level 99.2 %
Extraction speed 4.4 X
Track quality 100.0 %
Test CRC 8313441F
Copy CRC 8313441F
Track not present in AccurateRip database
Copy OK

Track 14

Filename D:EAC RipsFeeder – The Best Of (3 Discs) [FLAC]Disc 114 Lost & Found.wav

Peak level 88.5 %
Extraction speed 4.4 X
Track quality 100.0 %
Test CRC 440C2740
Copy CRC 440C2740
Track not present in AccurateRip database
Copy OK

Track 15

Filename D:EAC RipsFeeder – The Best Of (3 Discs) [FLAC]Disc 115 Tender.wav

Peak level 98.7 %
Extraction speed 4.8 X
Track quality 100.0 %
Test CRC 7B5E4BEA
Copy CRC 7B5E4BEA
Track not present in AccurateRip database
Copy OK

Track 16

Filename D:EAC RipsFeeder – The Best Of (3 Discs) [FLAC]Disc 116 Yesterday Went Too Soon.wav

Peak level 98.5 %
Extraction speed 4.9 X
Track quality 100.0 %
Test CRC BF1192C1
Copy CRC BF1192C1
Track not present in AccurateRip database
Copy OK

Track 17

Filename D:EAC RipsFeeder – The Best Of (3 Discs) [FLAC]Disc 117 Shatter.wav

Peak level 93.2 %
Extraction speed 4.7 X
Track quality 100.0 %
Test CRC 702355C2
Copy CRC 702355C2
Track not present in AccurateRip database
Copy OK

Track 18

Filename D:EAC RipsFeeder – The Best Of (3 Discs) [FLAC]Disc 118 Borders.wav

Peak level 95.6 %
Extraction speed 4.9 X
Track quality 100.0 %
Test CRC 31FB6747
Copy CRC 31FB6747
Track not present in AccurateRip database
Copy OK

Track 19

Filename D:EAC RipsFeeder – The Best Of (3 Discs) [FLAC]Disc 119 Seven Days In The Sun.wav

Peak level 84.6 %
Extraction speed 5.0 X
Track quality 100.0 %
Test CRC 86FFA177
Copy CRC 86FFA177
Track not present in AccurateRip database
Copy OK

Track 20

Filename D:EAC RipsFeeder – The Best Of (3 Discs) [FLAC]Disc 120 Piece By Piece.wav

Peak level 87.9 %
Extraction speed 3.9 X
Track quality 99.9 %
Test CRC C335E8F3
Copy CRC C335E8F3
Track not present in AccurateRip database
Copy OK

Track 21

Filename D:EAC RipsFeeder – The Best Of (3 Discs) [FLAC]Disc 121 Another Day On Earth.wav

Peak level 93.4 %
Extraction speed 5.3 X
Track quality 100.0 %
Test CRC A3568980
Copy CRC A3568980
Track not present in AccurateRip database
Copy OK

None of the tracks are present in the AccurateRip database

No errors occurred

End of status report

–– CUETools DB Plugin V2.1.3

[CTDB TOCID: MxW9YBbwX50BWnRSWF.xLOM3UoM-] found, Submit result: MxW9YBbwX50BWnRSWF.xLOM3UoM- has been confirmed
[5e9caacb] (9/9) Accurately ripped

==== Log checksum 0F9169413F86CA65C89EED5F0B663C52F324CF2569B07EEB5AA18FD7BEF33D52 ====

EAC CD2
Exact Audio Copy V1.0 beta 3 from 29. August 2011

EAC extraction logfile from 10. October 2017, 20:50

Feeder / The Best Of

Used drive : MATSHITABD-MLT UJ260 Adapter: 0 ID: 0

Read mode : Secure
Utilize accurate stream : Yes
Defeat audio cache : Yes
Make use of C2 pointers : No

Read offset correction : 103
Overread into Lead-In and Lead-Out : No
Fill up missing offset samples with silence : Yes
Delete leading and trailing silent blocks : No
Null samples used in CRC calculations : Yes
Used interface : Native Win32 interface for Win NT & 2000
Gap handling : Appended to previous track

Used output format : User Defined Encoder
Selected bitrate : 1024 kBit/s
Quality : High
Add ID3 tag : No
Command line compressor : C:Program Files (x86)Exact Audio CopyFlacflac.exe
Additional command line options : -8 -V -T "artist=%artist%" -T "title=%title%" -T "album=%albumtitle%" -T "date=%year%" -T "tracknumber=%tracknr%" -T "genre=%genre%" %source%

TOC of the extracted CD

Track | Start | Length | Start sector | End sector
––––––––––––––––––––––––––––-
1 | 0:00.00 | 4:47.15 | 0 | 21539
2 | 4:47.15 | 3:43.01 | 21540 | 38265
3 | 8:30.16 | 3:29.10 | 38266 | 53950
4 | 11:59.26 | 4:22.42 | 53951 | 73642
5 | 16:21.68 | 4:09.72 | 73643 | 92389
6 | 20:31.65 | 3:28.45 | 92390 | 108034
7 | 24:00.35 | 3:56.66 | 108035 | 125800
8 | 27:57.26 | 3:39.10 | 125801 | 142235
9 | 31:36.36 | 5:23.68 | 142236 | 166528
10 | 37:00.29 | 3:19.35 | 166529 | 181488
11 | 40:19.64 | 3:53.33 | 181489 | 198996
12 | 44:13.22 | 3:18.36 | 198997 | 213882
13 | 47:31.58 | 4:44.26 | 213883 | 235208
14 | 52:16.09 | 3:46.49 | 235209 | 252207
15 | 56:02.58 | 3:29.50 | 252208 | 267932
16 | 59:32.33 | 4:28.71 | 267933 | 288103
17 | 64:01.29 | 3:53.14 | 288104 | 305592
18 | 67:54.43 | 3:49.00 | 305593 | 322767
19 | 71:43.43 | 3:00.69 | 322768 | 336336
20 | 74:44.37 | 4:20.53 | 336337 | 355889

Track 1

Filename D:EAC RipsFeeder – The Best Of (3 Discs) [FLAC]Disc 21 We Are The People.wav

Pre-gap length 0:00:02.00

Peak level 90.1 %
Extraction speed 2.6 X
Track quality 100.0 %
Test CRC 656101AD
Copy CRC 656101AD
Track not present in AccurateRip database
Copy OK

Track 2

Filename D:EAC RipsFeeder – The Best Of (3 Discs) [FLAC]Disc 22 Universe Of Life.wav

Peak level 99.2 %
Extraction speed 2.8 X
Track quality 100.0 %
Test CRC 28E089B9
Copy CRC 28E089B9
Track not present in AccurateRip database
Copy OK

Track 3

Filename D:EAC RipsFeeder – The Best Of (3 Discs) [FLAC]Disc 23 Idaho.wav

Peak level 97.4 %
Extraction speed 2.2 X
Track quality 99.9 %
Test CRC F9D57305
Copy CRC F9D57305
Track not present in AccurateRip database
Copy OK

Track 4

Filename D:EAC RipsFeeder – The Best Of (3 Discs) [FLAC]Disc 24 Tumble And Fall.wav

Peak level 98.5 %
Extraction speed 3.2 X
Track quality 100.0 %
Test CRC B15611B7
Copy CRC B15611B7
Track not present in AccurateRip database
Copy OK

Track 5

Filename D:EAC RipsFeeder – The Best Of (3 Discs) [FLAC]Disc 25 Crash.wav

Peak level 99.9 %
Extraction speed 2.6 X
Track quality 99.9 %
Test CRC FA031574
Copy CRC FA031574
Track not present in AccurateRip database
Copy OK

Track 6

Filename D:EAC RipsFeeder – The Best Of (3 Discs) [FLAC]Disc 26 Silent Cry.wav

Peak level 98.0 %
Extraction speed 3.5 X
Track quality 100.0 %
Test CRC 668241A2
Copy CRC 668241A2
Track not present in AccurateRip database
Copy OK

Track 7

Filename D:EAC RipsFeeder – The Best Of (3 Discs) [FLAC]Disc 27 Find The Colour.wav

Peak level 95.3 %
Extraction speed 3.7 X
Track quality 100.0 %
Test CRC F5EE6515
Copy CRC F5EE6515
Track not present in AccurateRip database
Copy OK

Track 8

Filename D:EAC RipsFeeder – The Best Of (3 Discs) [FLAC]Disc 28 Day In Day Out.wav

Peak level 98.7 %
Extraction speed 2.8 X
Track quality 99.9 %
Test CRC 113B02E0
Copy CRC 113B02E0
Track not present in AccurateRip database
Copy OK

Track 9

Filename D:EAC RipsFeeder – The Best Of (3 Discs) [FLAC]Disc 29 Down To The River.wav

Peak level 98.9 %
Extraction speed 4.2 X
Track quality 100.0 %
Test CRC 40716919
Copy CRC 40716919
Track not present in AccurateRip database
Copy OK

Track 10

Filename D:EAC RipsFeeder – The Best Of (3 Discs) [FLAC]Disc 210 Paperweight.wav

Peak level 97.1 %
Extraction speed 4.1 X
Track quality 100.0 %
Test CRC CE353FA1
Copy CRC CE353FA1
Track not present in AccurateRip database
Copy OK

Track 11

Filename D:EAC RipsFeeder – The Best Of (3 Discs) [FLAC]Disc 211 Tangerine.wav

Peak level 100.0 %
Extraction speed 4.3 X
Track quality 100.0 %
Test CRC 108C2FA5
Copy CRC 108C2FA5
Track not present in AccurateRip database
Copy OK

Track 12

Filename D:EAC RipsFeeder – The Best Of (3 Discs) [FLAC]Disc 212 Cement.wav

Peak level 99.9 %
Extraction speed 4.3 X
Track quality 100.0 %
Test CRC F492D3BE
Copy CRC F492D3BE
Track not present in AccurateRip database
Copy OK

Track 13

Filename D:EAC RipsFeeder – The Best Of (3 Discs) [FLAC]Disc 213 Suffocate.wav

Peak level 90.7 %
Extraction speed 4.7 X
Track quality 100.0 %
Test CRC 74503ED1
Copy CRC 74503ED1
Track not present in AccurateRip database
Copy OK

Track 14

Filename D:EAC RipsFeeder – The Best Of (3 Discs) [FLAC]Disc 214 Side By Side.wav

Peak level 98.7 %
Extraction speed 4.6 X
Track quality 100.0 %
Test CRC 65AE7274
Copy CRC 65AE7274
Track not present in AccurateRip database
Copy OK

Track 15

Filename D:EAC RipsFeeder – The Best Of (3 Discs) [FLAC]Disc 215 Stereo World.wav

Peak level 89.4 %
Extraction speed 4.7 X
Track quality 100.0 %
Test CRC CFE2890A
Copy CRC CFE2890A
Track not present in AccurateRip database
Copy OK

Track 16

Filename D:EAC RipsFeeder – The Best Of (3 Discs) [FLAC]Disc 216 Paperfaces.wav

Peak level 100.0 %
Extraction speed 4.9 X
Track quality 100.0 %
Test CRC 052F9C3D
Copy CRC 052F9C3D
Track not present in AccurateRip database
Copy OK

Track 17

Filename D:EAC RipsFeeder – The Best Of (3 Discs) [FLAC]Disc 217 Save Us.wav

Peak level 88.5 %
Extraction speed 5.0 X
Track quality 100.0 %
Test CRC E43FC57B
Copy CRC E43FC57B
Track not present in AccurateRip database
Copy OK

Track 18

Filename D:EAC RipsFeeder – The Best Of (3 Discs) [FLAC]Disc 218 Tracing Lines.wav

Peak level 98.0 %
Extraction speed 5.1 X
Track quality 100.0 %
Test CRC 1CEB999D
Copy CRC 1CEB999D
Track not present in AccurateRip database
Copy OK

Track 19

Filename D:EAC RipsFeeder – The Best Of (3 Discs) [FLAC]Disc 219 Miss You.wav

Peak level 98.0 %
Extraction speed 3.5 X
Track quality 99.9 %
Test CRC E856C7A3
Copy CRC E856C7A3
Track not present in AccurateRip database
Copy OK

Track 20

Filename D:EAC RipsFeeder – The Best Of (3 Discs) [FLAC]Disc 220 Children Of The Sun.wav

Peak level 90.7 %
Extraction speed 5.4 X
Track quality 100.0 %
Test CRC 86AF7039
Copy CRC 86AF7039
Track not present in AccurateRip database
Copy OK

None of the tracks are present in the AccurateRip database

No errors occurred

End of status report

–– CUETools DB Plugin V2.1.3

[CTDB TOCID: 9OKZPComngSWOi0D8UdBhCh03IM-] found, Submit result: 9OKZPComngSWOi0D8UdBhCh03IM- has been confirmed
[1e8d091c] (9/9) Accurately ripped

==== Log checksum 9FDCC068AEC5B68DB95F660AAF610C0640A83A245CFFA45E1498E23BD64E4450 ====

EAC CD3
Exact Audio Copy V1.0 beta 3 from 29. August 2011

EAC extraction logfile from 10. October 2017, 21:14

Feeder / Arrow

Used drive : MATSHITABD-MLT UJ260 Adapter: 0 ID: 0

Read mode : Secure
Utilize accurate stream : Yes
Defeat audio cache : Yes
Make use of C2 pointers : No

Read offset correction : 103
Overread into Lead-In and Lead-Out : No
Fill up missing offset samples with silence : Yes
Delete leading and trailing silent blocks : No
Null samples used in CRC calculations : Yes
Used interface : Native Win32 interface for Win NT & 2000
Gap handling : Appended to previous track

Used output format : User Defined Encoder
Selected bitrate : 1024 kBit/s
Quality : High
Add ID3 tag : No
Command line compressor : C:Program Files (x86)Exact Audio CopyFlacflac.exe
Additional command line options : -8 -V -T "artist=%artist%" -T "title=%title%" -T "album=%albumtitle%" -T "date=%year%" -T "tracknumber=%tracknr%" -T "genre=%genre%" %source%

TOC of the extracted CD

Track | Start | Length | Start sector | End sector
––––––––––––––––––––––––––––-
1 | 0:00.00 | 3:46.10 | 0 | 16959
2 | 3:46.10 | 3:07.22 | 16960 | 31006
3 | 6:53.32 | 3:36.12 | 31007 | 47218
4 | 10:29.44 | 3:49.36 | 47219 | 64429
5 | 14:19.05 | 3:31.33 | 64430 | 80287
6 | 17:50.38 | 3:29.48 | 80288 | 96010
7 | 21:20.11 | 3:37.21 | 96011 | 112306
8 | 24:57.32 | 3:42.64 | 112307 | 129020
9 | 28:40.21 | 3:12.69 | 129021 | 143489

Track 1

Filename D:EAC RipsFeeder – The Best Of (3 Discs) [FLAC]Disc 3 (Arrow)1 Figure You Out.wav

Pre-gap length 0:00:02.00

Peak level 98.8 %
Extraction speed 2.4 X
Track quality 100.0 %
Test CRC 750FA2A0
Copy CRC 750FA2A0
Track not present in AccurateRip database
Copy OK

Track 2

Filename D:EAC RipsFeeder – The Best Of (3 Discs) [FLAC]Disc 3 (Arrow)2 Walk Away.wav

Peak level 98.8 %
Extraction speed 2.6 X
Track quality 100.0 %
Test CRC E4DA6228
Copy CRC E4DA6228
Track not present in AccurateRip database
Copy OK

Track 3

Filename D:EAC RipsFeeder – The Best Of (3 Discs) [FLAC]Disc 3 (Arrow)3 Bees.wav

Peak level 98.8 %
Extraction speed 2.8 X
Track quality 100.0 %
Test CRC AD1F42E2
Copy CRC AD1F42E2
Track not present in AccurateRip database
Copy OK

Track 4

Filename D:EAC RipsFeeder – The Best Of (3 Discs) [FLAC]Disc 3 (Arrow)4 Veins.wav

Peak level 98.8 %
Extraction speed 3.0 X
Track quality 100.0 %
Test CRC 69243316
Copy CRC 69243316
Track not present in AccurateRip database
Copy OK

Track 5

Filename D:EAC RipsFeeder – The Best Of (3 Discs) [FLAC]Disc 3 (Arrow)5 Sound Of Birds.wav

Peak level 98.8 %
Extraction speed 3.2 X
Track quality 100.0 %
Test CRC 10DDFA8A
Copy CRC 10DDFA8A
Track not present in AccurateRip database
Copy OK

Track 6

Filename D:EAC RipsFeeder – The Best Of (3 Discs) [FLAC]Disc 3 (Arrow)6 Arrow.wav

Peak level 98.8 %
Extraction speed 3.3 X
Track quality 100.0 %
Test CRC 99F0D5AE
Copy CRC 99F0D5AE
Track not present in AccurateRip database
Copy OK

Track 7

Filename D:EAC RipsFeeder – The Best Of (3 Discs) [FLAC]Disc 3 (Arrow)7 Dive.wav

Peak level 98.8 %
Extraction speed 3.5 X
Track quality 100.0 %
Test CRC 0D8CD334
Copy CRC 0D8CD334
Track not present in AccurateRip database
Copy OK

Track 8

Filename D:EAC RipsFeeder – The Best Of (3 Discs) [FLAC]Disc 3 (Arrow)8 Sirens.wav

Peak level 98.8 %
Extraction speed 3.7 X
Track quality 100.0 %
Test CRC 99ECACB1
Copy CRC 99ECACB1
Track not present in AccurateRip database
Copy OK

Track 9

Filename D:EAC RipsFeeder – The Best Of (3 Discs) [FLAC]Disc 3 (Arrow)9 Landslide.wav

Peak level 98.8 %
Extraction speed 2.6 X
Track quality 99.9 %
Test CRC 473FA148
Copy CRC 473FA148
Track not present in AccurateRip database
Copy OK

None of the tracks are present in the AccurateRip database

No errors occurred

End of status report

–– CUETools DB Plugin V2.1.3

[CTDB TOCID: XD92fBKzqmQTmZxOPSMQEX3UyUw-] found, Submit result: XD92fBKzqmQTmZxOPSMQEX3UyUw- has been confirmed
[1725672a] (11/11) Accurately ripped

==== Log checksum 4C4BC42C24025E6B49B22093D4BAEFC718B2E31FFA868A970BE21E8EE6B1DD78 ====

Thanks to the Original ripper lemmy !

Feeder – The Best Of (Deluxe Edition) (2017) Download, Warez, DDL, Free, Full Album, Torrent, Legal.

Download