Fazil Say – Mozart: Complete Piano Sonatas (2016) | ViralVideoPk

Daily Dose of Free Downloads

Fazil Say – Mozart: Complete Piano Sonatas (2016)

Download

Fazil Say - Mozart: Complete Piano Sonatas (2016)

Fazil Say – Mozart: Complete Piano Sonatas
Classical | FLAC (tracks)+cue, log, artwork | 06:14:20 | 1.16 GB
Label: Warner Classics | Tracks: 55 | Rls.date: 2016

With his extraordinary pianistic talents, Turkish pianist Fazıl Say has been touching audiences and critics alike for more than twenty-five years, in a way that has become rare in the increasingly materialistic and elaborately organised classical music world. He is a pianist, composer and director with firm reputation in Europe, Asia and the US. After spending five years under David Levine at the Robert Schumann Institute in Düsseldorf and further studies at the Berlin Conservatory he came to international attention 1994 when he was the winner of the Young Concert Artists International Auditions. Since then he has become a regular guest artist with orchestras such as the New York Philharmonic, the Israel Philharmonic, the Baltimore Symphony, the St Petersburg Philharmonic , the Concertgebouw Orchestra Amsterdam, the Vienna Symphony Orchestra, the BBC Philharmonic, and the Orchestre National de France.

This release sees him return to Mozart, a composer with whom he has a great affinity, and a recording of his complete piano sonatas. The sonatas here are grouped by key, revealing Mozart’s unique approach to tonality.

Fazil Say - Mozart: Complete Piano Sonatas (2016)

___________________________________________________________________________________________________________

Fazil Say - Mozart: Complete Piano Sonatas (2016)

Tracklist Disc 1

1. Piano Sonata No. 11 in A Major, K. 331, “Alla Turca”: I. Andante grazioso
2. Piano Sonata No. 11 in A Major, K. 331, “Alla Turca”: II. Menuetto – Trio
3. Piano Sonata No. 11 in A Major, K. 331, “Alla Turca”: III. Alla Turca – Allegretto
4. Piano Sonata No. 9 in A Minor, K. 310: I. Allegro con spirito
5. Piano Sonata No. 9 in A Minor, K. 310: II. Andante cantabile con espressione
6. Piano Sonata No. 9 in A Minor, K. 310: III. Presto

EAC Log
Exact Audio Copy V1.3 from 2. September 2016

EAC extraction logfile from 24. December 2016, 22:33

Fazil Say / Mozart – Complete Piano Sonatas CD6

Used drive : ATAPI iHBS112 2 Adapter: 1 ID: 1

Read mode : Secure
Utilize accurate stream : Yes
Defeat audio cache : Yes
Make use of C2 pointers : No

Read offset correction : 6
Overread into Lead-In and Lead-Out : No
Fill up missing offset samples with silence : Yes
Delete leading and trailing silent blocks : No
Null samples used in CRC calculations : Yes
Used interface : Native Win32 interface for Win NT & 2000
Gap handling : Appended to previous track

Used output format : User Defined Encoder
Selected bitrate : 128 kBit/s
Quality : High
Add ID3 tag : No
Command line compressor : C:Program Files (x86)Exact Audio CopyFlacflac.exe
Additional command line options : -8 -V -T "ARTIST=%artist%" -T "TITLE=%title%" -T "ALBUM=%albumtitle%" -T "DATE=%year%" -T "TRACKNUMBER=%tracknr%" -T "GENRE=%genre%" -T "PERFORMER=%albuminterpret%" -T "COMPOSER=%composer%" -T "ALBUMARTIST=%albumartist%" -T "DISCNUMBER=%cdnumber%" -T "TOTALDISCS=%totalcds%" -T "TOTALTRACKS=%numtracks%" -T "COMMENT=EAC Secure Mode, Test & Copy, AccurateRip, FLAC -8" %source% -o %dest%

TOC of the extracted CD

Track | Start | Length | Start sector | End sector
––––––––––––––––––––––––––––-
1 | 0:00.00 | 10:23.42 | 0 | 46766
2 | 10:23.42 | 9:17.68 | 46767 | 88609
3 | 19:41.35 | 6:07.53 | 88610 | 116187
4 | 25:49.13 | 5:22.31 | 116188 | 140368
5 | 31:11.44 | 6:28.72 | 140369 | 169540
6 | 37:40.41 | 3:41.35 | 169541 | 186150
7 | 41:22.01 | 3:17.37 | 186151 | 200962
8 | 44:39.38 | 5:19.17 | 200963 | 224904
9 | 49:58.55 | 6:09.70 | 224905 | 252649
10 | 56:08.50 | 6:08.16 | 252650 | 280265

Track 1

Filename D:DLMozart – Complete Piano Sonatas (2016) [FLAC]CD61 – Fantasia in c minor K.475.wav

Pre-gap length 0:00:02.00

Peak level 90.8 %
Extraction speed 5.9 X
Track quality 100.0 %
Test CRC D46F825D
Copy CRC D46F825D
Track not present in AccurateRip database
Copy OK

Track 2

Filename D:DLMozart – Complete Piano Sonatas (2016) [FLAC]CD62 – Piano Sonata no.14 in c minor, K.457 – I. Molto Allegro.wav

Peak level 79.5 %
Extraction speed 7.2 X
Track quality 100.0 %
Test CRC DDE3BFB0
Copy CRC DDE3BFB0
Track not present in AccurateRip database
Copy OK

Track 3

Filename D:DLMozart – Complete Piano Sonatas (2016) [FLAC]CD63 – Piano Sonata no.14 in c minor, K.457 – II. Adagio.wav

Peak level 47.6 %
Extraction speed 7.7 X
Track quality 100.0 %
Test CRC 93D64ABE
Copy CRC 93D64ABE
Track not present in AccurateRip database
Copy OK

Track 4

Filename D:DLMozart – Complete Piano Sonatas (2016) [FLAC]CD64 – Piano Sonata no.14 in c minor, K.457 – III. Allegro.wav

Peak level 94.3 %
Extraction speed 8.1 X
Track quality 100.0 %
Test CRC F2973AF8
Copy CRC F2973AF8
Track not present in AccurateRip database
Copy OK

Track 5

Filename D:DLMozart – Complete Piano Sonatas (2016) [FLAC]CD65 – Piano Sonata no.4 in E flat, K.282 – I. Adagio.wav

Peak level 63.9 %
Extraction speed 8.8 X
Track quality 100.0 %
Test CRC B3210D15
Copy CRC B3210D15
Track not present in AccurateRip database
Copy OK

Track 6

Filename D:DLMozart – Complete Piano Sonatas (2016) [FLAC]CD66 – Piano Sonata no.4 in E flat, K.282 – II. Menuetto I – II.wav

Peak level 77.6 %
Extraction speed 8.6 X
Track quality 100.0 %
Test CRC 15F422A0
Copy CRC 15F422A0
Track not present in AccurateRip database
Copy OK

Track 7

Filename D:DLMozart – Complete Piano Sonatas (2016) [FLAC]CD67 – Piano Sonata no.4 in E flat, K.282 – III. Allegro.wav

Peak level 78.5 %
Extraction speed 8.8 X
Track quality 100.0 %
Test CRC 1CDB5B60
Copy CRC 1CDB5B60
Track not present in AccurateRip database
Copy OK

Track 8

Filename D:DLMozart – Complete Piano Sonatas (2016) [FLAC]CD68 – Piano Sonata no.5 in G, K.283 – I. Allegro.wav

Peak level 76.0 %
Extraction speed 9.5 X
Track quality 100.0 %
Test CRC 20EC5080
Copy CRC 20EC5080
Track not present in AccurateRip database
Copy OK

Track 9

Filename D:DLMozart – Complete Piano Sonatas (2016) [FLAC]CD69 – Piano Sonata no.5 in G, K.283 – II. Andante.wav

Peak level 52.2 %
Extraction speed 10.1 X
Track quality 100.0 %
Test CRC C32A078B
Copy CRC C32A078B
Track not present in AccurateRip database
Copy OK

Track 10

Filename D:DLMozart – Complete Piano Sonatas (2016) [FLAC]CD610 – Piano Sonata no.5 in G, K.283 – III. Presto.wav

Peak level 97.7 %
Extraction speed 6.3 X
Track quality 99.8 %
Test CRC 4ED270A8
Copy CRC 4ED270A8
Track not present in AccurateRip database
Copy OK

None of the tracks are present in the AccurateRip database

No errors occurred

End of status report

–– CUETools DB Plugin V2.1.6

[CTDB TOCID: aIzZwBouAXkNB4_LPB9hkuLMN3I-] found
Submit result: aIzZwBouAXkNB4_LPB9hkuLMN3I- has been confirmed
Track | CTDB Status
1 | (6/6) Accurately ripped
2 | (6/6) Accurately ripped
3 | (6/6) Accurately ripped
4 | (6/6) Accurately ripped
5 | (6/6) Accurately ripped
6 | (6/6) Accurately ripped
7 | (6/6) Accurately ripped
8 | (6/6) Accurately ripped
9 | (6/6) Accurately ripped
10 | (6/6) Accurately ripped

==== Log checksum 0A7C36416E546FAE589D0BC02218A3FD0F504AFF676862E5CEEEE8B1FB6FB9B6 ====

Fazil Say - Mozart: Complete Piano Sonatas (2016)

Tracklist Disc 2

1. Piano Sonata No. 10 in C Major, K. 330: I. Allegro moderato
2. Piano Sonata No. 10 in C Major, K. 330: II. Andante Cantabile
3. Piano Sonata No. 10 in C Major, K. 330: III. Allegretto
4. Piano Sonata No. 16 in C Major, K. 545: I. Allegro
5. Piano Sonata No. 16 in C Major, K. 545: II. Andante
6. Piano Sonata No. 16 in C Major, K. 545: III. Rondo – Allegretto
7. Piano Sonata No. 7 in C Major, K. 309: I. Allegro con spirito
8. Piano Sonata No. 7 in C Major, K. 309: II. Andante un poco adagio
9. Piano Sonata No. 7 in C Major, K. 309: III. Rondo – Allegretto grazioso
10. Piano Sonata No. 1 in C Major, K. 279: I. Allegro
11. Piano Sonata No. 1 in C Major, K. 279: II. Andante
12. Piano Sonata No. 1 in C Major, K. 279: III. Allegro

EAC Log
Exact Audio Copy V1.3 from 2. September 2016

EAC extraction logfile from 24. December 2016, 18:37

Fazil Say / Mozart – Complete Piano Sonatas CD2

Used drive : ATAPI iHBS112 2 Adapter: 1 ID: 1

Read mode : Secure
Utilize accurate stream : Yes
Defeat audio cache : Yes
Make use of C2 pointers : No

Read offset correction : 6
Overread into Lead-In and Lead-Out : No
Fill up missing offset samples with silence : Yes
Delete leading and trailing silent blocks : No
Null samples used in CRC calculations : Yes
Used interface : Native Win32 interface for Win NT & 2000
Gap handling : Appended to previous track

Used output format : User Defined Encoder
Selected bitrate : 128 kBit/s
Quality : High
Add ID3 tag : No
Command line compressor : C:Program Files (x86)Exact Audio CopyFlacflac.exe
Additional command line options : -8 -V -T "ARTIST=%artist%" -T "TITLE=%title%" -T "ALBUM=%albumtitle%" -T "DATE=%year%" -T "TRACKNUMBER=%tracknr%" -T "GENRE=%genre%" -T "PERFORMER=%albuminterpret%" -T "COMPOSER=%composer%" -T "ALBUMARTIST=%albumartist%" -T "DISCNUMBER=%cdnumber%" -T "TOTALDISCS=%totalcds%" -T "TOTALTRACKS=%numtracks%" -T "COMMENT=EAC Secure Mode, Test & Copy, AccurateRip, FLAC -8" %source% -o %dest%

TOC of the extracted CD

Track | Start | Length | Start sector | End sector
––––––––––––––––––––––––––––-
1 | 0:00.00 | 9:23.55 | 0 | 42279
2 | 9:23.55 | 7:01.20 | 42280 | 73874
3 | 16:25.00 | 7:44.23 | 73875 | 108697
4 | 24:09.23 | 4:12.40 | 108698 | 127637
5 | 28:21.63 | 6:09.72 | 127638 | 155384
6 | 34:31.60 | 1:30.24 | 155385 | 162158
7 | 36:02.09 | 8:19.15 | 162159 | 199598
8 | 44:21.24 | 5:14.43 | 199599 | 223191
9 | 49:35.67 | 6:05.32 | 223192 | 250598
10 | 55:41.24 | 6:35.63 | 250599 | 280286
11 | 62:17.12 | 7:33.04 | 280287 | 314265
12 | 69:50.16 | 4:46.30 | 314266 | 335745

Track 1

Filename D:DLMozart – Complete Piano Sonatas (2016) [FLAC]CD21 – Piano Sonata No. 10 in C Major, K. 330 – I. Allegro moderato.wav

Pre-gap length 0:00:02.00

Peak level 49.1 %
Extraction speed 5.8 X
Track quality 99.9 %
Test CRC BB016FF7
Copy CRC BB016FF7
Track not present in AccurateRip database
Copy OK

Track 2

Filename D:DLMozart – Complete Piano Sonatas (2016) [FLAC]CD22 – Piano Sonata No. 10 in C Major, K. 330 – II. Andante Cantabile.wav

Peak level 50.8 %
Extraction speed 6.4 X
Track quality 99.9 %
Test CRC E871481D
Copy CRC E871481D
Track not present in AccurateRip database
Copy OK

Track 3

Filename D:DLMozart – Complete Piano Sonatas (2016) [FLAC]CD23 – Piano Sonata No. 10 in C Major, K. 330 – III. Allegretto.wav

Peak level 92.3 %
Extraction speed 8.0 X
Track quality 100.0 %
Test CRC D97866CF
Copy CRC D97866CF
Track not present in AccurateRip database
Copy OK

Track 4

Filename D:DLMozart – Complete Piano Sonatas (2016) [FLAC]CD24 – Piano Sonata No. 16 in C Major, K. 545 – I. Allegro.wav

Peak level 59.8 %
Extraction speed 8.1 X
Track quality 100.0 %
Test CRC AB21D4FF
Copy CRC AB21D4FF
Track not present in AccurateRip database
Copy OK

Track 5

Filename D:DLMozart – Complete Piano Sonatas (2016) [FLAC]CD25 – Piano Sonata No. 16 in C Major, K. 545 – II. Andante.wav

Peak level 52.8 %
Extraction speed 8.8 X
Track quality 100.0 %
Test CRC D804C511
Copy CRC D804C511
Track not present in AccurateRip database
Copy OK

Track 6

Filename D:DLMozart – Complete Piano Sonatas (2016) [FLAC]CD26 – Piano Sonata No. 16 in C Major, K. 545 – III. Rondo – Allegretto.wav

Peak level 56.7 %
Extraction speed 4.9 X
Track quality 99.8 %
Test CRC F44751C6
Copy CRC F44751C6
Track not present in AccurateRip database
Copy OK

Track 7

Filename D:DLMozart – Complete Piano Sonatas (2016) [FLAC]CD27 – Piano Sonata No. 7 in C Major, K. 309 – I. Allegro con spirito.wav

Peak level 95.6 %
Extraction speed 9.7 X
Track quality 100.0 %
Test CRC 398B5395
Copy CRC 398B5395
Track not present in AccurateRip database
Copy OK

Track 8

Filename D:DLMozart – Complete Piano Sonatas (2016) [FLAC]CD28 – Piano Sonata No. 7 in C Major, K. 309 – II. Andante un poco adagio.wav

Peak level 59.6 %
Extraction speed 9.8 X
Track quality 100.0 %
Test CRC E993D657
Copy CRC E993D657
Track not present in AccurateRip database
Copy OK

Track 9

Filename D:DLMozart – Complete Piano Sonatas (2016) [FLAC]CD29 – Piano Sonata No. 7 in C Major, K. 309 – III. Rondo – Allegretto grazioso.wav

Peak level 82.1 %
Extraction speed 10.3 X
Track quality 100.0 %
Test CRC C105114B
Copy CRC C105114B
Track not present in AccurateRip database
Copy OK

Track 10

Filename D:DLMozart – Complete Piano Sonatas (2016) [FLAC]CD210 – Piano Sonata No. 1 in C Major, K. 279 – I. Allegro.wav

Peak level 71.6 %
Extraction speed 10.8 X
Track quality 100.0 %
Test CRC A1AC07E6
Copy CRC A1AC07E6
Track not present in AccurateRip database
Copy OK

Track 11

Filename D:DLMozart – Complete Piano Sonatas (2016) [FLAC]CD211 – Piano Sonata No. 1 in C Major, K. 279 – II. Andante.wav

Peak level 67.0 %
Extraction speed 11.3 X
Track quality 100.0 %
Test CRC D6DB9B33
Copy CRC D6DB9B33
Track not present in AccurateRip database
Copy OK

Track 12

Filename D:DLMozart – Complete Piano Sonatas (2016) [FLAC]CD212 – Piano Sonata No. 1 in C Major, K. 279 – III. Allegro.wav

Peak level 77.7 %
Extraction speed 11.1 X
Track quality 100.0 %
Test CRC 0CD35091
Copy CRC 0CD35091
Track not present in AccurateRip database
Copy OK

None of the tracks are present in the AccurateRip database

No errors occurred

End of status report

–– CUETools DB Plugin V2.1.6

[CTDB TOCID: F.hvYujx8Xf8R_Yogejcfq.6GO0-] found
Submit result: F.hvYujx8Xf8R_Yogejcfq.6GO0- has been confirmed
Track | CTDB Status
1 | (6/9) Accurately ripped
2 | (6/9) Accurately ripped
3 | (6/9) Accurately ripped
4 | (6/9) Accurately ripped
5 | (6/9) Accurately ripped
6 | (6/9) Accurately ripped
7 | (6/9) Accurately ripped
8 | (6/9) Accurately ripped
9 | (6/9) Accurately ripped
10 | (6/9) Accurately ripped
11 | (6/9) Accurately ripped
12 | (6/9) Accurately ripped

==== Log checksum A4BA4F1626D4FECE62E35D851DB408B18D4313A505E3B7F6A092A52715D8CFB5 ====

Fazil Say - Mozart: Complete Piano Sonatas (2016)

Tracklist Disc 3

1. Piano Sonata No. 12 in F Major, K. 332: I. Allegro
2. Piano Sonata No. 12 in F Major, K. 332: II. Adagio
3. Piano Sonata No. 12 in F Major, K. 332: III. Allegro assai
4. Piano Sonata No. 2 in F Major, K. 280: I. Allegro assai
5. Piano Sonata No. 2 in F Major, K. 280: II. Adagio
6. Piano Sonata No. 2 in F Major, K. 280: III. Presto
7. Piano Sonata No. 15 in F Major, K. 533: I. Allegro
8. Piano Sonata No. 15 in F Major, K. 533: II. Andante
9. Piano Sonata No. 15 in F Major, K. 533: III. Rondo – Allegretto

EAC Log
Exact Audio Copy V1.3 from 2. September 2016

EAC extraction logfile from 24. December 2016, 19:50

Fazil Say / Mozart – Complete Piano Sonatas CD3

Used drive : ATAPI iHBS112 2 Adapter: 1 ID: 1

Read mode : Secure
Utilize accurate stream : Yes
Defeat audio cache : Yes
Make use of C2 pointers : No

Read offset correction : 6
Overread into Lead-In and Lead-Out : No
Fill up missing offset samples with silence : Yes
Delete leading and trailing silent blocks : No
Null samples used in CRC calculations : Yes
Used interface : Native Win32 interface for Win NT & 2000
Gap handling : Appended to previous track

Used output format : User Defined Encoder
Selected bitrate : 128 kBit/s
Quality : High
Add ID3 tag : No
Command line compressor : C:Program Files (x86)Exact Audio CopyFlacflac.exe
Additional command line options : -8 -V -T "ARTIST=%artist%" -T "TITLE=%title%" -T "ALBUM=%albumtitle%" -T "DATE=%year%" -T "TRACKNUMBER=%tracknr%" -T "GENRE=%genre%" -T "PERFORMER=%albuminterpret%" -T "COMPOSER=%composer%" -T "ALBUMARTIST=%albumartist%" -T "DISCNUMBER=%cdnumber%" -T "TOTALDISCS=%totalcds%" -T "TOTALTRACKS=%numtracks%" -T "COMMENT=EAC Secure Mode, Test & Copy, AccurateRip, FLAC -8" %source% -o %dest%

TOC of the extracted CD

Track | Start | Length | Start sector | End sector
––––––––––––––––––––––––––––-
1 | 0:00.00 | 9:08.19 | 0 | 41118
2 | 9:08.19 | 3:56.49 | 41119 | 58867
3 | 13:04.68 | 10:01.57 | 58868 | 103999
4 | 23:06.50 | 6:23.28 | 104000 | 132752
5 | 29:30.03 | 7:35.57 | 132753 | 166934
6 | 37:05.60 | 4:23.61 | 166935 | 186720
7 | 41:29.46 | 10:25.38 | 186721 | 233633
8 | 51:55.09 | 12:14.60 | 233634 | 288743
9 | 64:09.69 | 6:22.34 | 288744 | 317427

Track 1

Filename D:DLMozart – Complete Piano Sonatas (2016) [FLAC]CD31 – Piano Sonata No.12 In F Major, K.332 – 1. Allegro.wav

Pre-gap length 0:00:02.00

Peak level 93.8 %
Extraction speed 6.0 X
Track quality 100.0 %
Test CRC B40C78A2
Copy CRC B40C78A2
Track not present in AccurateRip database
Copy OK

Track 2

Filename D:DLMozart – Complete Piano Sonatas (2016) [FLAC]CD32 – Piano Sonata No.12 In F Major, K.332 – 2. Adagio.wav

Peak level 45.8 %
Extraction speed 6.3 X
Track quality 100.0 %
Test CRC D8D074F1
Copy CRC D8D074F1
Track not present in AccurateRip database
Copy OK

Track 3

Filename D:DLMozart – Complete Piano Sonatas (2016) [FLAC]CD33 – Piano Sonata No.12 In F Major, K.332 – 3. Allegro Assai.wav

Peak level 97.8 %
Extraction speed 7.6 X
Track quality 100.0 %
Test CRC 971FA03C
Copy CRC 971FA03C
Track not present in AccurateRip database
Copy OK

Track 4

Filename D:DLMozart – Complete Piano Sonatas (2016) [FLAC]CD34 – Piano Sonata No.2 In F Major, K.280 – 1. Allegro Assai.wav

Peak level 86.9 %
Extraction speed 8.2 X
Track quality 100.0 %
Test CRC 6513D9FC
Copy CRC 6513D9FC
Track not present in AccurateRip database
Copy OK

Track 5

Filename D:DLMozart – Complete Piano Sonatas (2016) [FLAC]CD35 – Piano Sonata No.2 In F Major, K.280 – 2. Adagio.wav

Peak level 70.6 %
Extraction speed 8.9 X
Track quality 100.0 %
Test CRC 0EFA61AC
Copy CRC 0EFA61AC
Track not present in AccurateRip database
Copy OK

Track 6

Filename D:DLMozart – Complete Piano Sonatas (2016) [FLAC]CD36 – Piano Sonata No.2 In F Major, K.280 – 3. Presto.wav

Peak level 72.3 %
Extraction speed 8.8 X
Track quality 100.0 %
Test CRC B50D1A22
Copy CRC B50D1A22
Track not present in AccurateRip database
Copy OK

Track 7

Filename D:DLMozart – Complete Piano Sonatas (2016) [FLAC]CD37 – Piano Sonata No.15 In F Major, K.533 – 1. Allegro.wav

Peak level 79.6 %
Extraction speed 10.0 X
Track quality 100.0 %
Test CRC 1721D178
Copy CRC 1721D178
Track not present in AccurateRip database
Copy OK

Track 8

Filename D:DLMozart – Complete Piano Sonatas (2016) [FLAC]CD38 – Piano Sonata No.15 In F Major, K.533 – 2. Andante.wav

Peak level 56.2 %
Extraction speed 10.8 X
Track quality 100.0 %
Test CRC 428B6BB7
Copy CRC 428B6BB7
Track not present in AccurateRip database
Copy OK

Track 9

Filename D:DLMozart – Complete Piano Sonatas (2016) [FLAC]CD39 – Piano Sonata No.15 In F Major, K.533 – 3. Rondo – Allegretto.wav

Peak level 85.3 %
Extraction speed 4.2 X
Track quality 99.6 %
Test CRC 9FA71AB8
Copy CRC 9FA71AB8
Track not present in AccurateRip database
Copy OK

None of the tracks are present in the AccurateRip database

No errors occurred

End of status report

–– CUETools DB Plugin V2.1.6

[CTDB TOCID: Vrtf6V.Zh5yuvcMtFXcvu65zW5s-] found
Submit result: Vrtf6V.Zh5yuvcMtFXcvu65zW5s- has been confirmed
Track | CTDB Status
1 | (6/9) Accurately ripped
2 | (6/9) Accurately ripped
3 | (6/9) Accurately ripped
4 | (6/9) Accurately ripped
5 | (6/9) Accurately ripped
6 | (6/9) Accurately ripped
7 | (6/9) Accurately ripped
8 | (6/9) Accurately ripped
9 | (6/9) Accurately ripped

==== Log checksum FBA187D0D27DA2369A3ADA27ECDB6A54C8D6A2E63440187D5B16820B28CB8DC4 ====

Fazil Say - Mozart: Complete Piano Sonatas (2016)

Tracklist Disc 4

1. Piano Sonata No. 18 in D Major, K. 576: I. Allegro
2. Piano Sonata No. 18 in D Major, K. 576: II. Adagio
3. Piano Sonata No. 18 in D Major, K. 576: III. Allegretto
4. Piano Sonata No. 6 in D Major, K. 284: I. Allegro
5. Piano Sonata No. 6 in D Major, K. 284: II. Rondeau en Polonaise – Andante
6. Piano Sonata No. 6 in D Major, K. 284: III. Tema con 12 Variazioni
7. Piano Sonata No. 8 in D Major, K. 311: I. Allegro con spirito
8. Piano Sonata No. 8 in D Major, K. 311: II. Andante con espressionne
9. Piano Sonata No. 8 in D Major, K. 311: III. Rondeau – Allegro

EAC Log
Exact Audio Copy V1.3 from 2. September 2016

EAC extraction logfile from 24. December 2016, 21:14

Fazil Say / Mozart – Complete Piano Sonatas CD4

Used drive : ATAPI iHBS112 2 Adapter: 1 ID: 1

Read mode : Secure
Utilize accurate stream : Yes
Defeat audio cache : Yes
Make use of C2 pointers : No

Read offset correction : 6
Overread into Lead-In and Lead-Out : No
Fill up missing offset samples with silence : Yes
Delete leading and trailing silent blocks : No
Null samples used in CRC calculations : Yes
Used interface : Native Win32 interface for Win NT & 2000
Gap handling : Appended to previous track

Used output format : User Defined Encoder
Selected bitrate : 128 kBit/s
Quality : High
Add ID3 tag : No
Command line compressor : C:Program Files (x86)Exact Audio CopyFlacflac.exe
Additional command line options : -8 -V -T "ARTIST=%artist%" -T "TITLE=%title%" -T "ALBUM=%albumtitle%" -T "DATE=%year%" -T "TRACKNUMBER=%tracknr%" -T "GENRE=%genre%" -T "PERFORMER=%albuminterpret%" -T "COMPOSER=%composer%" -T "ALBUMARTIST=%albumartist%" -T "DISCNUMBER=%cdnumber%" -T "TOTALDISCS=%totalcds%" -T "TOTALTRACKS=%numtracks%" -T "COMMENT=EAC Secure Mode, Test & Copy, AccurateRip, FLAC -8" %source% -o %dest%

TOC of the extracted CD

Track | Start | Length | Start sector | End sector
––––––––––––––––––––––––––––-
1 | 0:00.00 | 5:01.21 | 0 | 22595
2 | 5:01.21 | 4:51.09 | 22596 | 44429
3 | 9:52.30 | 4:31.20 | 44430 | 64774
4 | 14:23.50 | 7:36.51 | 64775 | 99025
5 | 22:00.26 | 5:22.10 | 99026 | 123185
6 | 27:22.36 | 16:59.23 | 123186 | 199633
7 | 44:21.59 | 6:33.23 | 199634 | 229131
8 | 50:55.07 | 5:24.19 | 229132 | 253450
9 | 56:19.26 | 6:00.40 | 253451 | 280490

Track 1

Filename D:DLMozart – Complete Piano Sonatas (2016) [FLAC]CD41 – Piano Sonata No. 18 in D Major, K. 576- I. Allegro.wav

Pre-gap length 0:00:02.00

Peak level 83.9 %
Extraction speed 5.1 X
Track quality 100.0 %
Test CRC 3FDF403B
Copy CRC 3FDF403B
Track not present in AccurateRip database
Copy OK

Track 2

Filename D:DLMozart – Complete Piano Sonatas (2016) [FLAC]CD42 – Piano Sonata No. 18 in D Major, K. 576- II. Adagio.wav

Peak level 61.6 %
Extraction speed 5.9 X
Track quality 100.0 %
Test CRC 09848066
Copy CRC 09848066
Track not present in AccurateRip database
Copy OK

Track 3

Filename D:DLMozart – Complete Piano Sonatas (2016) [FLAC]CD43 – Piano Sonata No. 18 in D Major, K. 576- III. Allegretto.wav

Peak level 74.2 %
Extraction speed 5.5 X
Track quality 99.9 %
Test CRC F614569D
Copy CRC F614569D
Track not present in AccurateRip database
Copy OK

Track 4

Filename D:DLMozart – Complete Piano Sonatas (2016) [FLAC]CD44 – Piano Sonata No. 6 in D Major, K. 284- I. Allegro.wav

Peak level 95.7 %
Extraction speed 7.4 X
Track quality 100.0 %
Test CRC B49730B1
Copy CRC B49730B1
Track not present in AccurateRip database
Copy OK

Track 5

Filename D:DLMozart – Complete Piano Sonatas (2016) [FLAC]CD45 – Piano Sonata No. 6 in D Major, K. 284- II. Rondeau en Polonaise – Andante.wav

Peak level 70.1 %
Extraction speed 7.8 X
Track quality 100.0 %
Test CRC 1019B7F8
Copy CRC 1019B7F8
Track not present in AccurateRip database
Copy OK

Track 6

Filename D:DLMozart – Complete Piano Sonatas (2016) [FLAC]CD46 – Piano Sonata No. 6 in D Major, K. 284- III. Tema con 12 Variazioni.wav

Peak level 93.9 %
Extraction speed 9.4 X
Track quality 100.0 %
Test CRC 3FABA4E7
Copy CRC 3FABA4E7
Track not present in AccurateRip database
Copy OK

Track 7

Filename D:DLMozart – Complete Piano Sonatas (2016) [FLAC]CD47 – Piano Sonata No. 8 in D Major, K. 311- I. Allegro con spirito.wav

Peak level 83.8 %
Extraction speed 9.8 X
Track quality 100.0 %
Test CRC 400115C8
Copy CRC 400115C8
Track not present in AccurateRip database
Copy OK

Track 8

Filename D:DLMozart – Complete Piano Sonatas (2016) [FLAC]CD48 – Piano Sonata No. 8 in D Major, K. 311- II. Andante con espressionne.wav

Peak level 60.2 %
Extraction speed 10.0 X
Track quality 100.0 %
Test CRC E2A5B9C2
Copy CRC E2A5B9C2
Track not present in AccurateRip database
Copy OK

Track 9

Filename D:DLMozart – Complete Piano Sonatas (2016) [FLAC]CD49 – Piano Sonata No. 8 in D Major, K. 311- III. Rondeau – Allegro.wav

Peak level 95.8 %
Extraction speed 9.1 X
Track quality 99.9 %
Test CRC FA201DAD
Copy CRC FA201DAD
Track not present in AccurateRip database
Copy OK

None of the tracks are present in the AccurateRip database

No errors occurred

End of status report

–– CUETools DB Plugin V2.1.6

[CTDB TOCID: H6kNPADEl4NQWc0bC3K0yJRztBM-] found
Submit result: H6kNPADEl4NQWc0bC3K0yJRztBM- has been confirmed
Track | CTDB Status
1 | (6/9) Accurately ripped
2 | (6/9) Accurately ripped
3 | (6/9) Accurately ripped
4 | (6/9) Accurately ripped
5 | (6/9) Accurately ripped
6 | (6/9) Accurately ripped
7 | (6/9) Accurately ripped
8 | (6/9) Accurately ripped
9 | (6/9) Accurately ripped

==== Log checksum D1B18A3AE3721ABA12EC0D39F8CBA3700BC4651FDB0A90F6300D6F271FD3411C ====

Fazil Say - Mozart: Complete Piano Sonatas (2016)

Tracklist Disc 5

1. Piano Sonata No. 13 in B-Flat Major, K. 333: I. Allegro
2. Piano Sonata No. 13 in B-Flat Major, K. 333: II. Andante cantabile
3. Piano Sonata No. 13 in B-Flat Major, K. 333: III. Allegretto grazioso
4. Piano Sonata No. 3 in B-Flat Major, K. 281: I. Allegro
5. Piano Sonata No. 3 in B-Flat Major, K. 281: II. Andante amoroso
6. Piano Sonata No. 3 in B-Flat Major, K. 281: III. Rondeau
7. Piano Sonata No. 17 in B-Flat Major, K. 570: I. Allegro
8. Piano Sonata No. 17 in B-Flat Major, K. 570: II. Adagio
9. Piano Sonata No. 17 in B-Flat Major, K. 570: III. Allegretto

EAC Log
Exact Audio Copy V1.3 from 2. September 2016

EAC extraction logfile from 24. December 2016, 21:45

Fazil Say / Mozart – Complete Piano Sonatas CD5

Used drive : ATAPI iHBS112 2 Adapter: 1 ID: 1

Read mode : Secure
Utilize accurate stream : Yes
Defeat audio cache : Yes
Make use of C2 pointers : No

Read offset correction : 6
Overread into Lead-In and Lead-Out : No
Fill up missing offset samples with silence : Yes
Delete leading and trailing silent blocks : No
Null samples used in CRC calculations : Yes
Used interface : Native Win32 interface for Win NT & 2000
Gap handling : Appended to previous track

Used output format : User Defined Encoder
Selected bitrate : 128 kBit/s
Quality : High
Add ID3 tag : No
Command line compressor : C:Program Files (x86)Exact Audio CopyFlacflac.exe
Additional command line options : -8 -V -T "ARTIST=%artist%" -T "TITLE=%title%" -T "ALBUM=%albumtitle%" -T "DATE=%year%" -T "TRACKNUMBER=%tracknr%" -T "GENRE=%genre%" -T "PERFORMER=%albuminterpret%" -T "COMPOSER=%composer%" -T "ALBUMARTIST=%albumartist%" -T "DISCNUMBER=%cdnumber%" -T "TOTALDISCS=%totalcds%" -T "TOTALTRACKS=%numtracks%" -T "COMMENT=EAC Secure Mode, Test & Copy, AccurateRip, FLAC -8" %source% -o %dest%

TOC of the extracted CD

Track | Start | Length | Start sector | End sector
––––––––––––––––––––––––––––-
1 | 0:00.00 | 10:08.30 | 0 | 45629
2 | 10:08.30 | 10:18.67 | 45630 | 92046
3 | 20:27.22 | 6:06.16 | 92047 | 119512
4 | 26:33.38 | 6:32.09 | 119513 | 148921
5 | 33:05.47 | 5:43.37 | 148922 | 174683
6 | 38:49.09 | 4:42.59 | 174684 | 195892
7 | 43:31.68 | 7:56.09 | 195893 | 231601
8 | 51:28.02 | 7:03.62 | 231602 | 263388
9 | 58:31.64 | 3:33.11 | 263389 | 279374

Track 1

Filename D:DLMozart – Complete Piano Sonatas (2016) [FLAC]CD51 – Piano Sonata No. 13 in B-Flat Major, K. 333 – I. Allegro.wav

Pre-gap length 0:00:02.00

Peak level 67.9 %
Extraction speed 5.9 X
Track quality 100.0 %
Test CRC CF0F8A57
Copy CRC CF0F8A57
Track not present in AccurateRip database
Copy OK

Track 2

Filename D:DLMozart – Complete Piano Sonatas (2016) [FLAC]CD52 – Piano Sonata No. 13 in B-Flat Major, K. 333 – II. Andante cantabile.wav

Peak level 58.8 %
Extraction speed 7.2 X
Track quality 100.0 %
Test CRC 5A8072C1
Copy CRC 5A8072C1
Track not present in AccurateRip database
Copy OK

Track 3

Filename D:DLMozart – Complete Piano Sonatas (2016) [FLAC]CD53 – Piano Sonata No. 13 in B-Flat Major, K. 333 – III. Allegretto grazioso.wav

Peak level 94.6 %
Extraction speed 7.8 X
Track quality 100.0 %
Test CRC EC7E56DD
Copy CRC EC7E56DD
Track not present in AccurateRip database
Copy OK

Track 4

Filename D:DLMozart – Complete Piano Sonatas (2016) [FLAC]CD54 – Piano Sonata No. 3 in B-Flat Major, K. 281 – I. Allegro.wav

Peak level 74.3 %
Extraction speed 7.5 X
Track quality 99.9 %
Test CRC D80F3C90
Copy CRC D80F3C90
Track not present in AccurateRip database
Copy OK

Track 5

Filename D:DLMozart – Complete Piano Sonatas (2016) [FLAC]CD55 – Piano Sonata No. 3 in B-Flat Major, K. 281 – II. Andante amoroso.wav

Peak level 48.1 %
Extraction speed 8.8 X
Track quality 100.0 %
Test CRC 182EC536
Copy CRC 182EC536
Track not present in AccurateRip database
Copy OK

Track 6

Filename D:DLMozart – Complete Piano Sonatas (2016) [FLAC]CD56 – Piano Sonata No. 3 in B-Flat Major, K. 281 – III. Rondeau.wav

Peak level 74.7 %
Extraction speed 9.0 X
Track quality 100.0 %
Test CRC B50E416B
Copy CRC B50E416B
Track not present in AccurateRip database
Copy OK

Track 7

Filename D:DLMozart – Complete Piano Sonatas (2016) [FLAC]CD57 – Piano Sonata No. 17 in B-Flat Major, K. 570 – I. Allegro.wav

Peak level 63.8 %
Extraction speed 9.9 X
Track quality 100.0 %
Test CRC BDE39509
Copy CRC BDE39509
Track not present in AccurateRip database
Copy OK

Track 8

Filename D:DLMozart – Complete Piano Sonatas (2016) [FLAC]CD58 – Piano Sonata No. 17 in B-Flat Major, K. 570 – II. Adagio.wav

Peak level 62.7 %
Extraction speed 10.4 X
Track quality 100.0 %
Test CRC 4B6B2D89
Copy CRC 4B6B2D89
Track not present in AccurateRip database
Copy OK

Track 9

Filename D:DLMozart – Complete Piano Sonatas (2016) [FLAC]CD59 – Piano Sonata No. 17 in B-Flat Major, K. 570 – III. Allegretto.wav

Peak level 89.0 %
Extraction speed 7.9 X
Track quality 99.9 %
Test CRC 78A4EDE8
Copy CRC 78A4EDE8
Track not present in AccurateRip database
Copy OK

None of the tracks are present in the AccurateRip database

No errors occurred

End of status report

–– CUETools DB Plugin V2.1.6

[CTDB TOCID: n_HS9RinQ_Fb8S4blAsyiVQaFgI-] found
Submit result: n_HS9RinQ_Fb8S4blAsyiVQaFgI- has been confirmed
Track | CTDB Status
1 | ( 6/10) Accurately ripped
2 | ( 6/10) Accurately ripped
3 | ( 6/10) Accurately ripped
4 | ( 6/10) Accurately ripped
5 | ( 6/10) Accurately ripped
6 | ( 6/10) Accurately ripped
7 | ( 6/10) Accurately ripped
8 | ( 6/10) Accurately ripped
9 | ( 6/10) Accurately ripped

==== Log checksum 664209A4FF5C4F63C1859CB7F5D8E225128AEC5D3A2A56A11AD1BFC434835690 ====

Fazil Say - Mozart: Complete Piano Sonatas (2016)

Tracklist Disc 6

1. Fantasia in C Minor, K. 475
2. Piano Sonata No. 14 in C Minor, K. 457: I. Molto allegro
3. Piano Sonata No. 14 in C Minor, K. 457: II. Adagio
4. Piano Sonata No. 14 in C Minor, K. 457: III. Allegro
5. Piano Sonata No. 4 in E-Flat Major, K. 282: I. Adagio
6. Piano Sonata No. 4 in E-Flat Major, K. 282: II. Menuetto I-II
7. Piano Sonata No. 4 in E-Flat Major, K. 282: III. Allegro
8. Piano Sonata No. 5 in G Major, K. 283: I. Allegro
9. Piano Sonata No. 5 in G Major, K. 283: II. Andante
10. Piano Sonata No. 5 in G Major, K. 283: III. Presto

EAC Log
Exact Audio Copy V1.3 from 2. September 2016

EAC extraction logfile from 24. December 2016, 22:33

Fazil Say / Mozart – Complete Piano Sonatas CD6

Used drive : ATAPI iHBS112 2 Adapter: 1 ID: 1

Read mode : Secure
Utilize accurate stream : Yes
Defeat audio cache : Yes
Make use of C2 pointers : No

Read offset correction : 6
Overread into Lead-In and Lead-Out : No
Fill up missing offset samples with silence : Yes
Delete leading and trailing silent blocks : No
Null samples used in CRC calculations : Yes
Used interface : Native Win32 interface for Win NT & 2000
Gap handling : Appended to previous track

Used output format : User Defined Encoder
Selected bitrate : 128 kBit/s
Quality : High
Add ID3 tag : No
Command line compressor : C:Program Files (x86)Exact Audio CopyFlacflac.exe
Additional command line options : -8 -V -T "ARTIST=%artist%" -T "TITLE=%title%" -T "ALBUM=%albumtitle%" -T "DATE=%year%" -T "TRACKNUMBER=%tracknr%" -T "GENRE=%genre%" -T "PERFORMER=%albuminterpret%" -T "COMPOSER=%composer%" -T "ALBUMARTIST=%albumartist%" -T "DISCNUMBER=%cdnumber%" -T "TOTALDISCS=%totalcds%" -T "TOTALTRACKS=%numtracks%" -T "COMMENT=EAC Secure Mode, Test & Copy, AccurateRip, FLAC -8" %source% -o %dest%

TOC of the extracted CD

Track | Start | Length | Start sector | End sector
––––––––––––––––––––––––––––-
1 | 0:00.00 | 10:23.42 | 0 | 46766
2 | 10:23.42 | 9:17.68 | 46767 | 88609
3 | 19:41.35 | 6:07.53 | 88610 | 116187
4 | 25:49.13 | 5:22.31 | 116188 | 140368
5 | 31:11.44 | 6:28.72 | 140369 | 169540
6 | 37:40.41 | 3:41.35 | 169541 | 186150
7 | 41:22.01 | 3:17.37 | 186151 | 200962
8 | 44:39.38 | 5:19.17 | 200963 | 224904
9 | 49:58.55 | 6:09.70 | 224905 | 252649
10 | 56:08.50 | 6:08.16 | 252650 | 280265

Track 1

Filename D:DLMozart – Complete Piano Sonatas (2016) [FLAC]CD61 – Fantasia in c minor K.475.wav

Pre-gap length 0:00:02.00

Peak level 90.8 %
Extraction speed 5.9 X
Track quality 100.0 %
Test CRC D46F825D
Copy CRC D46F825D
Track not present in AccurateRip database
Copy OK

Track 2

Filename D:DLMozart – Complete Piano Sonatas (2016) [FLAC]CD62 – Piano Sonata no.14 in c minor, K.457 – I. Molto Allegro.wav

Peak level 79.5 %
Extraction speed 7.2 X
Track quality 100.0 %
Test CRC DDE3BFB0
Copy CRC DDE3BFB0
Track not present in AccurateRip database
Copy OK

Track 3

Filename D:DLMozart – Complete Piano Sonatas (2016) [FLAC]CD63 – Piano Sonata no.14 in c minor, K.457 – II. Adagio.wav

Peak level 47.6 %
Extraction speed 7.7 X
Track quality 100.0 %
Test CRC 93D64ABE
Copy CRC 93D64ABE
Track not present in AccurateRip database
Copy OK

Track 4

Filename D:DLMozart – Complete Piano Sonatas (2016) [FLAC]CD64 – Piano Sonata no.14 in c minor, K.457 – III. Allegro.wav

Peak level 94.3 %
Extraction speed 8.1 X
Track quality 100.0 %
Test CRC F2973AF8
Copy CRC F2973AF8
Track not present in AccurateRip database
Copy OK

Track 5

Filename D:DLMozart – Complete Piano Sonatas (2016) [FLAC]CD65 – Piano Sonata no.4 in E flat, K.282 – I. Adagio.wav

Peak level 63.9 %
Extraction speed 8.8 X
Track quality 100.0 %
Test CRC B3210D15
Copy CRC B3210D15
Track not present in AccurateRip database
Copy OK

Track 6

Filename D:DLMozart – Complete Piano Sonatas (2016) [FLAC]CD66 – Piano Sonata no.4 in E flat, K.282 – II. Menuetto I – II.wav

Peak level 77.6 %
Extraction speed 8.6 X
Track quality 100.0 %
Test CRC 15F422A0
Copy CRC 15F422A0
Track not present in AccurateRip database
Copy OK

Track 7

Filename D:DLMozart – Complete Piano Sonatas (2016) [FLAC]CD67 – Piano Sonata no.4 in E flat, K.282 – III. Allegro.wav

Peak level 78.5 %
Extraction speed 8.8 X
Track quality 100.0 %
Test CRC 1CDB5B60
Copy CRC 1CDB5B60
Track not present in AccurateRip database
Copy OK

Track 8

Filename D:DLMozart – Complete Piano Sonatas (2016) [FLAC]CD68 – Piano Sonata no.5 in G, K.283 – I. Allegro.wav

Peak level 76.0 %
Extraction speed 9.5 X
Track quality 100.0 %
Test CRC 20EC5080
Copy CRC 20EC5080
Track not present in AccurateRip database
Copy OK

Track 9

Filename D:DLMozart – Complete Piano Sonatas (2016) [FLAC]CD69 – Piano Sonata no.5 in G, K.283 – II. Andante.wav

Peak level 52.2 %
Extraction speed 10.1 X
Track quality 100.0 %
Test CRC C32A078B
Copy CRC C32A078B
Track not present in AccurateRip database
Copy OK

Track 10

Filename D:DLMozart – Complete Piano Sonatas (2016) [FLAC]CD610 – Piano Sonata no.5 in G, K.283 – III. Presto.wav

Peak level 97.7 %
Extraction speed 6.3 X
Track quality 99.8 %
Test CRC 4ED270A8
Copy CRC 4ED270A8
Track not present in AccurateRip database
Copy OK

None of the tracks are present in the AccurateRip database

No errors occurred

End of status report

–– CUETools DB Plugin V2.1.6

[CTDB TOCID: aIzZwBouAXkNB4_LPB9hkuLMN3I-] found
Submit result: aIzZwBouAXkNB4_LPB9hkuLMN3I- has been confirmed
Track | CTDB Status
1 | (6/6) Accurately ripped
2 | (6/6) Accurately ripped
3 | (6/6) Accurately ripped
4 | (6/6) Accurately ripped
5 | (6/6) Accurately ripped
6 | (6/6) Accurately ripped
7 | (6/6) Accurately ripped
8 | (6/6) Accurately ripped
9 | (6/6) Accurately ripped
10 | (6/6) Accurately ripped

==== Log checksum 0A7C36416E546FAE589D0BC02218A3FD0F504AFF676862E5CEEEE8B1FB6FB9B6 ====

___________________________________________________________________________________________________________

Thanks to the Original customer.
My Blog mp3, flac & HDtracks

Fazil Say – Mozart: Complete Piano Sonatas (2016) Download, Warez, DDL, Free, Full Album, Torrent, Legal.

Download


  • Recent Posts

  • Recent Tags