Favni – Windswept (2016)

Download
Favni - Windswept (2016)

Favni – Windswept (2016)
EAC | Flac(Image) + Cue + Log & MP3 CBR 320Kbps
2CD | Silberblick Music, 029 | ~ 560 or 220 Mb | Scans(jpg) -> 132 Mb
Progressive Rock / Prog Folk

Sometimes people assume progressive rock should be ever-changing, always experimental and constantly ground-breaking. But sometimes, when you’re lying in your bed with a book to read and a cup of tea, and when you’re not in the mood for listening to a 25-minute experimental avant-garde prog-jazz opus, you look for familiarity and simplicity. Berlin-based prog-folk outfit Favni, formerly known as “Fauns”, achieves exactly this intimacy with their newest album Windswept. Composed of brothers Jan-Peer, Falk and Nils Hartmann on guitars, bass and drums respectively, Tom Glase on guitars and the incredible Kirsten Middeke providing flutes, viola and vocals, Favni masterfully mixes technical virtuosity with emotion and grace, giving us one of the most enjoyable listens of the year.

Yearning For You opens the album with three minutes of instrumentation that would be highly reminiscent and almost nostalgic to those ears who have been acquainted with the classic sound of ’70s prog rock. Through its intro riff influenced by Pink Floyd’s Dogs, the song engrosses the listener with a promise of familiarity, followed by a long keyboard solo introducing the album’s signature ’70s feeling. This section, serving as a good prologue to what will come after, also functions in introducing us to the technical competence of its members. Following the introduction, Mellotrons and keyboards provide a hollow, eerie soundscape over the vocals of Jan-Peer Hartman, with backing vocals of Kirsten Middeke and synth melodies enriching the track. Moments of familiarity come and go with keyboard solos and synths taken straight from Pink Floyd’s golden era. Yearning For You serves as a safe yet well-composed introduction to the album.

Fare-thee-well establishes the pastoral folk sound of the album that was lacking in the prog-by-numbers album opener. Utilising the graceful voice of Kirsten Middeke, the song perfectly puts together a melancholic yet optimistic musical effort. With Middeke’s vocal melodies drawing inspiration from legendary Annie Haslam of Renaissance and her equally proficient viola instrumentation, this catchy and enchanting track certainly proves to be a tour-de-force for the band’s only female member. It also sets the bar in terms of emotion for the rest of the album that is barely equalled.

The next song, Leaf in the Wind, takes the opposite approach as a minimalistic folk piece with the percussion of Nils Hartmann taking centre stage. His pastoral, almost primitive drum-work plays as the backbone of this rhythmic brew of folk and post-rock. Although not as poignant and poetic as the other songs on the album, it nevertheless should be applauded for its technicality and composition.

Imaginary Necromancy, following Leaf in the Wind brings back the folk ballad sound of Fare-thee-well. Though a derivative of the previous ballad, Middeke’s vocal prowess continues to impress and the drum-viola pairing toward the end makes a good outro. The Visionary, unlike those that came before it, is a guitar-heavy song and a classic prog rock piece. The bombastic guitar riff that shows itself throughout the song remains memorable in the head long after the album is over. Guitarist Tom Glase sublimely showcases his technical virtuosity and his talent in conveying emotion through his instrument. He is definitely the star of this one, however Kirsten Middeke’s flute solo in the middle and Falk Hartmann’s heavy bass work throughout the song should not be disregarded either. A combination of the members’ individual efforts makes The Visionary one of the compositional and technical peaks of the album.

Summer’s Over, on the other hand, is definitely the album’s most dynamic and experimental song. It opens with a simple, yet beautiful triad of piano, viola and acoustic guitar. As the lyrics read “summer’s over, winter has begun”, so does the song conveys this brooding despair through the melancholy of Middeke’s viola. But then, winter comes. And with the winter, electric guitar and heavy bass melodies dominate the song. The explosive guitar riff in the middle supported by Falk’s bass reaches a metallic heaviness that provides a great contrast to the album’s preceding mellowness. Unfortunately, this powerful instrumental composition is let down without Kirsten Middeke’s elegant voice. The male vocals used instead fail to achieve the level of emotion and passion existent in songs dominated by her presence.

This disappointment endures throughout the rest of the album. In the Grey, the longest song, starts with weak male vocals that takes the listener out of the song and the emotion it tries to express. Barring the vocals, however, In the Grey is another impressive instrumental accomplishment from Favni. While the flute solo about 5 minutes into the song masterfully constructs an idyllic soundscape, the subsequent electric guitar solo excellently subverts the established tone and leaves the listener in awe as the synth-laden outro closes the song.

The album finishes with Leaving another song of immense familiarity paralleling the album’s opener, Yearning For You. The beautiful flute and acoustic guitar melodies carrying the song is certainly reminiscent of the works of symphonic folk bands of ’70s. This slow yet effective conclusion to the album is also one of the most emotion-filled moments.

Favni’s Windswept is a great example of progressive folk music. It is not as ground-breaking or creative as other musical achievements of the year, however it is a good listen for those who ask for beautiful melodies and a pleasant familiarity on a boring rainy afternoon whilst looking out of the window.

by Uygar Başpehlivan, theprogressiveaspect.net

Favni – Windswept (2016):

Favni - Windswept (2016)

Tracklist CD1:

01. Yearning For You [06:46.000]
02. Fare-Thee-Well [04:23.160]
03. Leaf In The Wind [07:10.280]
04. Imaginary Necromancy [05:26.053]
05. The Visionary [07:04.813]
06. Summer’s Over [07:55.640]
07. In The Grey [10:00.013]

EAC Log
Exact Audio Copy V1.1 from 23. June 2015

Отчёт EAC об извлечении, выполненном 11. февраля 2017, 15:49

FAVNI / Windswept

Дисковод: TSSTcorpCDDVDW SH-224DB Adapter: 1 ID: 1

Режим чтения : Достоверность
Использование точного потока : Да
Отключение кэша аудио : Да
Использование указателей C2 : Нет

Коррекция смещения при чтении : 6
Способность читать области Lead-in и Lead-out : Нет
Заполнение пропущенных сэмплов тишиной : Да
Удаление блоков с тишиной в начале и конце : Нет
При вычислениях CRC использовались нулевые сэмплы : Да
Интерфейс : Встроенный Win32-интерфейс для Win NT/2000

Выходной формат : Внутренние WAV-операции
Формат сэмплов : 44.100 Гц; 16 бит; стерео

TOC извлечённого CD

Трек | Старт | Длительность | Начальный сектор | Конечный сектор
––––––––––––––––––––––––––––––––––-
1 | 0:00.00 | 6:46.57 | 0 | 30506
2 | 6:46.57 | 4:23.12 | 30507 | 50243
3 | 11:09.69 | 7:10.21 | 50244 | 82514
4 | 18:20.15 | 5:28.34 | 82515 | 107148
5 | 23:48.49 | 7:07.49 | 107149 | 139222
6 | 30:56.23 | 7:55.48 | 139223 | 174895
7 | 38:51.71 | 10:00.01 | 174896 | 219896

Характеристики диапазона извлечения и сообщения об ошибках

Выбранный диапазон

Имя файла D:TEMPFAVNI – 2016 – Windswept.wav

Пиковый уровень 98.8 %
Скорость извлечения 5.0 X
Качество диапазона 100.0 %
CRC теста 0097789D
CRC копии 0097789D
Копирование… OK

Ошибок не произошло

AccurateRip: сводка

Трек 1 отсутствует в базе данных
Трек 2 отсутствует в базе данных
Трек 3 отсутствует в базе данных
Трек 4 отсутствует в базе данных
Трек 5 отсутствует в базе данных
Трек 6 отсутствует в базе данных
Трек 7 отсутствует в базе данных

Ни одного трека нет в базе AccurateRip

Конец отчёта

==== Контрольная сумма отчёта 66DD0973B32B8211A4F08543FE5991431C5523D644A0ED1F3626381D08358C2F ====

DR Log
foobar2000 1.2.9 / Dynamic Range Meter 1.1.1
log date: 2017-02-12 04:23:50

––––––––––––––––––––––––––––––––––––––––
Analyzed: FAVNI / Windswept
––––––––––––––––––––––––––––––––––––––––

DR Peak RMS Duration Track
––––––––––––––––––––––––––––––––––––––––
DR12 -0.10 dB -15.08 dB 6:47 01-Yearning For You
DR12 -0.19 dB -14.51 dB 4:23 02-Fare-Thee-Well
DR13 -0.15 dB -14.97 dB 7:10 03-Leaf In The Wind
DR10 -1.89 dB -14.67 dB 5:28 04-Imaginary Necromancy
DR11 -0.10 dB -13.13 dB 7:08 05-The Visionary
DR9 -1.42 dB -16.18 dB 7:56 06-Summer’s Over
DR11 -0.23 dB -14.37 dB 10:00 07-In The Grey
––––––––––––––––––––––––––––––––––––––––

Number of tracks: 7
Official DR value: DR11

Samplerate: 44100 Hz
Channels: 2
Bits per sample: 16
Bitrate: 803 kbps
Codec: FLAC

CUETools Log
[CUETools log; Date: 12.02.2017 4:14:24; Version: 2.1.4]
[CTDB TOCID: iWAYiJBJi7DNAux1TuR236kPt0k-] found.
Track | CTDB Status
1 | (1/1) Accurately ripped
2 | (1/1) Accurately ripped
3 | (1/1) Accurately ripped
4 | (1/1) Accurately ripped
5 | (1/1) Accurately ripped
6 | (1/1) Accurately ripped
7 | (1/1) Accurately ripped
[AccurateRip ID: 000c464f-004ab652-490b7307] disk not present in database.

Track Peak [ CRC32 ] [W/O NULL] [ LOG ]
– 98,8 [0097789D] [BB842C8F] CRC32
01 98,8 [46F6F474] [61B9305A]
02 97,8 [E3CEA485] [D544D40F]
03 98,2 [047C31EE] [262810E2]
04 80,4 [A3BEFBA4] [AA637D60]
05 98,8 [2B05E9AF] [9181AC04]
06 84,9 [84FF2010] [A5361EFE]
07 97,3 [5CCBE9F7] [45F4B4ED]

Favni - Windswept (2016)

Tracklist CD2:

01. A Rainy Autumn Day [07:42.507]
02. Leaving [07:30.720]
03. Cuiviénen {live at Wabe, Berlin, 2011} [11:52.387]
04. The Path {live at Wabe, Berlin, 2011} [08:56.000]
05. In The Grey {live at Wabe, Berlin, 2011} [08:29.213]

EAC Log
Exact Audio Copy V1.1 from 23. June 2015

Отчёт EAC об извлечении, выполненном 11. февраля 2017, 15:22

FAVNI / Windswept

Дисковод: TSSTcorpCDDVDW SH-224DB Adapter: 1 ID: 1

Режим чтения : Достоверность
Использование точного потока : Да
Отключение кэша аудио : Да
Использование указателей C2 : Нет

Коррекция смещения при чтении : 6
Способность читать области Lead-in и Lead-out : Нет
Заполнение пропущенных сэмплов тишиной : Да
Удаление блоков с тишиной в начале и конце : Нет
При вычислениях CRC использовались нулевые сэмплы : Да
Интерфейс : Встроенный Win32-интерфейс для Win NT/2000

Выходной формат : Внутренние WAV-операции
Формат сэмплов : 44.100 Гц; 16 бит; стерео

TOC извлечённого CD

Трек | Старт | Длительность | Начальный сектор | Конечный сектор
––––––––––––––––––––––––––––––––––-
1 | 0:00.00 | 7:43.66 | 0 | 34790
2 | 7:43.66 | 7:33.14 | 34791 | 68779
3 | 15:17.05 | 11:52.29 | 68780 | 122208
4 | 27:09.34 | 8:59.45 | 122209 | 162678
5 | 36:09.04 | 8:29.16 | 162679 | 200869

Характеристики диапазона извлечения и сообщения об ошибках

Выбранный диапазон

Имя файла D:TEMPFAVNI – 2016 – Windswept [add. CD-2].wav

Пиковый уровень 98.8 %
Скорость извлечения 4.9 X
Качество диапазона 99.9 %
CRC теста CE57C4EE
CRC копии CE57C4EE
Копирование… OK

Ошибок не произошло

AccurateRip: сводка

Трек 1 отсутствует в базе данных
Трек 2 отсутствует в базе данных
Трек 3 отсутствует в базе данных
Трек 4 отсутствует в базе данных
Трек 5 отсутствует в базе данных

Ни одного трека нет в базе AccurateRip

Конец отчёта

==== Контрольная сумма отчёта BB7788F881344704BCEFB596A55E7EC4297D3B77732A59885F3E72CAA6EA7AE9 ====

DR Log
foobar2000 1.2.9 / Dynamic Range Meter 1.1.1
log date: 2017-02-12 04:22:40

––––––––––––––––––––––––––––––––––––––––
Analyzed: FAVNI / Windswept
––––––––––––––––––––––––––––––––––––––––

DR Peak RMS Duration Track
––––––––––––––––––––––––––––––––––––––––
DR10 -0.13 dB -13.77 dB 7:44 01-A Rainy Autumn Day
DR9 -0.80 dB -14.22 dB 7:33 02-Leaving
DR11 -0.10 dB -13.90 dB 11:52 03-CuiviГ©nen [live at Wabe, Berlin, 2011]
DR10 -0.10 dB -14.45 dB 9:00 04-The Path [live at Wabe, Berlin, 2011]
DR10 -1.51 dB -14.45 dB 8:29 05-In The Grey [live at Wabe, Berlin, 2011]
––––––––––––––––––––––––––––––––––––––––

Number of tracks: 5
Official DR value: DR10

Samplerate: 44100 Hz
Channels: 2
Bits per sample: 16
Bitrate: 825 kbps
Codec: FLAC

CUETools Log
[CUETools log; Date: 12.02.2017 4:17:54; Version: 2.1.4]
[CTDB TOCID: YwazPhr2KhAm1tVEdljJgyN5avE-] found.
Track | CTDB Status
1 | (1/1) Accurately ripped
2 | (1/1) Accurately ripped
3 | (1/1) Accurately ripped
4 | (1/1) Accurately ripped
5 | (1/1) Accurately ripped
[AccurateRip ID: 0008fe11-002a788e-3a0a7605] disk not present in database.

Track Peak [ CRC32 ] [W/O NULL] [ LOG ]
– 98,8 [CE57C4EE] [CB26E40E] CRC32
01 98,4 [FB93B5A5] [26F4CDE6]
02 91,1 [24C0A281] [16056422]
03 98,8 [4E43A4FC] [C04959FD]
04 98,8 [2D42D379] [F10F2D34]
05 84,0 [E282E768] [2ACDFDCC]

Line-up:

Kirsten Middeke — vocals, viola, flute, clarinet
Jan-Peer Hartmann — guitars, vocals
Thomas Glase — guitars
Falk Hartmann — bass, guitar, vocals
Nils Hartmann — drums, guitar, vocals

With:
Jan Hecker-Stampehl — keyboards
Marcel Ambrus — hurdy-gurdy

Favni - Windswept (2016)

All thanks go to spAceLover

Download Favni – Windswept (2016):

Favni – Windswept (2016) Download, Warez, DDL, Free, Full Album, Torrent, Legal.

Download