Fates Warning – Parallels (1991) [US 1st Press]

Download
Fates Warning - Parallels (1991) [US 1st Press]

Fates Warning – Parallels (1991) [US 1st Press]
EAC Rip | FLAC: Image+Cue+Log | 316 Mb | MP3 CBR 320 kbps | 122 Mb | Scans | Time: 45:30
Metal Blade Records/Reprise Records | W2 26698
Progressive Metal

Parallels is the sixth studio album by progressive metal band Fates Warning, released on October 29, 1991 through Metal Blade Records. The album reached No. 20 on the U.S. Billboard Heatseekers chart.

Fates Warning - Parallels (1991) [US 1st Press]
Fates Warning
Wikipedia | Metal Blade Records
Fates Warning - Parallels (1991) [US 1st Press]

Track Listing

01. Leave The Past Behind (06:13)
02. Life In Still Water (05:45)
03. Eye To Eye (04:06)
04. The Eleventh Hour (08:12)
05. Point Of View (05:07)
06. We Only Say Goodbye (04:56)
07. Don’t Follow Me (04:42)
08. The Road Goes On Forever (06:29)

Produced by Terry Brown & Brian Slagel

The Band

• Ray Alder – vocals
• Jim Matheos – guitars
• Frank "X" Aresti – guitars
• Joe DiBiase – bass
• Mark Zonder – drums, percussion

*****
• James LaBrie – background vocals (track 2)

EAC Log
Exact Audio Copy V1.0 beta 1 from 15. November 2010

EAC extraction logfile from 13. July 2011, 19:48

Fates Warning / Parallels

Used drive : PLEXTOR DVDR PX-760A Adapter: 1 ID: 1

Read mode : Secure
Utilize accurate stream : Yes
Defeat audio cache : Yes
Make use of C2 pointers : No

Read offset correction : 30
Overread into Lead-In and Lead-Out : No
Fill up missing offset samples with silence : Yes
Delete leading and trailing silent blocks : No
Null samples used in CRC calculations : Yes
Used interface : Installed external ASPI interface

Used output format : Internal WAV Routines
Sample format : 44.100 Hz; 16 Bit; Stereo

TOC of the extracted CD

Track | Start | Length | Start sector | End sector
––––––––––––––––––––––––––––-
1 | 0:00.33 | 6:13.22 | 33 | 28029
2 | 6:13.55 | 5:44.40 | 28030 | 53869
3 | 11:58.20 | 4:05.73 | 53870 | 72317
4 | 16:04.18 | 8:11.67 | 72318 | 109209
5 | 24:16.10 | 5:07.18 | 109210 | 132252
6 | 29:23.28 | 4:55.60 | 132253 | 154437
7 | 34:19.13 | 4:42.22 | 154438 | 175609
8 | 39:01.35 | 6:28.45 | 175610 | 204754

Range status and errors

Selected range

Filename Z:datamp3Seeding ArchiveFates Warning1991-Parallelsparallels.wav

Peak level 100.0 %
Extraction speed 0.3 X
Range quality 100.0 %
Test CRC FD43E34A
Copy CRC FD43E34A
Copy OK

No errors occurred

AccurateRip summary

Track 1 accurately ripped (confidence 2) [2CA57251]
Track 2 accurately ripped (confidence 2) [08BBC75B]
Track 3 accurately ripped (confidence 2) [503E901B]
Track 4 accurately ripped (confidence 2) [DFA66C6D]
Track 5 accurately ripped (confidence 2) [30A8F484]
Track 6 accurately ripped (confidence 2) [79D6E386]
Track 7 accurately ripped (confidence 2) [CF4A9DD3]
Track 8 accurately ripped (confidence 2) [A26FDAE3]

All tracks accurately ripped

End of status report

Many thanks to the original uploader: hexonut

SEE also:
Armored Saint 1984 March Of The Saint (Japanese Ed. 1993]
Armored Saint 1987 Raising Fear [Reissue 1995]
Armored Saint 1988 Saints Will Conquer [Reissue 1994]
Armored Saint 1991 Symbol Of Salvation
Armored Saint 1991 Symbol Of Salvation [Special Ed. 2003] 3xCD
Armored Saint 2000 Revelation
Armored Saint 2001 Nod To The Old School
Armored Saint 2010 La Raza [Digisleeve]
Armored Saint 2015 Win Hands Down [Japanese Ed.]

Fates Warning 1984 Night On Brocken
Fates Warning 1985 The Spectre Within
Fates Warning 1986 Awaken The Guardian
Fates Warning 1988 No Exit
Fates Warning 1989 Perfect Symmetry [UK 1st Press]
Fates Warning 2013 Darkness In A Different Light [Limited Ed.] 2CD
Fates Warning 2016 Theories Of Flight [Special Edition 2CD Mediabook]

Motor Sister 2015 Ride [Japanese Ed.]

Redemption 2016 The Art Of Loss [Limited Ed. Digipak] 2CD

Riot 1977 Rock City [Reissue 1993]
Riot 1979 Narita [Japan 1st Press, 1989]
Riot 1981 Fire Down Under [Japanese Ed. 1999]
Riot 1982 Restless Breed [Japanese Ed. 1999]
Riot 1983 Born In America [Japan 1st Press, 1989]
Riot 1988 Thundersteel [Japan 1st Press]
Riot 1989 Riot Live [Japan 1st Press]
Riot 1990 The Privilege Of Power [Japan 1st Press]
Riot 1993 Nightbreaker [Japanese Ed.]
Riot 1993 Star Box [Japan 1st Press]
Riot 1995 The Brethren Of The Long House [Japan 1st Press]
Riot 1997 Inishmore [Japan Press, XRCN-2005]
Riot 1998 Shine On (Live) [Japan Press, XRCN-2025]
Riot 1999 Sons Of Society [Japanese Ed.]
Riot 2002 Through The Storm [Japanese Ed.]
Riot 2006 Army Of One [Japanese Ed.]
Riot 2011 Immortal Soul [Japanese Ed.]
Riot 2014 Unleash The Fire [Japanese Ed.]

……
Welcome to My Blog for more wonderful music!
……

Fates Warning – Parallels (1991) [US 1st Press] Download, Warez, DDL, Free, Full Album, Torrent, Legal.

Download