Fates Warning – Inside Out (1994) (Remastered, Expanded Edition, 2012) 2CD+DVD

Download
Fates Warning - Inside Out (1994) (Remastered, Expanded Edition, 2012) 2CD+DVD

Fates Warning – Inside Out (1994) (Remastered, Expanded Edition, 2012) 2CD+DVD
EAC Rip | FLAC: Image+Cue+Log | 852 Mb | MP3 CBR 320 kbps | 309 Mb | Scans | 92 Mb
DVD9 | Video: NTSC 4:3 (720×480) | Audio: Dolby AC3, 2 ch | 5.8 Gb | Scans
Metal Blade Records | 3984-15113-2
Progressive Metal

Inside Out is an album released in 1994 by Fates Warning. The album continues with the commercial sound that Parallels began, but was not received as well. It was the last to feature long-time members Frank Aresti and Joe DiBiase, who left after its release. Digitally remastered and expanded three disc (two CD + DVD) edition of the Progressive Metal band’s 1994 album. Disc One features the remastered edition of the original album. Disc Two features twelve live and demo tracks. Disc Three (DVD) contains live footage of the band performing the album and other FW favorites during their 1994-95 tour.

Fates Warning - Inside Out (1994) (Remastered, Expanded Edition, 2012) 2CD+DVD
Fates Warning
Wikipedia | Metal Blade Records

DISC 1
Time: 48:36

01. Outside Looking In (04:51)
02. Pale Fire (04:18)
03. The Strand (05:29)
04. Shelter Me (04:45)
05. Island In The Stream (06:30)
06. Down To The Wire (04:31)
07. Face The Fear (05:38)
08. Inward Bound (02:35)
09. Monument (06:35)
10. Afterglow (03:24)

DISC 2
Time: 01:08:39

Live In Dusseldorf, Germany, February 11, 1995
01. Outside Looking In (Live In Germany) (05:29)
02. Down To The Wire (Live In Germany) (04:59)
03. The Eleventh Hour (Live In Germany) (08:13)
04. Point Of View (Live In Germany) (04:55)
05. Face The Fear (Live In Germany) (05:18)

Demos / Unreleased
06. Outside Looking In (Demo) (03:56)
07. Pale Fire (Demo) (04:18)
08. Shelter Me (Demo) (05:47)
09. Island In The Stream (Demo) (05:32)
10. Face The Fear (Demo) (07:50)
11. Monument (Rough Mix) (06:12)
12. Circles (Unreleased) (06:11)

DISC 3 – Bonus DVD

Inside Out Live
Time: 01:07:43

01. Outside Looking In (1994/1995)
02. Pale Fire (1993/1994)
03. The Strand (1994)
04. Shelter Me (1993)
05. Island In The Stream (2010)
06. Down To The Wire (1994/1995)
07. Face The Fear (1994/1995)
08. Monument (1994/1995)
09. Afterglow (Slide Show)

Extras
Time: 01:04:14

01. Live In Still Water (1994)
02. Through Different Eyes (1995)
03. Guardian (Mike Portnoy Drums) (1994)
04. Shades of Heavenly Death (1995)
05. MTV Europe Interview (1995)
06. Eye to Eye (1994/1995)
07. Face The Face Of Fear (1994)
08. Don’t Follow Me (1994)
09. Shortest Show Ever (1994)
10. Guardian (Arch/Alder duet) (1994)

Fates Warning - Inside Out (1994) (Remastered, Expanded Edition, 2012) 2CD+DVD

Fates Warning - Inside Out (1994) (Remastered, Expanded Edition, 2012) 2CD+DVD
Fates Warning - Inside Out (1994) (Remastered, Expanded Edition, 2012) 2CD+DVD
Fates Warning - Inside Out (1994) (Remastered, Expanded Edition, 2012) 2CD+DVD
Fates Warning - Inside Out (1994) (Remastered, Expanded Edition, 2012) 2CD+DVD
Fates Warning - Inside Out (1994) (Remastered, Expanded Edition, 2012) 2CD+DVD

Fates Warning - Inside Out (1994) (Remastered, Expanded Edition, 2012) 2CD+DVD
Fates Warning - Inside Out (1994) (Remastered, Expanded Edition, 2012) 2CD+DVD
Fates Warning - Inside Out (1994) (Remastered, Expanded Edition, 2012) 2CD+DVD

Produced by Bill Metoyer & Fates Warning

The Band

• Ray Alder – vocals
• Jim Matheos – guitars
• Frank "X" Aresti – guitars
• Joe DiBiase – bass
• Mark Zonder – drums, percussion

EAC Log CD1
Exact Audio Copy V1.0 beta 3 from 29. August 2011

EAC extraction logfile from 1. July 2012, 19:40

Fates Warning / Inside Out [Remaster]

Used drive : PLEXTOR CD-R PX-240A Adapter: 0 ID: 0

Read mode : Secure
Utilize accurate stream : Yes
Defeat audio cache : Yes
Make use of C2 pointers : No

Read offset correction : 6
Overread into Lead-In and Lead-Out : No
Fill up missing offset samples with silence : Yes
Delete leading and trailing silent blocks : No
Null samples used in CRC calculations : Yes
Used interface : Installed external ASPI interface

Used output format : Internal WAV Routines
Sample format : 44.100 Hz; 16 Bit; Stereo

TOC of the extracted CD

Track | Start | Length | Start sector | End sector
––––––––––––––––––––––––––––-
1 | 0:00.00 | 4:50.50 | 0 | 21799
2 | 4:50.50 | 4:18.02 | 21800 | 41151
3 | 9:08.52 | 5:29.25 | 41152 | 65851
4 | 14:38.02 | 4:45.20 | 65852 | 87246
5 | 19:23.22 | 6:30.03 | 87247 | 116499
6 | 25:53.25 | 4:30.57 | 116500 | 136806
7 | 30:24.07 | 5:37.43 | 136807 | 162124
8 | 36:01.50 | 2:35.10 | 162125 | 173759
9 | 38:36.60 | 6:34.40 | 173760 | 203349
10 | 45:11.25 | 3:24.32 | 203350 | 218681

Range status and errors

Selected range

Filename Z:data2Seeding ArchiveFates Warning1994-Inside Out2012-Metal Blade [US, Remaster, 3984-15113-2]Inside Out (Remaster).wav

Peak level 100.0 %
Extraction speed 2.6 X
Range quality 100.0 %
Test CRC D2C405E0
Copy CRC D2C405E0
Copy OK

No errors occurred

AccurateRip summary

Track 1 not present in database
Track 2 not present in database
Track 3 not present in database
Track 4 not present in database
Track 5 not present in database
Track 6 not present in database
Track 7 not present in database
Track 8 not present in database
Track 9 not present in database
Track 10 not present in database

None of the tracks are present in the AccurateRip database

End of status report

==== Log checksum 5D8E66F6DF07B55B69E7EA6F33CFC05053AB9ECF7F941E0156A3C9221E1E0615 ====

EAC Log CD2
Exact Audio Copy V1.0 beta 3 from 29. August 2011

EAC extraction logfile from 1. July 2012, 21:44

Fates Warning / Inside Out [Remaster CD 2]

Used drive : PLEXTOR DVDR PX-760A Adapter: 0 ID: 1

Read mode : Secure
Utilize accurate stream : Yes
Defeat audio cache : Yes
Make use of C2 pointers : No

Read offset correction : 30
Overread into Lead-In and Lead-Out : Yes
Fill up missing offset samples with silence : Yes
Delete leading and trailing silent blocks : No
Null samples used in CRC calculations : Yes
Used interface : Installed external ASPI interface

Used output format : Internal WAV Routines
Sample format : 44.100 Hz; 16 Bit; Stereo

TOC of the extracted CD

Track | Start | Length | Start sector | End sector
––––––––––––––––––––––––––––-
1 | 0:00.00 | 5:28.46 | 0 | 24645
2 | 5:28.46 | 4:58.44 | 24646 | 47039
3 | 10:27.15 | 8:12.64 | 47040 | 84003
4 | 18:40.04 | 4:54.45 | 84004 | 106098
5 | 23:34.49 | 5:18.10 | 106099 | 129958
6 | 28:52.59 | 3:56.25 | 129959 | 147683
7 | 32:49.09 | 4:17.73 | 147684 | 167031
8 | 37:07.07 | 5:46.39 | 167032 | 193020
9 | 42:53.46 | 5:31.49 | 193021 | 217894
10 | 48:25.20 | 7:49.36 | 217895 | 253105
11 | 56:14.56 | 6:12.04 | 253106 | 281009
12 | 62:26.60 | 6:11.27 | 281010 | 308861

Range status and errors

Selected range

Filename Z:data2Seeding ArchiveFates Warning1994-Inside Out2012-Metal Blade [US, Remaster, 3984-15113-2]Inside Out (Remaster CD 2).wav

Peak level 100.0 %
Extraction speed 2.5 X
Range quality 100.0 %
Test CRC AF261B9B
Copy CRC AF261B9B
Copy OK

No errors occurred

AccurateRip summary

Track 1 not present in database
Track 2 not present in database
Track 3 not present in database
Track 4 not present in database
Track 5 not present in database
Track 6 not present in database
Track 7 not present in database
Track 8 not present in database
Track 9 not present in database
Track 10 not present in database
Track 11 not present in database
Track 12 not present in database

None of the tracks are present in the AccurateRip database

End of status report

==== Log checksum FD3C19EFBDB4A733D1472A704F3D723FF67ED9514DEB3CE064EBA3F6B5D6165F ====

DVDInfo
Size: 5.65 Gb ( 5 928 920,00 KBytes ) – DVD-9
Enabled regions: 1, 2, 3, 4, 5, 6, 7, 8

VTS_01 :
Play Length: 01:04:14
Video: NTSC 4:3 (720×480) VBR
Audio:
Not specified (Dolby AC3, 2 ch)

VTS_02 :
Play Length: 01:07:43
Video: NTSC 4:3 (720×480) VBR
Audio:
Not specified (Dolby AC3, 2 ch)

* Menus Information *

VIDEO_TS Menu
Video:
NTSC 4:3 (720×480) VBR
English Language Unit :
Title Menu

VTS_01 Menu
Video:
NTSC 4:3 (720×480) VBR
Audio:
Not specified (LinearPCM, 2 ch)
English Language Unit :
Root Menu

VTS_02 Menu
Video:
NTSC 4:3 (720×480) VBR
English Language Unit :
Root Menu

Many thanks to the original uploader: hexonut (CD)/oleg-1937 (DVD)

SEE also:
Armored Saint 1984 March Of The Saint (Japanese Ed. 1993]
Armored Saint 1987 Raising Fear [Reissue 1995]
Armored Saint 1988 Saints Will Conquer [Reissue 1994]
Armored Saint 1991 Symbol Of Salvation
Armored Saint 1991 Symbol Of Salvation [Special Ed. 2003] 3xCD
Armored Saint 2000 Revelation
Armored Saint 2001 Nod To The Old School
Armored Saint 2010 La Raza [Digisleeve]
Armored Saint 2015 Win Hands Down [Japanese Ed.]

Fates Warning 1984 Night On Brocken
Fates Warning 1985 The Spectre Within
Fates Warning 1986 Awaken The Guardian
Fates Warning 1988 No Exit
Fates Warning 1989 Perfect Symmetry [UK 1st Press]
Fates Warning 1989 Perfect Symmetry [1994, Remastered]
Fates Warning 1989 Perfect Symmetry [2008, Special Edition] 2CD+DVD
Fates Warning 1991 Parallels [US 1st Press]
Fates Warning 1991 Parallels [2010, Special Edition] 2CD+DVD
Fates Warning 1994 Inside Out
Fates Warning 1994 Inside Out [Japanese Ed.]
Fates Warning 1995 Chasing Time
Fates Warning 1995 Chasing Time [Japanese Ed. 1998]
Fates Warning 1997 A Pleasant Shade Of Gray
Fates Warning 1997 A Pleasant Shade Of Gray [Japanese Ed.]
Fates Warning 1998 A Pleasant Shade Of Gray Live I-XII
Fates Warning 1998 Still Life [2CD]
Fates Warning 2000 Disconnected
Fates Warning 2004 FWX
Fates Warning 2013 Darkness In A Different Light [Limited Ed.] 2CD
Fates Warning 2016 Theories Of Flight [Special Edition 2CD Mediabook]
Fates Warning 2017 Awaken The Guardian Live [Limited Edition, 2CD+DVD]

Motor Sister 2015 Ride [Japanese Ed.]

Redemption 2016 The Art Of Loss [Limited Ed. Digipak] 2CD

Riot 1977 Rock City [Reissue 1993]
Riot 1979 Narita [Japan 1st Press, 1989]
Riot 1981 Fire Down Under [Japanese Ed. 1999]
Riot 1982 Restless Breed [Japanese Ed. 1999]
Riot 1983 Born In America [Japan 1st Press, 1989]
Riot 1988 Thundersteel [Japan 1st Press]
Riot 1989 Riot Live [Japan 1st Press]
Riot 1990 The Privilege Of Power [Japan 1st Press]
Riot 1993 Nightbreaker [Japanese Ed.]
Riot 1993 Star Box [Japan 1st Press]
Riot 1995 The Brethren Of The Long House [Japan 1st Press]
Riot 1997 Inishmore [Japan Press, XRCN-2005]
Riot 1998 Shine On (Live) [Japan Press, XRCN-2025]
Riot 1999 Sons Of Society [Japanese Ed.]
Riot 2002 Through The Storm [Japanese Ed.]
Riot 2006 Army Of One [Japanese Ed.]
Riot 2011 Immortal Soul [Japanese Ed.]
Riot 2014 Unleash The Fire [Japanese Ed.]

……
Welcome to My Blog for more wonderful music!
……

Fates Warning – Inside Out (1994) (Remastered, Expanded Edition, 2012) 2CD+DVD Download, Warez, DDL, Free, Full Album, Torrent, Legal.

Download