Fates Warning – Disconnected (2000)

Download
Fates Warning - Disconnected (2000)

Fates Warning – Disconnected (2000)
EAC Rip | FLAC: Image+Cue+Log | 356 Mb | MP3 CBR 320 kbps | 133 Mb | Scans | Time: 51:31
Metal Blade Records | 3984-14324-2
Progressive Metal

Disconnected is the ninth album by the progressive metal group Fates Warning, released in 2000 (see 2000 in music). Kevin Moore previously played on the Fates Warning album A Pleasant Shade of Gray and later appeared in OSI with Matheos.

This record’s theme is about being disconnected from people and society and so the feeling of being lonely and abandoned runs throughout this album. Therefore you shouldn’t expect a lot of joy and happiness either lyrically or musically when you listen to this recording.

Fates Warning - Disconnected (2000)
Fates Warning
Wikipedia | Metal Blade Records
Fates Warning - Disconnected (2000)

Track Listing

01. Disconnected Part 1 (01:14)
02. One (04:27)
03. So (08:08)
04. Pieces Of Me (04:24)
05. Something From Nothing (010:59)
06. Still Remains (16:08)
07. Disconnected Part 2 (06:11)

Produced by Fates Warning and Terry Brown

The Band

• Ray Alder – vocals
• Jim Matheos – guitars
• Mark Zonder – drums

*****
• Joey Vera – bass
• Kevin Moore – keyboards

EAC Log
Exact Audio Copy V1.0 beta 1 from 15. November 2010

EAC extraction logfile from 15. July 2011, 8:25

Fates Warning / Disconnected

Used drive : LITE-ON DVDRW LH-20A1L Adapter: 5 ID: 0

Read mode : Secure
Utilize accurate stream : Yes
Defeat audio cache : Yes
Make use of C2 pointers : No

Read offset correction : 6
Overread into Lead-In and Lead-Out : No
Fill up missing offset samples with silence : Yes
Delete leading and trailing silent blocks : No
Null samples used in CRC calculations : Yes
Used interface : Installed external ASPI interface

Used output format : Internal WAV Routines
Sample format : 44.100 Hz; 16 Bit; Stereo

TOC of the extracted CD

Track | Start | Length | Start sector | End sector
––––––––––––––––––––––––––––-
1 | 0:00.00 | 1:13.58 | 0 | 5532
2 | 1:13.58 | 4:27.01 | 5533 | 25558
3 | 5:40.59 | 8:07.65 | 25559 | 62148
4 | 13:48.49 | 4:24.13 | 62149 | 81961
5 | 18:12.62 | 10:58.36 | 81962 | 131347
6 | 29:11.23 | 16:08.08 | 131348 | 203955
7 | 45:19.31 | 6:11.06 | 203956 | 231786

Range status and errors

Selected range

Filename Z:datamp3Seeding ArchiveFates Warning2000-Disconnecteddisconnected.wav

Peak level 99.6 %
Extraction speed 0.9 X
Range quality 99.9 %
Test CRC 73340CD9
Copy CRC 73340CD9
Copy OK

No errors occurred

AccurateRip summary

Track 1 accurately ripped (confidence 5) [250F55AE]
Track 2 accurately ripped (confidence 5) [E3F08E59]
Track 3 accurately ripped (confidence 5) [5FABD3D3]
Track 4 accurately ripped (confidence 5) [1CF9C4F3]
Track 5 accurately ripped (confidence 5) [4E4F158E]
Track 6 accurately ripped (confidence 5) [6C281549]
Track 7 accurately ripped (confidence 5) [346C11BB]

All tracks accurately ripped

End of status report

Many thanks to the original uploader: hexonut

SEE also:
Armored Saint 1984 March Of The Saint (Japanese Ed. 1993]
Armored Saint 1987 Raising Fear [Reissue 1995]
Armored Saint 1988 Saints Will Conquer [Reissue 1994]
Armored Saint 1991 Symbol Of Salvation
Armored Saint 1991 Symbol Of Salvation [Special Ed. 2003] 3xCD
Armored Saint 2000 Revelation
Armored Saint 2001 Nod To The Old School
Armored Saint 2010 La Raza [Digisleeve]
Armored Saint 2015 Win Hands Down [Japanese Ed.]

Fates Warning 1984 Night On Brocken
Fates Warning 1985 The Spectre Within
Fates Warning 1986 Awaken The Guardian
Fates Warning 1988 No Exit
Fates Warning 1989 Perfect Symmetry [UK 1st Press]
Fates Warning 1991 Parallels [US 1st Press]
Fates Warning 1994 Inside Out
Fates Warning 1995 Chasing Time
Fates Warning 1997 A Pleasant Shade Of Gray
Fates Warning 1998 A Pleasant Shade Of Gray Live I-XII
Fates Warning 1998 Still Life [2CD]
Fates Warning 2013 Darkness In A Different Light [Limited Ed.] 2CD
Fates Warning 2016 Theories Of Flight [Special Edition 2CD Mediabook]

Motor Sister 2015 Ride [Japanese Ed.]

Redemption 2016 The Art Of Loss [Limited Ed. Digipak] 2CD

Riot 1977 Rock City [Reissue 1993]
Riot 1979 Narita [Japan 1st Press, 1989]
Riot 1981 Fire Down Under [Japanese Ed. 1999]
Riot 1982 Restless Breed [Japanese Ed. 1999]
Riot 1983 Born In America [Japan 1st Press, 1989]
Riot 1988 Thundersteel [Japan 1st Press]
Riot 1989 Riot Live [Japan 1st Press]
Riot 1990 The Privilege Of Power [Japan 1st Press]
Riot 1993 Nightbreaker [Japanese Ed.]
Riot 1993 Star Box [Japan 1st Press]
Riot 1995 The Brethren Of The Long House [Japan 1st Press]
Riot 1997 Inishmore [Japan Press, XRCN-2005]
Riot 1998 Shine On (Live) [Japan Press, XRCN-2025]
Riot 1999 Sons Of Society [Japanese Ed.]
Riot 2002 Through The Storm [Japanese Ed.]
Riot 2006 Army Of One [Japanese Ed.]
Riot 2011 Immortal Soul [Japanese Ed.]
Riot 2014 Unleash The Fire [Japanese Ed.]

……
Welcome to My Blog for more wonderful music!
……

Fates Warning – Disconnected (2000) Download, Warez, DDL, Free, Full Album, Torrent, Legal.

Download