Fates Warning – Chasing Time (1995)

Download
Fates Warning - Chasing Time (1995)

Fates Warning – Chasing Time (1995)
EAC Rip | FLAC: Image+Cue+Log | 561 Mb | MP3 CBR 320 kbps | 196 Mb | Scans | 53 Mb | Time: 01:18:02
Metal Blade Records | 3984-14085-2
Progressive Metal

Chasing Time is a compilation album, recorded by the Progressive metal group Fates Warning. The album was released on July 25, 1995. It includes 14 songs from all the band’s periods, including 1 unreleased remix and 2 unreleased songs. It is the only compilation album the band has released.

Fates Warning - Chasing Time (1995)
Fates Warning
Wikipedia | Metal Blade Records
Fates Warning - Chasing Time (1995)

Track Listing

01. Monument (06:17)
02. The Apparition (05:49)
03. Through Different Eyes (04:21)
04. Point Of View (04:59)
05. Prelude To Ruin (07:21)
06. Quietus (04:07)
07. Eye To Eye (04:06)
08. Guardian (07:32)
09. At Fates Fingers (Unreleased) (04:47)
10. Silent Cries (03:17)
11. We Only Say Goodbye (Unreleased Remix) (04:51)
12. Damnation (06:23)
13. Circles (Unreleased) (05:17)
14. The Eleventh Hour (08:55)

EAC Log
Exact Audio Copy V1.0 beta 1 from 15. November 2010

EAC extraction logfile from 28. April 2011, 14:23

Fates Warning / Chasing Time

Used drive : TSSTcorpCDRWDVD TS-H492C Adapter: 0 ID: 0

Read mode : Secure
Utilize accurate stream : Yes
Defeat audio cache : Yes
Make use of C2 pointers : No

Read offset correction : 6
Overread into Lead-In and Lead-Out : No
Fill up missing offset samples with silence : Yes
Delete leading and trailing silent blocks : No
Null samples used in CRC calculations : Yes
Used interface : Native Win32 interface for Win NT & 2000

Used output format : Internal WAV Routines
Sample format : 44.100 Hz; 16 Bit; Stereo

TOC of the extracted CD

Track | Start | Length | Start sector | End sector
––––––––––––––––––––––––––––-
1 | 0:00.00 | 6:17.20 | 0 | 28294
2 | 6:17.20 | 5:48.57 | 28295 | 54451
3 | 12:06.02 | 4:20.55 | 54452 | 74006
4 | 16:26.57 | 4:59.03 | 74007 | 96434
5 | 21:25.60 | 7:21.22 | 96435 | 129531
6 | 28:47.07 | 4:06.73 | 129532 | 148054
7 | 32:54.05 | 4:05.37 | 148055 | 166466
8 | 36:59.42 | 7:32.15 | 166467 | 200381
9 | 44:31.57 | 4:46.60 | 200382 | 221891
10 | 49:18.42 | 3:17.10 | 221892 | 236676
11 | 52:35.52 | 4:51.15 | 236677 | 258516
12 | 57:26.67 | 6:22.73 | 258517 | 287239
13 | 63:49.65 | 5:16.70 | 287240 | 311009
14 | 69:06.60 | 8:54.55 | 311010 | 351114

Range status and errors

Selected range

Filename C:TEMPFates Warning – Chasing Timechasingtime.wav

Peak level 100.0 %
Extraction speed 0.7 X
Range quality 99.9 %
Test CRC 09ECFDE5
Copy CRC 09ECFDE5
Copy OK

No errors occurred

AccurateRip summary

Track 1 accurately ripped (confidence 4) [DE399FC1]
Track 2 accurately ripped (confidence 4) [58D552CD]
Track 3 accurately ripped (confidence 4) [AF190E01]
Track 4 accurately ripped (confidence 4) [A7D06068]
Track 5 accurately ripped (confidence 4) [91FC5CEA]
Track 6 accurately ripped (confidence 4) [F7BD447A]
Track 7 accurately ripped (confidence 4) [CD7BFDBE]
Track 8 accurately ripped (confidence 4) [5A90AAFC]
Track 9 accurately ripped (confidence 4) [C6C00022]
Track 10 accurately ripped (confidence 4) [95F6F67E]
Track 11 accurately ripped (confidence 4) [39449F09]
Track 12 accurately ripped (confidence 4) [038803EB]
Track 13 accurately ripped (confidence 4) [3AFA0031]
Track 14 accurately ripped (confidence 4) [A8AAE176]

All tracks accurately ripped

End of status report

Many thanks to the original uploader: hexonut

SEE also:
Armored Saint 1984 March Of The Saint (Japanese Ed. 1993]
Armored Saint 1987 Raising Fear [Reissue 1995]
Armored Saint 1988 Saints Will Conquer [Reissue 1994]
Armored Saint 1991 Symbol Of Salvation
Armored Saint 1991 Symbol Of Salvation [Special Ed. 2003] 3xCD
Armored Saint 2000 Revelation
Armored Saint 2001 Nod To The Old School
Armored Saint 2010 La Raza [Digisleeve]
Armored Saint 2015 Win Hands Down [Japanese Ed.]

Fates Warning 1984 Night On Brocken
Fates Warning 1985 The Spectre Within
Fates Warning 1986 Awaken The Guardian
Fates Warning 1988 No Exit
Fates Warning 1989 Perfect Symmetry [UK 1st Press]
Fates Warning 1991 Parallels [US 1st Press]
Fates Warning 1994 Inside Out
Fates Warning 2013 Darkness In A Different Light [Limited Ed.] 2CD
Fates Warning 2016 Theories Of Flight [Special Edition 2CD Mediabook]

Motor Sister 2015 Ride [Japanese Ed.]

Redemption 2016 The Art Of Loss [Limited Ed. Digipak] 2CD

Riot 1977 Rock City [Reissue 1993]
Riot 1979 Narita [Japan 1st Press, 1989]
Riot 1981 Fire Down Under [Japanese Ed. 1999]
Riot 1982 Restless Breed [Japanese Ed. 1999]
Riot 1983 Born In America [Japan 1st Press, 1989]
Riot 1988 Thundersteel [Japan 1st Press]
Riot 1989 Riot Live [Japan 1st Press]
Riot 1990 The Privilege Of Power [Japan 1st Press]
Riot 1993 Nightbreaker [Japanese Ed.]
Riot 1993 Star Box [Japan 1st Press]
Riot 1995 The Brethren Of The Long House [Japan 1st Press]
Riot 1997 Inishmore [Japan Press, XRCN-2005]
Riot 1998 Shine On (Live) [Japan Press, XRCN-2025]
Riot 1999 Sons Of Society [Japanese Ed.]
Riot 2002 Through The Storm [Japanese Ed.]
Riot 2006 Army Of One [Japanese Ed.]
Riot 2011 Immortal Soul [Japanese Ed.]
Riot 2014 Unleash The Fire [Japanese Ed.]

……
Welcome to My Blog for more wonderful music!
……

Fates Warning – Chasing Time (1995) Download, Warez, DDL, Free, Full Album, Torrent, Legal.

Download