Fates Warning – A Pleasant Shade Of Gray Live I-XII (1998)

Download
Fates Warning - A Pleasant Shade Of Gray Live I-XII (1998)

Fates Warning – A Pleasant Shade Of Gray Live I-XII (1998)
EAC Rip | FLAC: Image+Cue+Log | 396 Mb | MP3 CBR 320 kbps | 149 Mb | Scans | Time: 52:00
Massacre Records/Metal Hammer | MHFW MR001
Progressive Metal

A Pleasant Shade Of Gray Live I-XII (taken from the live album "Still Life"). "Still Life" was recorded in Europe, April 16-26, 1998. It was released and given for free by "Metal Hammer & Heavy Metal" magazine.

Fates Warning - A Pleasant Shade Of Gray Live I-XII (1998)
Fates Warning
Wikipedia | Metal Blade Records
Fates Warning - A Pleasant Shade Of Gray Live I-XII (1998)

Track Listing

01. Part I (02:20)
02. Part II (03:28)
03. Part III (03:53)
04. Part IV (04:36)
05. Part V (05:24)
06. Part VI (07:08)
07. Part VII (04:47)
08. Part VIII (03:37)
09. Part IX (04:38)
10. Part X (01:10)
11. Part XI (03:32)
12. Part XII (07:26)

Produced by Terry Brown

The Band

• Ray Alder – vocals
• Jim Matheos – guitars, guitar synth
• Mark Zonder – drums

*****
• Bernie Versailles – guitars
• Joey Vera – bass
• Jason Keazer – keyboards

EAC Log
Exact Audio Copy V1.0 beta 3 from 29. August 2011

EAC extraction logfile from 25. May 2012, 20:16

Fates Warning / A Pleasant Shade Of Gray Live I-XII

Used drive : PLEXTOR CD-R PX-240A Adapter: 0 ID: 0

Read mode : Secure
Utilize accurate stream : Yes
Defeat audio cache : Yes
Make use of C2 pointers : No

Read offset correction : 6
Overread into Lead-In and Lead-Out : No
Fill up missing offset samples with silence : Yes
Delete leading and trailing silent blocks : No
Null samples used in CRC calculations : Yes
Used interface : Installed external ASPI interface

Used output format : Internal WAV Routines
Sample format : 44.100 Hz; 16 Bit; Stereo

TOC of the extracted CD

Track | Start | Length | Start sector | End sector
––––––––––––––––––––––––––––-
1 | 0:00.00 | 2:19.73 | 0 | 10497
2 | 2:19.73 | 3:28.29 | 10498 | 26126
3 | 5:48.27 | 3:53.14 | 26127 | 43615
4 | 9:41.41 | 4:35.56 | 43616 | 64296
5 | 14:17.22 | 5:23.71 | 64297 | 88592
6 | 19:41.18 | 7:07.56 | 88593 | 120673
7 | 26:48.74 | 4:46.53 | 120674 | 142176
8 | 31:35.52 | 3:36.56 | 142177 | 158432
9 | 35:12.33 | 4:38.05 | 158433 | 179287
10 | 39:50.38 | 1:10.31 | 179288 | 184568
11 | 41:00.69 | 3:31.71 | 184569 | 200464
12 | 44:32.65 | 7:26.22 | 200465 | 233936

Range status and errors

Selected range

Filename Z:data2Seeding ArchiveFates Warning1998-A Pleasant Shade Of Gray Live I-XIIA Pleasant Shade Of Gray Live I-XII.wav

Peak level 97.7 %
Extraction speed 4.0 X
Range quality 99.9 %
Test CRC F6B3ABE4
Copy CRC F6B3ABE4
Copy OK

No errors occurred


AccurateRip summary

Track 1 accurately ripped (confidence 1) [051D3357] (AR v1)
Track 2 accurately ripped (confidence 1) [D74CD30E] (AR v1)
Track 3 accurately ripped (confidence 1) [DF8A4348] (AR v1)
Track 4 accurately ripped (confidence 1) [CC4B99E6] (AR v1)
Track 5 accurately ripped (confidence 1) [53ABC944] (AR v1)
Track 6 accurately ripped (confidence 1) [97730B40] (AR v1)
Track 7 accurately ripped (confidence 1) [75DD2E83] (AR v1)
Track 8 accurately ripped (confidence 1) [E090CC38] (AR v1)
Track 9 accurately ripped (confidence 1) [19B5A51E] (AR v1)
Track 10 accurately ripped (confidence 1) [0B9E47AD] (AR v1)
Track 11 accurately ripped (confidence 1) [2F162F82] (AR v1)
Track 12 accurately ripped (confidence 1) [F62C20A4] (AR v1)

All tracks accurately ripped

End of status report

==== Log checksum 3BE673D20974963EE894CA4F20C8EAAE80787C27314367B2585AAB9C0CF19468 ====

Many thanks to the original uploader: hexonut

SEE also:
Armored Saint 1984 March Of The Saint (Japanese Ed. 1993]
Armored Saint 1987 Raising Fear [Reissue 1995]
Armored Saint 1988 Saints Will Conquer [Reissue 1994]
Armored Saint 1991 Symbol Of Salvation
Armored Saint 1991 Symbol Of Salvation [Special Ed. 2003] 3xCD
Armored Saint 2000 Revelation
Armored Saint 2001 Nod To The Old School
Armored Saint 2010 La Raza [Digisleeve]
Armored Saint 2015 Win Hands Down [Japanese Ed.]

Fates Warning 1984 Night On Brocken
Fates Warning 1985 The Spectre Within
Fates Warning 1986 Awaken The Guardian
Fates Warning 1988 No Exit
Fates Warning 1989 Perfect Symmetry [UK 1st Press]
Fates Warning 1991 Parallels [US 1st Press]
Fates Warning 1994 Inside Out
Fates Warning 1995 Chasing Time
Fates Warning 1997 A Pleasant Shade Of Gray
Fates Warning 2013 Darkness In A Different Light [Limited Ed.] 2CD
Fates Warning 2016 Theories Of Flight [Special Edition 2CD Mediabook]

Motor Sister 2015 Ride [Japanese Ed.]

Redemption 2016 The Art Of Loss [Limited Ed. Digipak] 2CD

Riot 1977 Rock City [Reissue 1993]
Riot 1979 Narita [Japan 1st Press, 1989]
Riot 1981 Fire Down Under [Japanese Ed. 1999]
Riot 1982 Restless Breed [Japanese Ed. 1999]
Riot 1983 Born In America [Japan 1st Press, 1989]
Riot 1988 Thundersteel [Japan 1st Press]
Riot 1989 Riot Live [Japan 1st Press]
Riot 1990 The Privilege Of Power [Japan 1st Press]
Riot 1993 Nightbreaker [Japanese Ed.]
Riot 1993 Star Box [Japan 1st Press]
Riot 1995 The Brethren Of The Long House [Japan 1st Press]
Riot 1997 Inishmore [Japan Press, XRCN-2005]
Riot 1998 Shine On (Live) [Japan Press, XRCN-2025]
Riot 1999 Sons Of Society [Japanese Ed.]
Riot 2002 Through The Storm [Japanese Ed.]
Riot 2006 Army Of One [Japanese Ed.]
Riot 2011 Immortal Soul [Japanese Ed.]
Riot 2014 Unleash The Fire [Japanese Ed.]

……
Welcome to My Blog for more wonderful music!
……

Fates Warning – A Pleasant Shade Of Gray Live I-XII (1998) Download, Warez, DDL, Free, Full Album, Torrent, Legal.

Download