Faster Pussycat – The Power & The Glory Hole (2006) [Digipak]

Download
Faster Pussycat - The Power & The Glory Hole (2006) [Digipak]

Faster Pussycat – The Power & The Glory Hole (2006) [Digipak]
EAC Rip | FLAC: Tracks+Cue+Log | 366 Mb | MP3 CBR 320 kbps | 130 Mb | Scans | Time: 46:46
Full Effect Records | FE-0100
Hard Rock, Sleaze Rock, Industrial Rock

The Power and the Glory Hole is an album by Faster Pussycat released on July 13, 2006, by Full Effect Records. The songs mix industrial rock with the band’s traditional sound. Singer Taime Downe was the only member returning from previous Faster Pussycat original albums.

Faster Pussycat - The Power & The Glory Hole (2006) [Digipak]
Faster Pussycat
Wikipedia | Amazon

Track Listing

01. Number 1 With A Bullet (03:40)
02. Gotta Love It (04:15)
03. Useless (05:15)
04. Sex Drugs & Rock-N-Roll (04:05)
05. Disintegrate (04:43)
06. These Boots Were Made For Walking (Nancy Sinatra cover) (03:36)
07. Hey You (03:11)
08. Porn Star (04:31)
09. The Power & The Glory Hole (04:30)
10. Shut Up & Fuck (Betty Blowtorch cover) (02:14)
11. Bye Bye Bianca (06:45)

Produced by Taime Downe

The Band

• Taime Downe – lead vocals, guitar
• Xristian Simon – guitar, vocals
• Danny Nordahl – bass guitar, vocals
• Chad Stewart – drums, vocals

EAC Log
Exact Audio Copy V1.0 beta 3 from 29. August 2011

EAC extraction logfile from 27. June 2013, 21:40

Faster Pussycat / The Power & The Glory Hole

Used drive : SONY BD RW BDX-S600U Adapter: 0 ID: 0

Read mode : Secure
Utilize accurate stream : Yes
Defeat audio cache : Yes
Make use of C2 pointers : No

Read offset correction : 48
Overread into Lead-In and Lead-Out : No
Fill up missing offset samples with silence : Yes
Delete leading and trailing silent blocks : No
Null samples used in CRC calculations : Yes
Used interface : Native Win32 interface for Win NT & 2000
Gap handling : Appended to previous track

Used output format : User Defined Encoder
Selected bitrate : 1024 kBit/s
Quality : High
Add ID3 tag : No
Command line compressor : C:Program Files (x86)Exact Audio CopyFLACFLAC.EXE
Additional command line options : -8 -V -T "ARTIST=%artist%" -T "TITLE=%title%" -T "ALBUM=%albumtitle%" -T "DATE=%year%" -T "TRACKNUMBER=%tracknr%" -T "GENRE=%genre%" -T "PERFORMER=%albuminterpret%" -T "COMPOSER=%composer%" %haslyrics%–tag-from-file=LYRICS="%lyricsfile%"%haslyrics% -T "ALBUMARTIST=%albumartist%" -T "DISCNUMBER=%cdnumber%" -T "TOTALDISCS=%totalcds%" -T "TOTALTRACKS=%numtracks%" -T "COMMENT=%comment%" %source% -o %dest%

TOC of the extracted CD

Track | Start | Length | Start sector | End sector
––––––––––––––––––––––––––––-
1 | 0:00.00 | 3:39.50 | 0 | 16474
2 | 3:39.50 | 4:14.60 | 16475 | 35584
3 | 7:54.35 | 5:15.29 | 35585 | 59238
4 | 13:09.64 | 4:04.63 | 59239 | 77601
5 | 17:14.52 | 4:43.08 | 77602 | 98834
6 | 21:57.60 | 3:35.43 | 98835 | 115002
7 | 25:33.28 | 3:11.17 | 115003 | 129344
8 | 28:44.45 | 4:31.18 | 129345 | 149687
9 | 33:15.63 | 4:30.13 | 149688 | 169950
10 | 37:46.01 | 2:14.28 | 169951 | 180028
11 | 40:00.29 | 6:45.24 | 180029 | 210427

Track 1

Filename I:MusicFaster Pussycat – The Power & The Glory Hole (2006) [FLAC] {RHL-SD}1 – Number 1 With A Bullet.wav

Pre-gap length 0:00:02.00

Peak level 97.9 %
Extraction speed 4.3 X
Track quality 100.0 %
Test CRC 624729DC
Copy CRC 624729DC
Accurately ripped (confidence 2) [400CBDA1] (AR v1)
Copy OK

Track 2

Filename I:MusicFaster Pussycat – The Power & The Glory Hole (2006) [FLAC] {RHL-SD}2 – Gotta Love It.wav

Peak level 97.8 %
Extraction speed 4.8 X
Track quality 100.0 %
Test CRC DA2DF506
Copy CRC DA2DF506
Accurately ripped (confidence 2) [7AEC5599] (AR v1)
Copy OK

Track 3

Filename I:MusicFaster Pussycat – The Power & The Glory Hole (2006) [FLAC] {RHL-SD}3 – Useless.wav

Peak level 97.1 %
Extraction speed 5.3 X
Track quality 99.9 %
Test CRC 883DCC6E
Copy CRC 883DCC6E
Accurately ripped (confidence 2) [484132B0] (AR v1)
Copy OK

Track 4

Filename I:MusicFaster Pussycat – The Power & The Glory Hole (2006) [FLAC] {RHL-SD}4 – Sex Drugs & Rock-N-Roll.wav

Peak level 97.4 %
Extraction speed 5.7 X
Track quality 100.0 %
Test CRC C494620F
Copy CRC C494620F
Accurately ripped (confidence 2) [EB3DCAD5] (AR v1)
Copy OK

Track 5

Filename I:MusicFaster Pussycat – The Power & The Glory Hole (2006) [FLAC] {RHL-SD}5 – Disintegrate.wav

Peak level 96.6 %
Extraction speed 6.1 X
Track quality 100.0 %
Test CRC 2625947B
Copy CRC 2625947B
Accurately ripped (confidence 2) [B325989F] (AR v1)
Copy OK

Track 6

Filename I:MusicFaster Pussycat – The Power & The Glory Hole (2006) [FLAC] {RHL-SD}6 – These Boots Were Made For Walking.wav

Peak level 97.4 %
Extraction speed 6.3 X
Track quality 100.0 %
Test CRC 4BAA721F
Copy CRC 4BAA721F
Accurately ripped (confidence 2) [868AD4FD] (AR v1)
Copy OK

Track 7

Filename I:MusicFaster Pussycat – The Power & The Glory Hole (2006) [FLAC] {RHL-SD}7 – Hey You.wav

Peak level 97.5 %
Extraction speed 6.4 X
Track quality 99.9 %
Test CRC D764B1D8
Copy CRC D764B1D8
Accurately ripped (confidence 2) [C1E7A74C] (AR v1)
Copy OK

Track 8

Filename I:MusicFaster Pussycat – The Power & The Glory Hole (2006) [FLAC] {RHL-SD}8 – Porn Star.wav

Peak level 96.6 %
Extraction speed 6.8 X
Track quality 99.9 %
Test CRC E19923D7
Copy CRC E19923D7
Accurately ripped (confidence 2) [A32E64CE] (AR v1)
Copy OK

Track 9

Filename I:MusicFaster Pussycat – The Power & The Glory Hole (2006) [FLAC] {RHL-SD}9 – The Power & The Glory Hole.wav

Peak level 96.6 %
Extraction speed 7.3 X
Track quality 100.0 %
Test CRC C6C5F5D1
Copy CRC C6C5F5D1
Accurately ripped (confidence 2) [24C72E7D] (AR v1)
Copy OK

Track 10

Filename I:MusicFaster Pussycat – The Power & The Glory Hole (2006) [FLAC] {RHL-SD}10 – Shut Up & Fuck.wav

Peak level 97.5 %
Extraction speed 7.1 X
Track quality 100.0 %
Test CRC 85EF7C37
Copy CRC 85EF7C37
Accurately ripped (confidence 2) [847A115E] (AR v1)
Copy OK

Track 11

Filename I:MusicFaster Pussycat – The Power & The Glory Hole (2006) [FLAC] {RHL-SD}11 – Bye Bye Bianca.wav

Peak level 96.6 %
Extraction speed 8.0 X
Track quality 100.0 %
Test CRC A05B3700
Copy CRC A05B3700
Accurately ripped (confidence 2) [D674F950] (AR v1)
Copy OK

All tracks accurately ripped

No errors occurred

End of status report

–– CUETools DB Plugin V2.1.3

[CTDB TOCID: BSYV1HGYrUuiu.obAkO4WM68aL8-] found, Submit result: BSYV1HGYrUuiu.obAkO4WM68aL8- has been confirmed
[a61509d0] (3/3) Accurately ripped

==== Log checksum 8497EB07534DCED92311938951972800D17D8D5A8D8A452EE85FFFB32BD5592B ====

Many thanks to the original uploader: mwcemujkr35

SEE also:
Faster Pussycat 1987 Faster Pussycat [Japan 1st Press]
Faster Pussycat 2009 Front Row For The Donkey Show [Digipak]

No Shame 1989 Good Girls Don’t Last

Poison 1986 Look What The Cat Dragged In

Shooting Gallery 1992 Shooting Gallery [Japan 1st Press]

……
Welcome to My Blog for more wonderful music!
……

Faster Pussycat – The Power & The Glory Hole (2006) [Digipak] Download, Warez, DDL, Free, Full Album, Torrent, Legal.

Download