Faiz Ali Faiz, Duquende, Miguel Poveda & Chicuelo – Qawwali Flamenco (2006)

Download
Faiz Ali Faiz, Duquende, Miguel Poveda & Chicuelo - Qawwali Flamenco (2006)

Faiz Ali Faiz, Duquende, Miguel Poveda & Chicuelo – Qawwali Flamenco (2006)
DVD rip | AVI: OpenDML (720 x 480, 2501 Kbps) | Audio: MP3 (320 Kbps) | 52 min | Spanish, Sufi | 1.03 gb
Genre: concert, world, qawwali, flamenco, folk, acoustic

This live performance, combining the beauty of flamenco with qawwali, comes from the minds of Faiz Ali Faiz, Duquende, Miguel Poveda & Chicuelo. This was released in 2006 from a music festival in 2005.

Faiz Ali Faiz, Duquende, Miguel Poveda & Chicuelo - Qawwali Flamenco (2006)
MediaInfo (LOG)
General
Complete name : F:FLACAAA 2017VidsFaiz Ali Faiz, Duquende, Miguel Poveda & Chicuelo – Qawwali Flamenco (2006)Faiz Ali Faiz, Duquende, Miguel Poveda & Chicuelo – Qawwali Flamenco (2006).avi
Format : AVI
Format/Info : Audio Video Interleave
Format profile : OpenDML
File size : 1.04 GiB
Duration : 52mn 23s
Overall bit rate : 2 839 Kbps
Writing application : Lavf51.12.1

Video
ID : 0
Format : xvid
Codec ID : xvid
Duration : 52mn 23s
Bit rate : 2 501 Kbps
Width : 720 pixels
Height : 480 pixels
Display aspect ratio : 3:2
Frame rate : 29.970 fps
Standard : NTSC
Bits/(Pixel*Frame) : 0.241
Stream size : 937 MiB (88%)

Audio
ID : 1
Format : MPEG Audio
Format version : Version 1
Format profile : Layer 3
Mode : Joint stereo
Codec ID : 55
Codec ID/Hint : MP3
Duration : 52mn 23s
Bit rate mode : Constant
Bit rate : 320 Kbps
Channel(s) : 2 channels
Sampling rate : 44.1 KHz
Compression mode : Lossy
Stream size : 120 MiB (11%)
Alignment : Aligned on interleaves
Interleave, duration : 26 ms (0.78 video frame)
Interleave, preload duration : 26 ms
Writing library : LAME3.97

Faiz Ali Faiz, Duquende, Miguel Poveda & Chicuelo – Qawwali Flamenco (2006) Download, Warez, DDL, Free, Full Album, Torrent, Legal.

Download