Fairport Convention – Unhalfbricking (1969) Remastered Reissue 2003 [Re-Up]

Download
Fairport Convention - Unhalfbricking (1969) Remastered Reissue 2003 [Re-Up]

Fairport Convention – Unhalfbricking (1969)
XLD | FLAC | Image (Cue&Log) ~ 311 Mb (incl 5%) | Mp3 (CBR320) ~ 141 Mb (incl 5%) | Scans included
British Folk Rock, Psychedelic, Progressive Folk | Island Remasters | # IMCD293 / 063 596-2 | 00:48:18

Unhalfbricking is the third album by British folk rock band Fairport Convention, released in 1969. It is seen as a transitional album in their history and marked a further musical move away from American influences towards more traditional English folk songs that had begun on their previous album, What We Did On Our Holidays and arguably reached its peak on the follow-up, Liege & Lief, released later the same year. In 2004 Q magazine placed Unhalfbricking at number 41 in its list of the 50 Greatest British Albums Ever, and in the same year The Observer, describing it as "a thoroughly English masterpiece", listed it at number 27 in its Top 100 British Albums. The following year, 2005, it was included in Robert Dimery’s "1001 Albums You Must Hear Before You Die".

Unhalfbricking was, if only in retrospect, a transitional album for the young Fairport Convention, in which the group shed its closest ties to its American folk-rock influences and started to edge toward a more traditional British folk-slanted sound. That shift wouldn’t be definitive until their next album, Liege & Lief. But the strongest link to the American folk-rock harmony approach left with the departure of Ian Matthews, who left shortly after the sessions for Unhalfbricking began. The mixture of obscure American folk-rock songs, original material, and traditional interpretations that had fallen into place with What We Did on Our Holidays earlier in the year was actually still intact, if not as balanced. Sandy Denny’s two compositions, her famous "Who Knows Where the Time Goes?" and the far less celebrated but magnetically brooding "Autopsy," were among the record’s highlights. So too were the goofball French Cajun cover of Bob Dylan’s "If You Gotta Go, Go Now" (here retitled "Si Tu Dois Partir," and a British hit) and the magnificent reading of Dylan’s "Percy’s Song," though the bash through Dylan’s "Million Dollar Bash" was less effective. Richard Thompson’s pair of songs, however, were less memorable. The clear signpost to the future was their 11-minute take on the traditional song "A Sailor’s Life," with guest fiddle by Dave Swarbrick, soon to join Fairport himself and make his own strong contribution toward reshaping the band’s sound.

Review by Richie Unterberger, Allmusic.com

Fairport Convention - Unhalfbricking (1969) Remastered Reissue 2003 [Re-Up]

Fairport Convention - Unhalfbricking (1969) Remastered Reissue 2003 [Re-Up]

Fairport Convention - Unhalfbricking (1969) Remastered Reissue 2003 [Re-Up]

Fairport Convention - Unhalfbricking (1969) Remastered Reissue 2003 [Re-Up]

Fairport Convention at Allmusic
Fairport Convention Website
Fairport Convention at Wiki

Tracklist:

01. Genesis Hall (03:35)
02. Si Tu Dois Partir (02:18)
03. Autopsy (04:20)
04. A Sailor’s Life (11:08)
05. Cajun Woman (02:42)
06. Who Knows Where The Time Goes? (05:05)
07. Percy’s Song (06:46)
08. Million Dollar Bash (02:54)

Bonus Tracks:
09. Dear Landlord (04:06)
10. The Ballad Of Easy Rider (04:55)

XLD log
X Lossless Decoder version 20091129 (114.3)

XLD extraction logfile from 2010-12-12 11:15:30 +0000

Fairport Convention / Unhalfbricking

Used drive : PIONEER DVD-RW DVR-218L (revision 1.02)

Use cdparanoia mode : YES (CDParanoia III 10.2 engine)
Disable audio cache : OK for the drive with cache less than 2750KB
Make use of C2 pointers : NO
Read offset correction : 6
Max retry count : 100

TOC of the extracted CD
Track | Start | Length | Start sector | End sector
––––––––––––––––––––––––––––-
1 | 00:00:00 | 03:37:72 | 0 | 16346
2 | 03:37:72 | 02:21:43 | 16347 | 26964
3 | 05:59:40 | 04:23:04 | 26965 | 46693
4 | 10:22:44 | 11:11:19 | 46694 | 97037
5 | 21:33:63 | 02:45:38 | 97038 | 109450
6 | 24:19:26 | 05:08:41 | 109451 | 132591
7 | 29:27:67 | 06:49:38 | 132592 | 163304
8 | 36:17:30 | 02:57:30 | 163305 | 176609
9 | 39:14:60 | 04:08:39 | 176610 | 195248
10 | 43:23:24 | 04:55:12 | 195249 | 217385

All Tracks
Filename : /Volumes/DISC2/Temp/MUSIC/LOSSLESS/Fairport Convention/Fairport Convention – Unhalfbricking – 1969/Unhalfbricking.aiff
CRC32 hash (test run) : 466207F5
CRC32 hash : 466207F5
CRC32 hash (skip zero) : E994DDE8
Statistics
Read error : 0
Skipped (treated as error) : 0
Edge jitter error (maybe fixed) : 0
Atom jitter error (maybe fixed) : 1
Drift error (maybe fixed) : 0
Dropped bytes error (maybe fixed) : 0
Duplicated bytes error (maybe fixed) : 0

Track 01
CRC32 hash (test run) : 71D0AC41
CRC32 hash : 71D0AC41
CRC32 hash (skip zero) : 66CF9A6B
Statistics
Read error : 0
Skipped (treated as error) : 0
Edge jitter error (maybe fixed) : 0
Atom jitter error (maybe fixed) : 0
Drift error (maybe fixed) : 0
Dropped bytes error (maybe fixed) : 0
Duplicated bytes error (maybe fixed) : 0

Track 02
CRC32 hash (test run) : BAFA6E9D
CRC32 hash : BAFA6E9D
CRC32 hash (skip zero) : DC95FDC7
Statistics
Read error : 0
Skipped (treated as error) : 0
Edge jitter error (maybe fixed) : 0
Atom jitter error (maybe fixed) : 0
Drift error (maybe fixed) : 0
Dropped bytes error (maybe fixed) : 0
Duplicated bytes error (maybe fixed) : 0

Track 03
CRC32 hash (test run) : B7692841
CRC32 hash : B7692841
CRC32 hash (skip zero) : 10ADA2BC
Statistics
Read error : 0
Skipped (treated as error) : 0
Edge jitter error (maybe fixed) : 0
Atom jitter error (maybe fixed) : 1
Drift error (maybe fixed) : 0
Dropped bytes error (maybe fixed) : 0
Duplicated bytes error (maybe fixed) : 0

Track 04
CRC32 hash (test run) : 71A2AEF0
CRC32 hash : 71A2AEF0
CRC32 hash (skip zero) : B48AC1BB
Statistics
Read error : 0
Skipped (treated as error) : 0
Edge jitter error (maybe fixed) : 0
Atom jitter error (maybe fixed) : 0
Drift error (maybe fixed) : 0
Dropped bytes error (maybe fixed) : 0
Duplicated bytes error (maybe fixed) : 0

Track 05
CRC32 hash (test run) : 69FC73A5
CRC32 hash : 69FC73A5
CRC32 hash (skip zero) : E7A11021
Statistics
Read error : 0
Skipped (treated as error) : 0
Edge jitter error (maybe fixed) : 0
Atom jitter error (maybe fixed) : 0
Drift error (maybe fixed) : 0
Dropped bytes error (maybe fixed) : 0
Duplicated bytes error (maybe fixed) : 0

Track 06
CRC32 hash (test run) : 279A923D
CRC32 hash : 279A923D
CRC32 hash (skip zero) : 556E42A9
Statistics
Read error : 0
Skipped (treated as error) : 0
Edge jitter error (maybe fixed) : 0
Atom jitter error (maybe fixed) : 0
Drift error (maybe fixed) : 0
Dropped bytes error (maybe fixed) : 0
Duplicated bytes error (maybe fixed) : 0

Track 07
CRC32 hash (test run) : A32D2ADF
CRC32 hash : A32D2ADF
CRC32 hash (skip zero) : 335D5EE6
Statistics
Read error : 0
Skipped (treated as error) : 0
Edge jitter error (maybe fixed) : 0
Atom jitter error (maybe fixed) : 0
Drift error (maybe fixed) : 0
Dropped bytes error (maybe fixed) : 0
Duplicated bytes error (maybe fixed) : 0

Track 08
CRC32 hash (test run) : 715110A1
CRC32 hash : 715110A1
CRC32 hash (skip zero) : 8C7FF2D8
Statistics
Read error : 0
Skipped (treated as error) : 0
Edge jitter error (maybe fixed) : 0
Atom jitter error (maybe fixed) : 0
Drift error (maybe fixed) : 0
Dropped bytes error (maybe fixed) : 0
Duplicated bytes error (maybe fixed) : 0

Track 09
CRC32 hash (test run) : A4B57018
CRC32 hash : A4B57018
CRC32 hash (skip zero) : 51205ED5
Statistics
Read error : 0
Skipped (treated as error) : 0
Edge jitter error (maybe fixed) : 0
Atom jitter error (maybe fixed) : 0
Drift error (maybe fixed) : 0
Dropped bytes error (maybe fixed) : 0
Duplicated bytes error (maybe fixed) : 0

Track 10
CRC32 hash (test run) : 66D5DFBD
CRC32 hash : 66D5DFBD
CRC32 hash (skip zero) : 87BA2CAA
Statistics
Read error : 0
Skipped (treated as error) : 0
Edge jitter error (maybe fixed) : 0
Atom jitter error (maybe fixed) : 0
Drift error (maybe fixed) : 0
Dropped bytes error (maybe fixed) : 0
Duplicated bytes error (maybe fixed) : 0

No errors occurred

End of status report

DR log
foobar2000 1.2 / Dynamic Range Meter 1.1.1
log date: 2014-10-02 15:06:20

––––––––––––––––––––––––––––––––––––––––
Analyzed: Fairport Convention / Unhalfbricking
––––––––––––––––––––––––––––––––––––––––

DR Peak RMS Duration Track
––––––––––––––––––––––––––––––––––––––––
DR10 -0.10 dB -12.96 dB 3:38 01-Genesis Hall
DR10 -0.10 dB -12.47 dB 2:22 02-Si Tu Dois Partir
DR11 -1.23 dB -15.08 dB 4:23 03-Autopsy
DR10 -0.10 dB -13.87 dB 11:11 04-A Sailor’s Life
DR9 -0.10 dB -10.97 dB 2:46 05-Cajun Woman
DR9 -0.38 dB -13.80 dB 5:09 06-Who Knows Where The Time Goes?
DR9 -0.10 dB -11.99 dB 6:50 07-Percy’s Song
DR9 -0.10 dB -11.02 dB 2:57 08-Million Dollar Bash
DR11 -0.10 dB -13.14 dB 4:09 09-Dear Landlord
DR11 -0.10 dB -14.32 dB 4:55 10-The Ballad Of Easy Rider
––––––––––––––––––––––––––––––––––––––––

Number of tracks: 10
Official DR value: DR10

Samplerate: 44100 Hz
Channels: 2
Bits per sample: 16
Bitrate: 790 kbps
Codec: FLAC
================================================================================

Fairport Convention - Unhalfbricking (1969) Remastered Reissue 2003 [Re-Up]

Fairport Convention - Unhalfbricking (1969) Remastered Reissue 2003 [Re-Up]

All thanks to original releaser – Swamp Fox

More interesting music in My Blog

Fairport Convention – What We Did On Our Holidays (1969) Expanded Remastered 2003

Fairport Convention – Unhalfbricking (1969) Remastered Reissue 2003 [Re-Up] Download, Warez, DDL, Free, Full Album, Torrent, Legal.

Download