Fairport Convention – The Essential: Who Knows Where The Time Goes (2017)

Download
Fairport Convention - The Essential: Who Knows Where The Time Goes (2017)

Fairport Convention – The Essential: Who Knows Where The Time Goes
XLD Rip | FLAC (tracks)+cue, log, front cover | 212:45 min | 1.19 GB
Label: Spectrum Music – SPECESS010 | Tracks: 52 | Rls.date: 2017
Folk Rock, British Folk

A slick 3-CD gatefold package that walks you through a legendary back catalogue of folk giants Fairport Convention. Featuring tracks such as Si Tu Dois Partir, Meet On The Ledge, Who Knows Where the Time Goes?, Matty Groves and many more.

TRACKLIST

Disc 1

1. Fairport Convention – If I Had A Ribbon Bow [02:41]
2. Fairport Convention – If (Stomp) [02:45]
3. Fairport Convention – It’s Alright Ma, It’s Only Witchcraft[03:12]
4. Fairport Convention – Chelsea Morning [03:03]
5. Fairport Convention – Suzanne [05:45]
6. Fairport Convention – Fotheringay [03:03]
7. Fairport Convention – She Moves Through The Fair [04:08]
8. Fairport Convention – Meet On The Ledge [02:49]
9. Fairport Convention – Nottamun Town [03:06]
10. Fairport Convention – Genesis Hall [03:37]
11. Fairport Convention – Si Tu Dois Partir [02:20]
12. Fairport Convention – Who Knows Where The Time Goes? [05:10]
13. Fairport Convention – The Ballad Of Easy Rider [04:55]
14. Fairport Convention – Come All Ye [04:58]
15. Fairport Convention – Matty Groves [08:05]
16. Fairport Convention – Farewell, Farewell [02:37]
17. Fairport Convention – Quiet Joys Of Brotherhood [Take 1][07:49]

XLD Log
X Lossless Decoder version 20160920 (149.2)

XLD extraction logfile from 2017-07-10 14:33:02 +0200

Fairport Convention / Who Knows Where The Time Goes?

Used drive : HL-DT-ST DVDRW GX40N (revision RQ00)
Media type : Pressed CD

Ripper mode : XLD Secure Ripper
Disable audio cache : OK for the drive with a cache less than 1375KiB
Make use of C2 pointers : NO
Read offset correction : 6
Max retry count : 20
Gap status : Analyzed, Appended (except HTOA)

TOC of the extracted CD
Track | Start | Length | Start sector | End sector
––––––––––––––––––––––––––––-
1 | 00:00:00 | 02:41:60 | 0 | 12134
2 | 02:41:60 | 02:45:55 | 12135 | 24564
3 | 05:27:40 | 03:12:44 | 24565 | 39008
4 | 08:40:09 | 03:03:25 | 39009 | 52758
5 | 11:43:34 | 05:45:05 | 52759 | 78638
6 | 17:28:39 | 03:03:00 | 78639 | 92363
7 | 20:31:39 | 04:08:68 | 92364 | 111031
8 | 24:40:32 | 02:49:00 | 111032 | 123706
9 | 27:29:32 | 03:06:71 | 123707 | 137727
10 | 30:36:28 | 03:37:47 | 137728 | 154049
11 | 34:14:00 | 02:20:72 | 154050 | 164621
12 | 36:34:72 | 05:10:13 | 164622 | 187884
13 | 41:45:10 | 04:55:41 | 187885 | 210050
14 | 46:40:51 | 04:58:15 | 210051 | 232415
15 | 51:38:66 | 08:05:60 | 232416 | 268850
16 | 59:44:51 | 02:37:73 | 268851 | 280698
17 | 62:22:49 | 07:49:12 | 280699 | 315885

AccurateRip Summary
Disc not found in AccurateRip DB.

All Tracks
Album gain : -4.64 dB
Peak : 0.999908
Statistics
Read error : 0
Jitter error (maybe fixed) : 0
Retry sector count : 0
Damaged sector count : 0

Track 01
Filename : /Users/Bea/Downloads/Fairport Convention – Who Knows Where The Time Goes? (2017) [FLAC]/01 If I Had A Ribbon Bow.flac
Pre-gap length : 00:02:00

Track gain : -5.39 dB
Peak : 0.999878
CRC32 hash (test run) : 6A3E4CF3
CRC32 hash : 6A3E4CF3
CRC32 hash (skip zero) : 1709410D
AccurateRip v1 signature : C76C29F7
AccurateRip v2 signature : 9A6B9B28
->Track not present in AccurateRip database.
Statistics
Read error : 0
Jitter error (maybe fixed) : 0
Retry sector count : 0
Damaged sector count : 0

Track 02
Filename : /Users/Bea/Downloads/Fairport Convention – Who Knows Where The Time Goes? (2017) [FLAC]/02 If (Stomp).flac

Track gain : -5.55 dB
Peak : 0.999908
CRC32 hash (test run) : 9FBB93DB
CRC32 hash : 9FBB93DB
CRC32 hash (skip zero) : 94BA7588
AccurateRip v1 signature : 95EF0B07
AccurateRip v2 signature : 46DDFD83
->Track not present in AccurateRip database.
Statistics
Read error : 0
Jitter error (maybe fixed) : 0
Retry sector count : 0
Damaged sector count : 0

Track 03
Filename : /Users/Bea/Downloads/Fairport Convention – Who Knows Where The Time Goes? (2017) [FLAC]/03 It’s Alright Ma, It’s Only Witchcraft.flac

Track gain : -5.74 dB
Peak : 0.999908
CRC32 hash (test run) : 245A15B2
CRC32 hash : 245A15B2
CRC32 hash (skip zero) : 53229D0B
AccurateRip v1 signature : E69BA85A
AccurateRip v2 signature : A335CD44
->Track not present in AccurateRip database.
Statistics
Read error : 0
Jitter error (maybe fixed) : 0
Retry sector count : 0
Damaged sector count : 0

Track 04
Filename : /Users/Bea/Downloads/Fairport Convention – Who Knows Where The Time Goes? (2017) [FLAC]/04 Chelsea Morning.flac

Track gain : -5.82 dB
Peak : 0.999908
CRC32 hash (test run) : 785090E6
CRC32 hash : 785090E6
CRC32 hash (skip zero) : B951E19B
AccurateRip v1 signature : DA5ADC85
AccurateRip v2 signature : 2B7BE521
->Track not present in AccurateRip database.
Statistics
Read error : 0
Jitter error (maybe fixed) : 0
Retry sector count : 0
Damaged sector count : 0

Track 05
Filename : /Users/Bea/Downloads/Fairport Convention – Who Knows Where The Time Goes? (2017) [FLAC]/05 Suzanne.flac

Track gain : -6.41 dB
Peak : 0.999908
CRC32 hash (test run) : 7484F30F
CRC32 hash : 7484F30F
CRC32 hash (skip zero) : 3B272B64
AccurateRip v1 signature : E7DC7A60
AccurateRip v2 signature : EDE7D618
->Track not present in AccurateRip database.
Statistics
Read error : 0
Jitter error (maybe fixed) : 0
Retry sector count : 0
Damaged sector count : 0

Track 06
Filename : /Users/Bea/Downloads/Fairport Convention – Who Knows Where The Time Goes? (2017) [FLAC]/06 Fotheringay.flac

Track gain : -2.06 dB
Peak : 0.999908
CRC32 hash (test run) : D8BAE71A
CRC32 hash : D8BAE71A
CRC32 hash (skip zero) : E80A9463
AccurateRip v1 signature : 17C2EC89
AccurateRip v2 signature : 0750D14E
->Track not present in AccurateRip database.
Statistics
Read error : 0
Jitter error (maybe fixed) : 0
Retry sector count : 0
Damaged sector count : 0

Track 07
Filename : /Users/Bea/Downloads/Fairport Convention – Who Knows Where The Time Goes? (2017) [FLAC]/07 She Moves Through The Fair.flac

Track gain : -4.22 dB
Peak : 0.999878
CRC32 hash (test run) : 9A284DD2
CRC32 hash : 9A284DD2
CRC32 hash (skip zero) : DE2546BF
AccurateRip v1 signature : 44825074
AccurateRip v2 signature : A5D56AAD
->Track not present in AccurateRip database.
Statistics
Read error : 0
Jitter error (maybe fixed) : 0
Retry sector count : 0
Damaged sector count : 0

Track 08
Filename : /Users/Bea/Downloads/Fairport Convention – Who Knows Where The Time Goes? (2017) [FLAC]/08 Meet On The Ledge.flac

Track gain : -2.67 dB
Peak : 0.999908
CRC32 hash (test run) : F110537D
CRC32 hash : F110537D
CRC32 hash (skip zero) : E781CE92
AccurateRip v1 signature : A46E226D
AccurateRip v2 signature : 5DBD7D3A
->Track not present in AccurateRip database.
Statistics
Read error : 0
Jitter error (maybe fixed) : 0
Retry sector count : 0
Damaged sector count : 0

Track 09
Filename : /Users/Bea/Downloads/Fairport Convention – Who Knows Where The Time Goes? (2017) [FLAC]/09 Nottamun Town.flac

Track gain : -0.03 dB
Peak : 0.999908
CRC32 hash (test run) : B6526CF0
CRC32 hash : B6526CF0
CRC32 hash (skip zero) : FA3158D0
AccurateRip v1 signature : 5227055F
AccurateRip v2 signature : 3BC0DCB9
->Track not present in AccurateRip database.
Statistics
Read error : 0
Jitter error (maybe fixed) : 0
Retry sector count : 0
Damaged sector count : 0

Track 10
Filename : /Users/Bea/Downloads/Fairport Convention – Who Knows Where The Time Goes? (2017) [FLAC]/10 Genesis Hall.flac

Track gain : -4.25 dB
Peak : 0.999908
CRC32 hash (test run) : 9FD1EC8B
CRC32 hash : 9FD1EC8B
CRC32 hash (skip zero) : A30A2824
AccurateRip v1 signature : 6005DFA0
AccurateRip v2 signature : 84B62B5F
->Track not present in AccurateRip database.
Statistics
Read error : 0
Jitter error (maybe fixed) : 0
Retry sector count : 0
Damaged sector count : 0

Track 11
Filename : /Users/Bea/Downloads/Fairport Convention – Who Knows Where The Time Goes? (2017) [FLAC]/11 Si tu dois partir.flac

Track gain : -2.86 dB
Peak : 0.999908
CRC32 hash (test run) : 45427FCD
CRC32 hash : 45427FCD
CRC32 hash (skip zero) : 02368AEA
AccurateRip v1 signature : 63A2C668
AccurateRip v2 signature : 86462295
->Track not present in AccurateRip database.
Statistics
Read error : 0
Jitter error (maybe fixed) : 0
Retry sector count : 0
Damaged sector count : 0

Track 12
Filename : /Users/Bea/Downloads/Fairport Convention – Who Knows Where The Time Goes? (2017) [FLAC]/12 Who Knows Where The Time Goes?.flac

Track gain : -1.61 dB
Peak : 0.999908
CRC32 hash (test run) : 437265AD
CRC32 hash : 437265AD
CRC32 hash (skip zero) : 702623A8
AccurateRip v1 signature : D8ECD6AF
AccurateRip v2 signature : 2E83B818
->Track not present in AccurateRip database.
Statistics
Read error : 0
Jitter error (maybe fixed) : 0
Retry sector count : 0
Damaged sector count : 0

Track 13
Filename : /Users/Bea/Downloads/Fairport Convention – Who Knows Where The Time Goes? (2017) [FLAC]/13 The Ballad Of Easy Rider.flac

Track gain : -3.27 dB
Peak : 0.999878
CRC32 hash (test run) : 010DD08A
CRC32 hash : 010DD08A
CRC32 hash (skip zero) : 7074ABA4
AccurateRip v1 signature : 69748D39
AccurateRip v2 signature : 0972DBF4
->Track not present in AccurateRip database.
Statistics
Read error : 0
Jitter error (maybe fixed) : 0
Retry sector count : 0
Damaged sector count : 0

Track 14
Filename : /Users/Bea/Downloads/Fairport Convention – Who Knows Where The Time Goes? (2017) [FLAC]/14 Come All Ye.flac

Track gain : -3.73 dB
Peak : 0.999878
CRC32 hash (test run) : 42BEE716
CRC32 hash : 42BEE716
CRC32 hash (skip zero) : 44B77556
AccurateRip v1 signature : 40FDB2CB
AccurateRip v2 signature : B49F2C04
->Track not present in AccurateRip database.
Statistics
Read error : 0
Jitter error (maybe fixed) : 0
Retry sector count : 0
Damaged sector count : 0

Track 15
Filename : /Users/Bea/Downloads/Fairport Convention – Who Knows Where The Time Goes? (2017) [FLAC]/15 Matty Groves.flac

Track gain : -2.23 dB
Peak : 0.999908
CRC32 hash (test run) : 08BE5759
CRC32 hash : 08BE5759
CRC32 hash (skip zero) : CB05B926
AccurateRip v1 signature : 6BD9B16D
AccurateRip v2 signature : C680FD00
->Track not present in AccurateRip database.
Statistics
Read error : 0
Jitter error (maybe fixed) : 0
Retry sector count : 0
Damaged sector count : 0

Track 16
Filename : /Users/Bea/Downloads/Fairport Convention – Who Knows Where The Time Goes? (2017) [FLAC]/16 Farewell, Farewell.flac

Track gain : -2.80 dB
Peak : 0.999908
CRC32 hash (test run) : DEB6EC28
CRC32 hash : DEB6EC28
CRC32 hash (skip zero) : AE2C0D8E
AccurateRip v1 signature : E0717220
AccurateRip v2 signature : 0F190580
->Track not present in AccurateRip database.
Statistics
Read error : 0
Jitter error (maybe fixed) : 0
Retry sector count : 0
Damaged sector count : 0

Track 17
Filename : /Users/Bea/Downloads/Fairport Convention – Who Knows Where The Time Goes? (2017) [FLAC]/17 Quiet Joys Of Brotherhood (Take 1).flac

Track gain : -1.49 dB
Peak : 0.999908
CRC32 hash (test run) : ED64F66B
CRC32 hash : ED64F66B
CRC32 hash (skip zero) : B05170F6
AccurateRip v1 signature : 533939E3
AccurateRip v2 signature : 8024818E
->Track not present in AccurateRip database.
Statistics
Read error : 0
Jitter error (maybe fixed) : 0
Retry sector count : 0
Damaged sector count : 0

No errors occurred

End of status report

––-BEGIN XLD SIGNATURE––-
CJ.k6KJLk3HiQWs0KSyqcv_zcolErlZhonX43QpC3IXLrZXUqKjtCNXiOdQ71q6SLh1J4kMgrltvQ1A5sd4N9gvl3m_.DjsO6zhA.MC
––-END XLD SIGNATURE––-

Disc 2
1. Fairport Convention – Doctor Of Physick [03:32]
2. Fairport Convention – Sir Patrick Spens [03:28]
3. Fairport Convention – Flowers Of The Forest [03:58]
4. Fairport Convention – Banks Of The Sweet Primroses [Live At The L.A. Troubadour – 1986 Mix][04:36]
5. Fairport Convention – The Lark In The Morning [Live At The L.A. Troubadour – 1986 Mix][03:51]
6. Fairport Convention – Sloth [Live At The L.A. Troubadour – 1986 Mix][12:16]
7. Fairport Convention – Lord Marlborough [03:21]
8. Fairport Convention – The Journeyman’s Grace [04:30]
9. Fairport Convention – Angel Delight [04:04]
10. Fairport Convention – St Ninian’s Isle; Trumpet Hornpipe[01:13]
11. Fairport Convention – Sailor’s Alphabet [05:50]
12. Fairport Convention – John Lee [03:01]
13. Fairport Convention – Breakfast In Mayfair [03:06]
14. Fairport Convention – The Hexhamshire Lass [02:30]
15. Fairport Convention – The Brilliancy Medley & Cherokee Shuffle[03:54]
16. Fairport Convention – Possibly Parsons Green [04:43]

XLD Log
X Lossless Decoder version 20160920 (149.2)

XLD extraction logfile from 2017-07-10 14:53:20 +0200

Fairport Convention / Who Knows Where The Time Goes?

Used drive : HL-DT-ST DVDRW GX40N (revision RQ00)
Media type : Pressed CD

Ripper mode : XLD Secure Ripper
Disable audio cache : OK for the drive with a cache less than 1375KiB
Make use of C2 pointers : NO
Read offset correction : 6
Max retry count : 20
Gap status : Analyzed, Appended (except HTOA)

TOC of the extracted CD
Track | Start | Length | Start sector | End sector
––––––––––––––––––––––––––––-
1 | 00:00:00 | 03:32:66 | 0 | 15965
2 | 03:32:66 | 03:28:73 | 15966 | 31638
3 | 07:01:64 | 03:58:09 | 31639 | 49497
4 | 10:59:73 | 04:36:09 | 49498 | 70206
5 | 15:36:07 | 03:51:67 | 70207 | 87598
6 | 19:27:74 | 12:16:51 | 87599 | 142849
7 | 31:44:50 | 03:21:72 | 142850 | 157996
8 | 35:06:47 | 04:30:00 | 157997 | 178246
9 | 39:36:47 | 04:04:67 | 178247 | 196613
10 | 43:41:39 | 01:13:74 | 196614 | 202162
11 | 44:55:38 | 05:50:23 | 202163 | 228435
12 | 50:45:61 | 03:01:00 | 228436 | 242010
13 | 53:46:61 | 03:06:00 | 242011 | 255960
14 | 56:52:61 | 02:30:00 | 255961 | 267210
15 | 59:22:61 | 03:54:71 | 267211 | 284831
16 | 63:17:57 | 04:43:11 | 284832 | 306067

AccurateRip Summary
Disc not found in AccurateRip DB.

All Tracks
Album gain : -4.81 dB
Peak : 0.999908
Statistics
Read error : 0
Jitter error (maybe fixed) : 0
Retry sector count : 0
Damaged sector count : 0

Track 01
Filename : /Users/Bea/Downloads/Fairport Convention – Who Knows Where The Time Goes (2017) [FLAC]/Fairport Convention – Who Knows Where The Time Goes? (2017) [FLAC]/01 Doctor Of Physick.flac
Pre-gap length : 00:02:00

Track gain : -6.26 dB
Peak : 0.999878
CRC32 hash (test run) : E7D45D27
CRC32 hash : E7D45D27
CRC32 hash (skip zero) : 1ED2268C
AccurateRip v1 signature : 1C283E13
AccurateRip v2 signature : 1445ED35
->Track not present in AccurateRip database.
Statistics
Read error : 0
Jitter error (maybe fixed) : 0
Retry sector count : 0
Damaged sector count : 0

Track 02
Filename : /Users/Bea/Downloads/Fairport Convention – Who Knows Where The Time Goes (2017) [FLAC]/Fairport Convention – Who Knows Where The Time Goes? (2017) [FLAC]/02 Sir Patrick Spens.flac

Track gain : -5.52 dB
Peak : 0.999878
CRC32 hash (test run) : 4C608980
CRC32 hash : 4C608980
CRC32 hash (skip zero) : EDE68659
AccurateRip v1 signature : 7BA25726
AccurateRip v2 signature : 37543F85
->Track not present in AccurateRip database.
Statistics
Read error : 0
Jitter error (maybe fixed) : 0
Retry sector count : 0
Damaged sector count : 0

Track 03
Filename : /Users/Bea/Downloads/Fairport Convention – Who Knows Where The Time Goes (2017) [FLAC]/Fairport Convention – Who Knows Where The Time Goes? (2017) [FLAC]/03 Flowers Of The Forest.flac

Track gain : -3.89 dB
Peak : 0.999878
CRC32 hash (test run) : 9D0AD010
CRC32 hash : 9D0AD010
CRC32 hash (skip zero) : EBD845D1
AccurateRip v1 signature : A300681C
AccurateRip v2 signature : 1FCE39CF
->Track not present in AccurateRip database.
Statistics
Read error : 0
Jitter error (maybe fixed) : 0
Retry sector count : 0
Damaged sector count : 0

Track 04
Filename : /Users/Bea/Downloads/Fairport Convention – Who Knows Where The Time Goes (2017) [FLAC]/Fairport Convention – Who Knows Where The Time Goes? (2017) [FLAC]/04 Banks Of Sweet Primroses (Live / 1986 Mix).flac

Track gain : -2.65 dB
Peak : 0.999878
CRC32 hash (test run) : 93E9372F
CRC32 hash : 93E9372F
CRC32 hash (skip zero) : 15D7EB83
AccurateRip v1 signature : 3EC4239F
AccurateRip v2 signature : B40E7243
->Track not present in AccurateRip database.
Statistics
Read error : 0
Jitter error (maybe fixed) : 0
Retry sector count : 0
Damaged sector count : 0

Track 05
Filename : /Users/Bea/Downloads/Fairport Convention – Who Knows Where The Time Goes (2017) [FLAC]/Fairport Convention – Who Knows Where The Time Goes? (2017) [FLAC]/05 The Lark In The Morning Medley (Live / 1986 Mix).flac

Track gain : -5.42 dB
Peak : 0.999878
CRC32 hash (test run) : 8C8CE7A2
CRC32 hash : 8C8CE7A2
CRC32 hash (skip zero) : B4C14785
AccurateRip v1 signature : EA4C209B
AccurateRip v2 signature : FBE3C30B
->Track not present in AccurateRip database.
Statistics
Read error : 0
Jitter error (maybe fixed) : 0
Retry sector count : 0
Damaged sector count : 0

Track 06
Filename : /Users/Bea/Downloads/Fairport Convention – Who Knows Where The Time Goes (2017) [FLAC]/Fairport Convention – Who Knows Where The Time Goes? (2017) [FLAC]/06 Sloth (Live / 1986 Mix).flac

Track gain : -5.62 dB
Peak : 0.999878
CRC32 hash (test run) : B4F7F1D6
CRC32 hash : B4F7F1D6
CRC32 hash (skip zero) : 6DCAD0C3
AccurateRip v1 signature : 7D23601C
AccurateRip v2 signature : 821391F2
->Track not present in AccurateRip database.
Statistics
Read error : 0
Jitter error (maybe fixed) : 0
Retry sector count : 0
Damaged sector count : 0

Track 07
Filename : /Users/Bea/Downloads/Fairport Convention – Who Knows Where The Time Goes (2017) [FLAC]/Fairport Convention – Who Knows Where The Time Goes? (2017) [FLAC]/07 Lord Marlborough.flac

Track gain : -5.02 dB
Peak : 0.999908
CRC32 hash (test run) : E673AC2E
CRC32 hash : E673AC2E
CRC32 hash (skip zero) : B7D9E4E3
AccurateRip v1 signature : 5CE8F815
AccurateRip v2 signature : 40A6CB2E
->Track not present in AccurateRip database.
Statistics
Read error : 0
Jitter error (maybe fixed) : 0
Retry sector count : 0
Damaged sector count : 0

Track 08
Filename : /Users/Bea/Downloads/Fairport Convention – Who Knows Where The Time Goes (2017) [FLAC]/Fairport Convention – Who Knows Where The Time Goes? (2017) [FLAC]/08 The Journeyman’s Grace.flac

Track gain : -4.28 dB
Peak : 0.999908
CRC32 hash (test run) : F9FE9D97
CRC32 hash : F9FE9D97
CRC32 hash (skip zero) : D5B6C882
AccurateRip v1 signature : 3C04D7E1
AccurateRip v2 signature : 2705E22B
->Track not present in AccurateRip database.
Statistics
Read error : 0
Jitter error (maybe fixed) : 0
Retry sector count : 0
Damaged sector count : 0

Track 09
Filename : /Users/Bea/Downloads/Fairport Convention – Who Knows Where The Time Goes (2017) [FLAC]/Fairport Convention – Who Knows Where The Time Goes? (2017) [FLAC]/09 Angel Delight.flac

Track gain : -2.03 dB
Peak : 0.999878
CRC32 hash (test run) : 1D25B46C
CRC32 hash : 1D25B46C
CRC32 hash (skip zero) : E1DB6E90
AccurateRip v1 signature : A63486E4
AccurateRip v2 signature : CADF4A6A
->Track not present in AccurateRip database.
Statistics
Read error : 0
Jitter error (maybe fixed) : 0
Retry sector count : 0
Damaged sector count : 0

Track 10
Filename : /Users/Bea/Downloads/Fairport Convention – Who Knows Where The Time Goes (2017) [FLAC]/Fairport Convention – Who Knows Where The Time Goes? (2017) [FLAC]/10 St Ninian’s Isle/Trumpet Hornpipe.flac

Track gain : -2.35 dB
Peak : 0.999908
CRC32 hash (test run) : 2A262CAA
CRC32 hash : 2A262CAA
CRC32 hash (skip zero) : 82DEC1EA
AccurateRip v1 signature : A765B47C
AccurateRip v2 signature : 05437CCE
->Track not present in AccurateRip database.
Statistics
Read error : 0
Jitter error (maybe fixed) : 0
Retry sector count : 0
Damaged sector count : 0

Track 11
Filename : /Users/Bea/Downloads/Fairport Convention – Who Knows Where The Time Goes (2017) [FLAC]/Fairport Convention – Who Knows Where The Time Goes? (2017) [FLAC]/11 Sailor’s Alphabet.flac

Track gain : -4.91 dB
Peak : 0.999908
CRC32 hash (test run) : 52E1A9CC
CRC32 hash : 52E1A9CC
CRC32 hash (skip zero) : 882DD1AC
AccurateRip v1 signature : 1E268482
AccurateRip v2 signature : 884060A2
->Track not present in AccurateRip database.
Statistics
Read error : 0
Jitter error (maybe fixed) : 0
Retry sector count : 0
Damaged sector count : 0

Track 12
Filename : /Users/Bea/Downloads/Fairport Convention – Who Knows Where The Time Goes (2017) [FLAC]/Fairport Convention – Who Knows Where The Time Goes? (2017) [FLAC]/12 John Lee.flac

Track gain : -1.69 dB
Peak : 0.999908
CRC32 hash (test run) : CC8EAFD4
CRC32 hash : CC8EAFD4
CRC32 hash (skip zero) : 09888F13
AccurateRip v1 signature : 07C7F988
AccurateRip v2 signature : B99FA9C1
->Track not present in AccurateRip database.
Statistics
Read error : 0
Jitter error (maybe fixed) : 0
Retry sector count : 0
Damaged sector count : 0

Track 13
Filename : /Users/Bea/Downloads/Fairport Convention – Who Knows Where The Time Goes (2017) [FLAC]/Fairport Convention – Who Knows Where The Time Goes? (2017) [FLAC]/13 Breakfast In Mayfair.flac

Track gain : -0.62 dB
Peak : 0.999878
CRC32 hash (test run) : B8AF3E6D
CRC32 hash : B8AF3E6D
CRC32 hash (skip zero) : C100324E
AccurateRip v1 signature : 18C7CCE2
AccurateRip v2 signature : FBB82957
->Track not present in AccurateRip database.
Statistics
Read error : 0
Jitter error (maybe fixed) : 0
Retry sector count : 0
Damaged sector count : 0

Track 14
Filename : /Users/Bea/Downloads/Fairport Convention – Who Knows Where The Time Goes (2017) [FLAC]/Fairport Convention – Who Knows Where The Time Goes? (2017) [FLAC]/14 The Hexhamshire Lass.flac

Track gain : -4.86 dB
Peak : 0.999908
CRC32 hash (test run) : F7F25987
CRC32 hash : F7F25987
CRC32 hash (skip zero) : F9E371A5
AccurateRip v1 signature : C9C4C55D
AccurateRip v2 signature : D7EC9785
->Track not present in AccurateRip database.
Statistics
Read error : 0
Jitter error (maybe fixed) : 0
Retry sector count : 0
Damaged sector count : 0

Track 15
Filename : /Users/Bea/Downloads/Fairport Convention – Who Knows Where The Time Goes (2017) [FLAC]/Fairport Convention – Who Knows Where The Time Goes? (2017) [FLAC]/15 The Brilliancy Medley & Cherokee Shuffle.flac

Track gain : -3.34 dB
Peak : 0.999908
CRC32 hash (test run) : 6813BDBD
CRC32 hash : 6813BDBD
CRC32 hash (skip zero) : CBE3A04B
AccurateRip v1 signature : 08D7BF72
AccurateRip v2 signature : 8D032279
->Track not present in AccurateRip database.
Statistics
Read error : 0
Jitter error (maybe fixed) : 0
Retry sector count : 0
Damaged sector count : 0

Track 16
Filename : /Users/Bea/Downloads/Fairport Convention – Who Knows Where The Time Goes (2017) [FLAC]/Fairport Convention – Who Knows Where The Time Goes? (2017) [FLAC]/16 Possibly Parsons Green.flac

Track gain : -2.55 dB
Peak : 0.999908
CRC32 hash (test run) : 08D15F33
CRC32 hash : 08D15F33
CRC32 hash (skip zero) : A8CA6D88
AccurateRip v1 signature : A81125BA
AccurateRip v2 signature : BCDCDDF8
->Track not present in AccurateRip database.
Statistics
Read error : 0
Jitter error (maybe fixed) : 0
Retry sector count : 0
Damaged sector count : 0

No errors occurred

End of status report

––-BEGIN XLD SIGNATURE––-
WVjc4MX41Ga75CGfJfX0mPZZnHCrrWYAIVoyz3eGBhapeiamBuTewX.0QTrGM0ozSv63qdedTjfFjJ54NkfQakQFeRg44fHQiUbwbDi
––-END XLD SIGNATURE––-

Disc 3
1. Fairport Convention – Rosie [03:38]
2. Fairport Convention – Matthew, Mark, Luke And John [03:54]
3. Fairport Convention – The Plainsman [03:18]
4. Fairport Convention – The Hens March Through The Midden & The Four Poster Bed[02:49]
5. Fairport Convention – John The Gun [Live From Sydney Opera House – 1974][05:09]
6. Fairport Convention – Dirty Linen [Live From Sydney Opera House – 1974][03:53]
7. Fairport Convention – That’ll Be The Day [Live From Sydney Opera House – 1974][03:19]
8. Fairport Convention – Rising For The Moon [04:06]
9. Fairport Convention – White Dress [03:43]
10. Fairport Convention – After Halloween [03:38]
11. Fairport Convention – When First Into This Country [02:29]
12. Fairport Convention – Cropredy Capers [03:08]
13. Fairport Convention – Sandy’s Song (A.K.A. Take Away The Load)[03:34]
14. Fairport Convention – Angles Brown [04:00]
15. Fairport Convention – Jack O’Rion Medley – Turnabout; Miss Stevenson’s etc[10:55]
16. Fairport Convention – Reynard The Fox [02:58]
17. Fairport Convention – John Barleycorn [04:46]
18. Fairport Convention – Adieu Adieu [02:28]
19. Fairport Convention – The Last Waltz [03:04]

XLD
X Lossless Decoder version 20160920 (149.2)

XLD extraction logfile from 2017-07-10 15:25:38 +0200

Fairport Convention / Who Knows Where The Time Goes?

Used drive : HL-DT-ST DVDRW GX40N (revision RQ00)
Media type : Pressed CD

Ripper mode : XLD Secure Ripper
Disable audio cache : OK for the drive with a cache less than 1375KiB
Make use of C2 pointers : NO
Read offset correction : 6
Max retry count : 20
Gap status : Analyzed, Appended (except HTOA)

TOC of the extracted CD
Track | Start | Length | Start sector | End sector
––––––––––––––––––––––––––––-
1 | 00:00:00 | 03:38:25 | 0 | 16374
2 | 03:38:25 | 03:54:43 | 16375 | 33967
3 | 07:32:68 | 03:18:22 | 33968 | 48839
4 | 10:51:15 | 02:49:15 | 48840 | 61529
5 | 13:40:30 | 05:09:20 | 61530 | 84724
6 | 18:49:50 | 03:53:40 | 84725 | 102239
7 | 22:43:15 | 03:19:00 | 102240 | 117164
8 | 26:02:15 | 04:06:29 | 117165 | 135643
9 | 30:08:44 | 03:43:35 | 135644 | 152403
10 | 33:52:04 | 03:38:00 | 152404 | 168753
11 | 37:30:04 | 02:29:32 | 168754 | 179960
12 | 39:59:36 | 03:08:07 | 179961 | 194067
13 | 43:07:43 | 03:34:68 | 194068 | 210185
14 | 46:42:36 | 04:00:00 | 210186 | 228185
15 | 50:42:36 | 10:55:74 | 228186 | 277384
16 | 61:38:35 | 02:58:74 | 277385 | 290808
17 | 64:37:34 | 04:46:00 | 290809 | 312258
18 | 69:23:34 | 02:28:64 | 312259 | 323422
19 | 71:52:23 | 03:04:11 | 323423 | 337233

AccurateRip Summary
Disc not found in AccurateRip DB.

All Tracks
Album gain : -6.14 dB
Peak : 0.999908
Statistics
Read error : 0
Jitter error (maybe fixed) : 0
Retry sector count : 0
Damaged sector count : 0

Track 01
Filename : /Users/Bea/Downloads/Fairport Convention – Who Knows Where The Time Goes (2017) [FLAC]/Fairport Convention – Who Knows Where The Time Goes? (2017) [FLAC]/01 Rosie.flac
Pre-gap length : 00:02:00

Track gain : -1.34 dB
Peak : 0.999878
CRC32 hash (test run) : 56897118
CRC32 hash : 56897118
CRC32 hash (skip zero) : 76DEA79D
AccurateRip v1 signature : 48BEF024
AccurateRip v2 signature : 4FD6666D
->Track not present in AccurateRip database.
Statistics
Read error : 0
Jitter error (maybe fixed) : 0
Retry sector count : 0
Damaged sector count : 0

Track 02
Filename : /Users/Bea/Downloads/Fairport Convention – Who Knows Where The Time Goes (2017) [FLAC]/Fairport Convention – Who Knows Where The Time Goes? (2017) [FLAC]/02 Matthew, Mark, Luke And John.flac

Track gain : -1.47 dB
Peak : 0.999908
CRC32 hash (test run) : 11DB3E55
CRC32 hash : 11DB3E55
CRC32 hash (skip zero) : FB09CD07
AccurateRip v1 signature : 3D3D9632
AccurateRip v2 signature : 66828022
->Track not present in AccurateRip database.
Statistics
Read error : 0
Jitter error (maybe fixed) : 0
Retry sector count : 0
Damaged sector count : 0

Track 03
Filename : /Users/Bea/Downloads/Fairport Convention – Who Knows Where The Time Goes (2017) [FLAC]/Fairport Convention – Who Knows Where The Time Goes? (2017) [FLAC]/03 The Plainsman.flac

Track gain : -2.70 dB
Peak : 0.999908
CRC32 hash (test run) : 332BA0F0
CRC32 hash : 332BA0F0
CRC32 hash (skip zero) : 066D0223
AccurateRip v1 signature : 41E0ACF0
AccurateRip v2 signature : FFCAEF72
->Track not present in AccurateRip database.
Statistics
Read error : 0
Jitter error (maybe fixed) : 0
Retry sector count : 0
Damaged sector count : 0

Track 04
Filename : /Users/Bea/Downloads/Fairport Convention – Who Knows Where The Time Goes (2017) [FLAC]/Fairport Convention – Who Knows Where The Time Goes? (2017) [FLAC]/04 The Hens March Through The Midden & The Four Poster Bed.flac

Track gain : -1.34 dB
Peak : 0.999908
CRC32 hash (test run) : 656F752A
CRC32 hash : 656F752A
CRC32 hash (skip zero) : 8083238C
AccurateRip v1 signature : 029F6C72
AccurateRip v2 signature : 378FD7B3
->Track not present in AccurateRip database.
Statistics
Read error : 0
Jitter error (maybe fixed) : 0
Retry sector count : 0
Damaged sector count : 0

Track 05
Filename : /Users/Bea/Downloads/Fairport Convention – Who Knows Where The Time Goes (2017) [FLAC]/Fairport Convention – Who Knows Where The Time Goes? (2017) [FLAC]/05 John The Gun (Live).flac

Track gain : -3.72 dB
Peak : 0.999878
CRC32 hash (test run) : 9ECA3FB1
CRC32 hash : 9ECA3FB1
CRC32 hash (skip zero) : 3134ED6A
AccurateRip v1 signature : 4114EC20
AccurateRip v2 signature : B7F12906
->Track not present in AccurateRip database.
Statistics
Read error : 0
Jitter error (maybe fixed) : 0
Retry sector count : 0
Damaged sector count : 0

Track 06
Filename : /Users/Bea/Downloads/Fairport Convention – Who Knows Where The Time Goes (2017) [FLAC]/Fairport Convention – Who Knows Where The Time Goes? (2017) [FLAC]/06 Dirty Linen (Live).flac

Track gain : -2.23 dB
Peak : 0.999908
CRC32 hash (test run) : 2B237634
CRC32 hash : 2B237634
CRC32 hash (skip zero) : 009A2C26
AccurateRip v1 signature : 534ADD1B
AccurateRip v2 signature : 3018FBA2
->Track not present in AccurateRip database.
Statistics
Read error : 0
Jitter error (maybe fixed) : 0
Retry sector count : 0
Damaged sector count : 0

Track 07
Filename : /Users/Bea/Downloads/Fairport Convention – Who Knows Where The Time Goes (2017) [FLAC]/Fairport Convention – Who Knows Where The Time Goes? (2017) [FLAC]/07 That’ll Be The Day (Live).flac

Track gain : -7.59 dB
Peak : 0.999908
CRC32 hash (test run) : 96164DB4
CRC32 hash : 96164DB4
CRC32 hash (skip zero) : BB85109B
AccurateRip v1 signature : 1EBDA631
AccurateRip v2 signature : AA0CD310
->Track not present in AccurateRip database.
Statistics
Read error : 0
Jitter error (maybe fixed) : 0
Retry sector count : 0
Damaged sector count : 0

Track 08
Filename : /Users/Bea/Downloads/Fairport Convention – Who Knows Where The Time Goes (2017) [FLAC]/Fairport Convention – Who Knows Where The Time Goes? (2017) [FLAC]/08 Rising For The Moon.flac

Track gain : -4.44 dB
Peak : 0.999878
CRC32 hash (test run) : 4AEE132E
CRC32 hash : 4AEE132E
CRC32 hash (skip zero) : 1DFCFD9E
AccurateRip v1 signature : 902DFDFA
AccurateRip v2 signature : 3EEEA51D
->Track not present in AccurateRip database.
Statistics
Read error : 0
Jitter error (maybe fixed) : 0
Retry sector count : 0
Damaged sector count : 0

Track 09
Filename : /Users/Bea/Downloads/Fairport Convention – Who Knows Where The Time Goes (2017) [FLAC]/Fairport Convention – Who Knows Where The Time Goes? (2017) [FLAC]/09 White Dress.flac

Track gain : -3.80 dB
Peak : 0.999878
CRC32 hash (test run) : D256FA36
CRC32 hash : D256FA36
CRC32 hash (skip zero) : E56217B5
AccurateRip v1 signature : A3CB522B
AccurateRip v2 signature : 12340737
->Track not present in AccurateRip database.
Statistics
Read error : 0
Jitter error (maybe fixed) : 0
Retry sector count : 0
Damaged sector count : 0

Track 10
Filename : /Users/Bea/Downloads/Fairport Convention – Who Knows Where The Time Goes (2017) [FLAC]/Fairport Convention – Who Knows Where The Time Goes? (2017) [FLAC]/10 After Halloween.flac

Track gain : -3.54 dB
Peak : 0.999878
CRC32 hash (test run) : AD35B787
CRC32 hash : AD35B787
CRC32 hash (skip zero) : 01E58993
AccurateRip v1 signature : 8B46D2FB
AccurateRip v2 signature : CAD7D022
->Track not present in AccurateRip database.
Statistics
Read error : 0
Jitter error (maybe fixed) : 0
Retry sector count : 0
Damaged sector count : 0

Track 11
Filename : /Users/Bea/Downloads/Fairport Convention – Who Knows Where The Time Goes (2017) [FLAC]/Fairport Convention – Who Knows Where The Time Goes? (2017) [FLAC]/11 When First Into This Country.flac

Track gain : -10.46 dB
Peak : 0.999908
CRC32 hash (test run) : 733A6CBC
CRC32 hash : 733A6CBC
CRC32 hash (skip zero) : 83378B55
AccurateRip v1 signature : B55FD0FF
AccurateRip v2 signature : 6532802A
->Track not present in AccurateRip database.
Statistics
Read error : 0
Jitter error (maybe fixed) : 0
Retry sector count : 0
Damaged sector count : 0

Track 12
Filename : /Users/Bea/Downloads/Fairport Convention – Who Knows Where The Time Goes (2017) [FLAC]/Fairport Convention – Who Knows Where The Time Goes? (2017) [FLAC]/12 Cropredy Capers.flac

Track gain : -5.10 dB
Peak : 0.999908
CRC32 hash (test run) : 72074752
CRC32 hash : 72074752
CRC32 hash (skip zero) : BE5C4027
AccurateRip v1 signature : 50AB93F1
AccurateRip v2 signature : 27FB805C
->Track not present in AccurateRip database.
Statistics
Read error : 0
Jitter error (maybe fixed) : 0
Retry sector count : 0
Damaged sector count : 0

Track 13
Filename : /Users/Bea/Downloads/Fairport Convention – Who Knows Where The Time Goes (2017) [FLAC]/Fairport Convention – Who Knows Where The Time Goes? (2017) [FLAC]/13 Sandy’s Song (A.K.A. Take Away The Load).flac

Track gain : -5.87 dB
Peak : 0.999908
CRC32 hash (test run) : B507D669
CRC32 hash : B507D669
CRC32 hash (skip zero) : 83AF01FD
AccurateRip v1 signature : FF432EC5
AccurateRip v2 signature : 52DB18D7
->Track not present in AccurateRip database.
Statistics
Read error : 0
Jitter error (maybe fixed) : 0
Retry sector count : 0
Damaged sector count : 0

Track 14
Filename : /Users/Bea/Downloads/Fairport Convention – Who Knows Where The Time Goes (2017) [FLAC]/Fairport Convention – Who Knows Where The Time Goes? (2017) [FLAC]/14 Angles Brown.flac

Track gain : -7.45 dB
Peak : 0.999908
CRC32 hash (test run) : 0EA5340A
CRC32 hash : 0EA5340A
CRC32 hash (skip zero) : C251FA33
AccurateRip v1 signature : D51BCCDD
AccurateRip v2 signature : F4793C88
->Track not present in AccurateRip database.
Statistics
Read error : 0
Jitter error (maybe fixed) : 0
Retry sector count : 0
Damaged sector count : 0

Track 15
Filename : /Users/Bea/Downloads/Fairport Convention – Who Knows Where The Time Goes (2017) [FLAC]/Fairport Convention – Who Knows Where The Time Goes? (2017) [FLAC]/15 Jack O’Rion.flac

Track gain : -6.45 dB
Peak : 0.999908
CRC32 hash (test run) : 82805E6F
CRC32 hash : 82805E6F
CRC32 hash (skip zero) : 6861D3D4
AccurateRip v1 signature : 29A56CCB
AccurateRip v2 signature : 5CCA79B7
->Track not present in AccurateRip database.
Statistics
Read error : 0
Jitter error (maybe fixed) : 0
Retry sector count : 0
Damaged sector count : 0

Track 16
Filename : /Users/Bea/Downloads/Fairport Convention – Who Knows Where The Time Goes (2017) [FLAC]/Fairport Convention – Who Knows Where The Time Goes? (2017) [FLAC]/16 Reynard The Fox.flac

Track gain : -6.05 dB
Peak : 0.999908
CRC32 hash (test run) : 7699D638
CRC32 hash : 7699D638
CRC32 hash (skip zero) : 9FE38896
AccurateRip v1 signature : A51010EE
AccurateRip v2 signature : 1FF23D21
->Track not present in AccurateRip database.
Statistics
Read error : 0
Jitter error (maybe fixed) : 0
Retry sector count : 0
Damaged sector count : 0

Track 17
Filename : /Users/Bea/Downloads/Fairport Convention – Who Knows Where The Time Goes (2017) [FLAC]/Fairport Convention – Who Knows Where The Time Goes? (2017) [FLAC]/17 John Barleycorn.flac

Track gain : -7.33 dB
Peak : 0.999908
CRC32 hash (test run) : 37CF38FD
CRC32 hash : 37CF38FD
CRC32 hash (skip zero) : F0DDABC3
AccurateRip v1 signature : 5DBC7B55
AccurateRip v2 signature : 961C36B8
->Track not present in AccurateRip database.
Statistics
Read error : 0
Jitter error (maybe fixed) : 0
Retry sector count : 0
Damaged sector count : 0

Track 18
Filename : /Users/Bea/Downloads/Fairport Convention – Who Knows Where The Time Goes (2017) [FLAC]/Fairport Convention – Who Knows Where The Time Goes? (2017) [FLAC]/18 Adieu Adieu.flac

Track gain : -3.53 dB
Peak : 0.999908
CRC32 hash (test run) : BFBE191D
CRC32 hash : BFBE191D
CRC32 hash (skip zero) : 4AF879A1
AccurateRip v1 signature : 911A4330
AccurateRip v2 signature : AAE855FE
->Track not present in AccurateRip database.
Statistics
Read error : 0
Jitter error (maybe fixed) : 0
Retry sector count : 0
Damaged sector count : 0

Track 19
Filename : /Users/Bea/Downloads/Fairport Convention – Who Knows Where The Time Goes (2017) [FLAC]/Fairport Convention – Who Knows Where The Time Goes? (2017) [FLAC]/19 The Last Waltz.flac

Track gain : -3.86 dB
Peak : 0.999878
CRC32 hash (test run) : E4E9C76D
CRC32 hash : E4E9C76D
CRC32 hash (skip zero) : D5E1A04D
AccurateRip v1 signature : 97B2A1DD
AccurateRip v2 signature : 0592CC68
->Track not present in AccurateRip database.
Statistics
Read error : 0
Jitter error (maybe fixed) : 0
Retry sector count : 0
Damaged sector count : 0

No errors occurred

End of status report

––-BEGIN XLD SIGNATURE––-
_RbVragRS7pb.pIVDv_hYg52XCYWxZUEOgOVL2nr2m33_Evd5hgsJbvv9sJgUmOMBEnnTXaQWPSg3j74LRalWCN03Een0PLQ4909gei
––-END XLD

4659421

Thanks to the Original customer.

Fairport Convention – The Essential: Who Knows Where The Time Goes (2017) Download, Warez, DDL, Free, Full Album, Torrent, Legal.

Download