Fairport Convention – Liege & Lief (1969) Expanded Remastered 2002 | ViralVideoPk

Daily Dose of Free Downloads

Fairport Convention – Liege & Lief (1969) Expanded Remastered 2002

Download

Fairport Convention - Liege & Lief (1969) Expanded Remastered 2002

Fairport Convention – Liege & Lief (1969) Expanded Remastered 2002
XLD | FLAC | Image (Cue&Log) ~ 323 Mb (incl 5%) | Mp3 (CBR320) ~ 160 Mb (incl 5%) | Scans included
British Folk Rock, Psychedelic, Progressive Folk | Island | # 586 929-2, IMCD 291 | 00:55:21

Liege & Lief is the fourth album by the English folk rock band Fairport Convention. It is the third and final album the group released in the UK in 1969, all of which prominently feature Sandy Denny as lead female vocalist. (Denny did not appear on the group’s 1968 debut album). It is also the very first Fairport album on which all songs have either been adapted (freely) from traditional British and Celtic folk material (for example "Matty Groves", "Tam Lin"), or else are original compositions (such as "Come All Ye", "Crazy Man Michael") written and performed in a similar style. By introducing songs of this genre into the group’s repertoire Denny, who had previously sung and recorded traditional folk songs as a solo artist, was instrumental in this transformation. Although Denny quit the band even before the album’s release, Fairport Convention has continued to the present day to make music almost exclusively within the traditional British folk music idiom, and are still most strongly associated with it.

In the decades since its original release, more than one writer has declared Fairport Convention’s Liege & Lief the definitive British folk-rock album, a distinction it holds at least in part because it grants equal importance to all three parts of that formula. While Fairport had begun dipping their toes into British traditional folk with their stellar version of "A Sailor’s Life" on Unhalfbricking, Liege & Lief found them diving head first into the possibilities of England’s musical past, with Ashley Hutchings digging through the archives at the Cecil Sharp House in search of musical treasure, and the musicians (in particular vocalist Sandy Denny) eagerly embracing the dark mysteries of this music. (Only two of the album’s eight songs were group originals, though "Crazy Man Michael" and "Come All Ye" hardly stand out from their antique counterparts.) Liege & Lief was also recorded after a tour bus crash claimed the lives of original Fairport drummer Martin Lamble and Richard Thompson’s girlfriend; as the members of the group worked to shake off the tragedy (and break in new drummer Dave Mattacks and full-time fiddler Dave Swarbrick), they became a stronger and more adventurous unit, less interested in the neo-Jefferson Airplane direction of their earlier work and firmly committed to fusing time-worn folk with electric instruments while honoring both. And while Liege & Lief was the most purely folk-oriented Fairport Convention album to date, it also rocked hard in a thoroughly original and uncompromising way; the "Lark in the Morning" medley swings unrelentingly, the group’s crashing dynamics wring every last ounce of drama from "Tam Lin" and "Matty Groves," and Thompson and Swarbrick’s soloing is dazzling throughout. Liege & Lief introduced a large new audience to the beauty of British folk, but Fairport Convention’s interpretations spoke of the present as much as the past, and the result was timeless music in the best sense of the term. [The CD was also released with two previously unreleased takes of "Sir Patrick Spens" and "The Quiet Joys of Brotherhood."]

Review by Mark Deming, Allmusic.com

Fairport Convention at Allmusic
Fairport Convention Website
Fairport Convention at Wiki

Tracklist:

01. Come All Ye (05:03)
02. Reynardine (04:33)
03. Matty Groves (08:09)
04. Farewell, Farewell (02:39)
05. The Deserter (04:24)
06. Medley: The Lark In The Morning, Rakish Paddy, Foxhunters’ Jig, Toss The Feathers (04:08)
07. Tam Lin (07:14)
08. Crazy Man Michael (04:46)
09. Sir Patrick Spens [Sandy Denny Vocal Version] (04:03)
10. Quiet Joys Of Brotherhood (10:16)

XLD log
X Lossless Decoder version 20091129 (114.3)

XLD extraction logfile from 2010-12-12 10:50:46 +0000

Fairport Convention / Liege & Lief (2002 Remaster)

Used drive : PIONEER DVD-RW DVR-218L (revision 1.02)

Use cdparanoia mode : YES (CDParanoia III 10.2 engine)
Disable audio cache : OK for the drive with cache less than 2750KB
Make use of C2 pointers : NO
Read offset correction : 6
Max retry count : 100

TOC of the extracted CD
Track | Start | Length | Start sector | End sector
––––––––––––––––––––––––––––-
1 | 00:00:00 | 05:03:36 | 0 | 22760
2 | 05:03:36 | 04:33:71 | 22761 | 43306
3 | 09:37:32 | 08:09:65 | 43307 | 80046
4 | 17:47:22 | 02:39:59 | 80047 | 92030
5 | 20:27:06 | 04:24:43 | 92031 | 111873
6 | 24:51:49 | 04:08:67 | 111874 | 130540
7 | 29:00:41 | 07:14:09 | 130541 | 163099
8 | 36:14:50 | 04:46:29 | 163100 | 184578
9 | 41:01:04 | 04:03:18 | 184579 | 202821
10 | 45:04:22 | 10:16:54 | 202822 | 249075

All Tracks
Filename : /Volumes/DISC2/Temp/MUSIC/LOSSLESS/Fairport Convention/Fairport Convention – Liege & Lief – 1969/Liege & Lief (2002 Remaster).aiff
CRC32 hash (test run) : FACD08C7
CRC32 hash : FACD08C7
CRC32 hash (skip zero) : C605BE94
Statistics
Read error : 0
Skipped (treated as error) : 0
Edge jitter error (maybe fixed) : 2
Atom jitter error (maybe fixed) : 1
Drift error (maybe fixed) : 0
Dropped bytes error (maybe fixed) : 0
Duplicated bytes error (maybe fixed) : 1

Track 01
CRC32 hash (test run) : 9B0451BD
CRC32 hash : 9B0451BD
CRC32 hash (skip zero) : 9CBB4A40
Statistics
Read error : 0
Skipped (treated as error) : 0
Edge jitter error (maybe fixed) : 0
Atom jitter error (maybe fixed) : 0
Drift error (maybe fixed) : 0
Dropped bytes error (maybe fixed) : 0
Duplicated bytes error (maybe fixed) : 0

Track 02
CRC32 hash (test run) : 5029DF23
CRC32 hash : 5029DF23
CRC32 hash (skip zero) : 5B2FA9EC
Statistics
Read error : 0
Skipped (treated as error) : 0
Edge jitter error (maybe fixed) : 0
Atom jitter error (maybe fixed) : 0
Drift error (maybe fixed) : 0
Dropped bytes error (maybe fixed) : 0
Duplicated bytes error (maybe fixed) : 0

Track 03
CRC32 hash (test run) : 63B9490F
CRC32 hash : 63B9490F
CRC32 hash (skip zero) : E68A8E2A
Statistics
Read error : 0
Skipped (treated as error) : 0
Edge jitter error (maybe fixed) : 0
Atom jitter error (maybe fixed) : 0
Drift error (maybe fixed) : 0
Dropped bytes error (maybe fixed) : 0
Duplicated bytes error (maybe fixed) : 0

Track 04
CRC32 hash (test run) : 551EE411
CRC32 hash : 551EE411
CRC32 hash (skip zero) : ADACE6A4
Statistics
Read error : 0
Skipped (treated as error) : 0
Edge jitter error (maybe fixed) : 0
Atom jitter error (maybe fixed) : 0
Drift error (maybe fixed) : 0
Dropped bytes error (maybe fixed) : 0
Duplicated bytes error (maybe fixed) : 0

Track 05
CRC32 hash (test run) : 6E903A9D
CRC32 hash : 6E903A9D
CRC32 hash (skip zero) : E4B3F4B6
Statistics
Read error : 0
Skipped (treated as error) : 0
Edge jitter error (maybe fixed) : 0
Atom jitter error (maybe fixed) : 0
Drift error (maybe fixed) : 0
Dropped bytes error (maybe fixed) : 0
Duplicated bytes error (maybe fixed) : 0

Track 06
CRC32 hash (test run) : A73C0D82
CRC32 hash : A73C0D82
CRC32 hash (skip zero) : 27F10ACD
Statistics
Read error : 0
Skipped (treated as error) : 0
Edge jitter error (maybe fixed) : 0
Atom jitter error (maybe fixed) : 0
Drift error (maybe fixed) : 0
Dropped bytes error (maybe fixed) : 0
Duplicated bytes error (maybe fixed) : 0

Track 07
CRC32 hash (test run) : 5B046E61
CRC32 hash : 5B046E61
CRC32 hash (skip zero) : 70722AD0
Statistics
Read error : 0
Skipped (treated as error) : 0
Edge jitter error (maybe fixed) : 0
Atom jitter error (maybe fixed) : 0
Drift error (maybe fixed) : 0
Dropped bytes error (maybe fixed) : 0
Duplicated bytes error (maybe fixed) : 0

Track 08
CRC32 hash (test run) : DCCFE3B6
CRC32 hash : DCCFE3B6
CRC32 hash (skip zero) : D9ADE3D5
Statistics
Read error : 0
Skipped (treated as error) : 0
Edge jitter error (maybe fixed) : 0
Atom jitter error (maybe fixed) : 0
Drift error (maybe fixed) : 0
Dropped bytes error (maybe fixed) : 0
Duplicated bytes error (maybe fixed) : 0

Track 09
CRC32 hash (test run) : BCB751B6
CRC32 hash : BCB751B6
CRC32 hash (skip zero) : D0781C48
Statistics
Read error : 0
Skipped (treated as error) : 0
Edge jitter error (maybe fixed) : 2
Atom jitter error (maybe fixed) : 1
Drift error (maybe fixed) : 0
Dropped bytes error (maybe fixed) : 0
Duplicated bytes error (maybe fixed) : 1

Track 10
CRC32 hash (test run) : 833F1B0C
CRC32 hash : 833F1B0C
CRC32 hash (skip zero) : E67758C1
Statistics
Read error : 0
Skipped (treated as error) : 0
Edge jitter error (maybe fixed) : 0
Atom jitter error (maybe fixed) : 0
Drift error (maybe fixed) : 0
Dropped bytes error (maybe fixed) : 0
Duplicated bytes error (maybe fixed) : 0

No errors occurred

End of status report

DR log
foobar2000 1.2 / Dynamic Range Meter 1.1.1
log date: 2014-10-06 15:11:03

––––––––––––––––––––––––––––––––––––––––
Analyzed: Fairport Convention / Liege & Lief (2002 Remaster)
––––––––––––––––––––––––––––––––––––––––

DR Peak RMS Duration Track
––––––––––––––––––––––––––––––––––––––––
DR12 -0.22 dB -14.08 dB 5:03 01-Come All Ye
DR12 -1.55 dB -17.73 dB 4:34 02-Reynardine
DR13 -0.16 dB -14.71 dB 8:10 03-Matty Groves
DR12 -2.78 dB -18.39 dB 2:40 04-Farewell, Farewell
DR12 0.00 dB -14.71 dB 4:25 05-The Deserter
DR12 -0.67 dB -13.64 dB 4:09 06-Medley: The Lark In The Morning, Rakish Paddy, Foxhunters’ Jig, Toss The Feathers
DR11 0.00 dB -13.61 dB 7:14 07-Tam Lin
DR11 -2.05 dB -15.93 dB 4:46 08-Crazy Man Michael
DR12 -0.26 dB -13.96 dB 4:03 09-Sir Patrick Spens [Sandy Denny Vocal Version]
DR14 -0.18 dB -20.15 dB 10:17 10-Quiet Joys Of Brotherhood
––––––––––––––––––––––––––––––––––––––––

Number of tracks: 10
Official DR value: DR12

Samplerate: 44100 Hz
Channels: 2
Bits per sample: 16
Bitrate: 711 kbps
Codec: FLAC
================================================================================

Fairport Convention - Liege & Lief (1969) Expanded Remastered 2002

Fairport Convention - Liege & Lief (1969) Expanded Remastered 2002

All thanks to original releaser – Swamp Fox

More interesting music in My Blog

Fairport Convention – What We Did On Our Holidays (1969) Expanded Remastered 2003

Fairport Convention – Unhalfbricking (1969) Remastered Reissue 2003

Fairport Convention – Liege & Lief (1969) Expanded Remastered 2002 Download, Warez, DDL, Free, Full Album, Torrent, Legal.

Download


  • Recent Posts

  • Recent Tags