European Union Baroque Orchestra, Roy Goodman – Rameau: Pigmalion, Platee and Dardanus Ballet Suites (2005)

Download
European Union Baroque Orchestra, Roy Goodman - Rameau: Pigmalion, Platee and Dardanus Ballet Suites (2005)

European Union Baroque Orchestra, Roy Goodman – Rameau: Pigmalion, Platee and Dardanus Ballet Suites (2005)
EAC | FLAC (image+.cue, log) | Covers Included | 75:46 | 438 MB
Genre: Classical | Label: Naxos | Catalog: 8.557490

Glorious music brilliantly played and vividly recorded, this recording of suites from three of Jean-Philippe Rameau’s operas by Roy Goodman and the European Union Baroque Orchestra is as fine a disc of French Baroque orchestral music as has ever been issued. The wit and élan that Goodman and his Orchestra bring to Rameau is infectious. The listener finds himself smiling at Pigmalion’s Les différence caractéres de la danse and laughing at Platée’s Air pour des fous gais et de fous trietes. Even better is the color and power they bring to Dardanus’ Chaconne, making the listener appreciate the greatness of Rameau as a composer. Made up of superb period instrument players from across Europe, the Orchestra’s style is unified by the expert conducting of Roy Goodman. While Goodman started out as a boy soprano, he has matured into a conductor as at home in Bach as Berwald and, apparently, Rameau, who sounds here like a composer equal to any in Europe at the time. Well worth hearing for Rameau’s fans as well as for listeners who don’t know a note of his music, this disc is another triumph for Goodman. Naxos’ sound is crisp, detailed, and very present.

AllMusic

European Union Baroque Orchestra, Roy Goodman - Rameau: Pigmalion, Platee and Dardanus Ballet Suites (2005)

Track List:

Platee: Ballet Suite
1. I. Ouverture 00:04:26
2. II. Air pantomime 00:02:54
3. III. Air de ballet 00:03:17
4. IV. Orage 00:01:16
5. V. Air pour des fous gais et des fous tristes 00:03:49
6. VI. Menuet I – II 00:04:00
7. VII. Rigaudon I – II 00:02:42
Pigmalion (Pygmalion): Ballet Suite
8. I. Ouverture 00:04:32
9. II. Les differents caracteres de la danse (Gracieusement): Air – Gavotte – Menuet – Gavotte – Chaconne – Loure – Passepied – Rigaudon – 00:03:18
10. (II.) Sarabande pour la Statue – Tambourin: Forte et vite 00:04:07
11. III. Marche 00:02:03
12 IV. Pantomime niaise et un peu lent – Deuxieme Pantomime tres vite 00:03:21
13. V. Air gracieux et gai et contredanse 00:02:28
Dardanus: Ballet Suite
14. I. Ouverture 00:04:10
15. II. Marche pour les differentes nations 00:01:18
16. III. Menuet 00:03:04
17. IV. Tambourin I – II 00:01:48
18. V. Rigaudon I – II 00:03:38
19. VI. Entree d’Iphise 00:03:16
20. VII. Air gai en rondeau 00:01:29
21. VIII. Menuet I – II 00:04:06
22. IX. Tambourin III – IV 00:02:30
23. X. Sommeil de Dardanus 00:04:23
24. XI. Chaconne 00:03:51

Performers:
European Union Baroque Orchestra
Conductor: Roy Goodman

EAC Log
Exact Audio Copy V1.2 from 12. August 2016

EAC extraction logfile from 12. July 2017, 21:57

Roy Goodman, European Union Baroque Orchestra / Platée • Pigmalion • Dardanus Ballet Suites

Used drive : MATSHITADVD-RAM UJ8G6 Adapter: 1 ID: 0

Read mode : Secure
Utilize accurate stream : Yes
Defeat audio cache : Yes
Make use of C2 pointers : No

Read offset correction : 103
Overread into Lead-In and Lead-Out : No
Fill up missing offset samples with silence : Yes
Delete leading and trailing silent blocks : No
Null samples used in CRC calculations : Yes
Used interface : Native Win32 interface for Win NT & 2000

Used output format : User Defined Encoder
Selected bitrate : 768 kBit/s
Quality : High
Add ID3 tag : No
Command line compressor : C:Program Files (x86)Exact Audio CopyFlacflac.exe
Additional command line options : -6 -V -T "ARTIST=%artist%" -T "TITLE=%title%" -T "ALBUM=%albumtitle%" -T "DATE=%year%" -T "TRACKNUMBER=%tracknr%" -T "GENRE=%genre%" -T "COMMENT=%comment%" -T "BAND=%albuminterpret%" -T "ALBUMARTIST=%albuminterpret%" -T "COMPOSER=%composer%" %haslyrics%–tag-from-file=LYRICS="%lyricsfile%"%haslyrics% -T "DISCNUMBER=%cdnumber%" -T "TOTALDISCS=%totalcds%" -T "TOTALTRACKS=%numtracks%" %hascover%–picture="%coverfile%"%hascover% %source% -o %dest%

TOC of the extracted CD

Track | Start | Length | Start sector | End sector
––––––––––––––––––––––––––––-
1 | 0:00.00 | 4:23.50 | 0 | 19774
2 | 4:23.50 | 2:57.10 | 19775 | 33059
3 | 7:20.60 | 3:15.65 | 33060 | 47749
4 | 10:36.50 | 1:16.35 | 47750 | 53484
5 | 11:53.10 | 3:48.02 | 53485 | 70586
6 | 15:41.12 | 4:01.38 | 70587 | 88699
7 | 19:42.50 | 2:44.20 | 88700 | 101019
8 | 22:26.70 | 4:26.12 | 101020 | 120981
9 | 26:53.07 | 3:17.70 | 120982 | 135826
10 | 30:11.02 | 4:09.65 | 135827 | 154566
11 | 34:20.67 | 2:01.03 | 154567 | 163644
12 | 36:21.70 | 3:22.57 | 163645 | 178851
13 | 39:44.52 | 2:31.30 | 178852 | 190206
14 | 42:16.07 | 4:07.48 | 190207 | 208779
15 | 46:23.55 | 1:18.25 | 208780 | 214654
16 | 47:42.05 | 3:03.60 | 214655 | 228439
17 | 50:45.65 | 1:48.00 | 228440 | 236539
18 | 52:33.65 | 3:39.70 | 236540 | 253034
19 | 56:13.60 | 3:14.10 | 253035 | 267594
20 | 59:27.70 | 1:29.05 | 267595 | 274274
21 | 60:57.00 | 4:05.42 | 274275 | 292691
22 | 65:02.42 | 2:30.20 | 292692 | 303961
23 | 67:32.62 | 4:24.03 | 303962 | 323764
24 | 71:56.65 | 3:47.12 | 323765 | 340801

Range status and errors

Selected range

Filename C:UsersRoyMusicJean-Philippe Rameau – Platée • Pigmalion • Dardanus Ballet Suites.wav

Peak level 99.9 %
Extraction speed 4.5 X
Range quality 100.0 %
Test CRC 749D961D
Copy CRC 749D961D
Copy OK

No errors occurred

AccurateRip summary

Track 1 accurately ripped (confidence 13) [EF04A9FD] (AR v2)
Track 2 accurately ripped (confidence 13) [6BDDBCED] (AR v2)
Track 3 accurately ripped (confidence 13) [AAD810CE] (AR v2)
Track 4 accurately ripped (confidence 13) [716326E9] (AR v2)
Track 5 accurately ripped (confidence 13) [7DB6C9A2] (AR v2)
Track 6 accurately ripped (confidence 13) [06FC585D] (AR v2)
Track 7 accurately ripped (confidence 13) [2077FD66] (AR v2)
Track 8 accurately ripped (confidence 13) [8400B8FF] (AR v2)
Track 9 accurately ripped (confidence 13) [E3803737] (AR v2)
Track 10 accurately ripped (confidence 13) [FD3B911A] (AR v2)
Track 11 accurately ripped (confidence 13) [09453187] (AR v2)
Track 12 accurately ripped (confidence 13) [726F09F6] (AR v2)
Track 13 accurately ripped (confidence 13) [87FD03F2] (AR v2)
Track 14 accurately ripped (confidence 13) [A2BFBCB0] (AR v2)
Track 15 accurately ripped (confidence 13) [D219F12A] (AR v2)
Track 16 accurately ripped (confidence 13) [D8DEA910] (AR v2)
Track 17 accurately ripped (confidence 13) [75109061] (AR v2)
Track 18 accurately ripped (confidence 13) [3AC66843] (AR v2)
Track 19 accurately ripped (confidence 13) [0DE85162] (AR v2)
Track 20 accurately ripped (confidence 13) [1B3B1E20] (AR v2)
Track 21 accurately ripped (confidence 13) [7361684A] (AR v2)
Track 22 accurately ripped (confidence 13) [86CE3E7A] (AR v2)
Track 23 accurately ripped (confidence 13) [0B652EDA] (AR v2)
Track 24 accurately ripped (confidence 13) [F51E0956] (AR v2)

All tracks accurately ripped

End of status report

–– CUETools DB Plugin V2.1.6

[CTDB TOCID: OoaqxrkrDHabX82i0OEKEQeA.zs-] found
Submit result: already submitted
Track | CTDB Status
1 | (8/8) Accurately ripped
2 | (8/8) Accurately ripped
3 | (8/8) Accurately ripped
4 | (8/8) Accurately ripped
5 | (8/8) Accurately ripped
6 | (8/8) Accurately ripped
7 | (8/8) Accurately ripped
8 | (8/8) Accurately ripped
9 | (8/8) Accurately ripped
10 | (8/8) Accurately ripped
11 | (8/8) Accurately ripped
12 | (8/8) Accurately ripped
13 | (8/8) Accurately ripped
14 | (8/8) Accurately ripped
15 | (8/8) Accurately ripped
16 | (8/8) Accurately ripped
17 | (8/8) Accurately ripped
18 | (8/8) Accurately ripped
19 | (8/8) Accurately ripped
20 | (8/8) Accurately ripped
21 | (8/8) Accurately ripped
22 | (8/8) Accurately ripped
23 | (8/8) Accurately ripped
24 | (8/8) Accurately ripped

==== Log checksum 8244A3EF23163759C768A9DFBD43FA3EC38375644F61D7649202FADA0D5FCC5B ====

CUETools Log
[CUETools log; Date: 17.07.2017 18:44:29; Version: 2.1.5]
[CTDB TOCID: OoaqxrkrDHabX82i0OEKEQeA.zs-] found.
Track | CTDB Status
1 | (8/8) Accurately ripped
2 | (8/8) Accurately ripped
3 | (8/8) Accurately ripped
4 | (8/8) Accurately ripped
5 | (8/8) Accurately ripped
6 | (8/8) Accurately ripped
7 | (8/8) Accurately ripped
8 | (8/8) Accurately ripped
9 | (8/8) Accurately ripped
10 | (8/8) Accurately ripped
11 | (8/8) Accurately ripped
12 | (8/8) Accurately ripped
13 | (8/8) Accurately ripped
14 | (8/8) Accurately ripped
15 | (8/8) Accurately ripped
16 | (8/8) Accurately ripped
17 | (8/8) Accurately ripped
18 | (8/8) Accurately ripped
19 | (8/8) Accurately ripped
20 | (8/8) Accurately ripped
21 | (8/8) Accurately ripped
22 | (8/8) Accurately ripped
23 | (8/8) Accurately ripped
24 | (8/8) Accurately ripped
[AccurateRip ID: 0041a896-04679155-7011c018] found.
Track [ CRC | V2 ] Status
01 [87f708dc|ef04a9fd] (03+13/21) Accurately ripped
02 [e01c4a6d|6bddbced] (03+13/21) Accurately ripped
03 [2c59d34c|aad810ce] (03+13/21) Accurately ripped
04 [508a7aab|716326e9] (03+13/21) Accurately ripped
05 [481889c7|7db6c9a2] (03+13/21) Accurately ripped
06 [e7a8f7bb|06fc585d] (03+13/21) Accurately ripped
07 [1d99eaff|2077fd66] (03+13/21) Accurately ripped
08 [9d33590f|8400b8ff] (03+13/21) Accurately ripped
09 [e5739a59|e3803737] (03+13/21) Accurately ripped
10 [04a8e5d8|fd3b911a] (03+13/21) Accurately ripped
11 [400962f2|09453187] (03+13/21) Accurately ripped
12 [19d27e25|726f09f6] (03+13/21) Accurately ripped
13 [8c1b21c0|87fd03f2] (03+13/21) Accurately ripped
14 [cdc4d1df|a2bfbcb0] (03+13/20) Accurately ripped
15 [142def7d|d219f12a] (03+13/20) Accurately ripped
16 [78d59481|d8dea910] (03+13/20) Accurately ripped
17 [655f6682|75109061] (03+13/20) Accurately ripped
18 [e20c4e22|3ac66843] (03+13/20) Accurately ripped
19 [f48364ed|0de85162] (03+13/20) Accurately ripped
20 [61cf0b6f|1b3b1e20] (03+13/20) Accurately ripped
21 [d5c04e97|7361684a] (03+13/20) Accurately ripped
22 [931a1c37|86ce3e7a] (03+13/20) Accurately ripped
23 [165ee29d|0b652eda] (03+13/20) Accurately ripped
24 [dc8174e9|f51e0956] (03+13/20) Accurately ripped
Offsetted by 12:
01 [8bae6afd] (02/21) Accurately ripped
02 [9f81397d] (02/21) Accurately ripped
03 [ecd6e27f] (02/21) Accurately ripped
04 [050a57cb] (02/21) Accurately ripped
05 [559af6d0] (02/21) Accurately ripped
06 [f72f00bc] (02/21) Accurately ripped
07 [80664f2b] (02/21) Accurately ripped
08 [53116af2] (02/21) Accurately ripped
09 [b9a65c6c] (02/21) Accurately ripped
10 [6294d4dc] (02/21) Accurately ripped
11 [6f993b1b] (02/21) Accurately ripped
12 [93b44e58] (02/21) Accurately ripped
13 [979aed75] (02/21) Accurately ripped
14 [a519535b] (02/20) Accurately ripped
15 [43144cc6] (02/20) Accurately ripped
16 [0e43637f] (02/20) Accurately ripped
17 [b86bb58a] (02/20) Accurately ripped
18 [23cd2182] (02/20) Accurately ripped
19 [c65743bc] (02/20) Accurately ripped
20 [f3445642] (02/20) Accurately ripped
21 [9c5c76e3] (02/20) Accurately ripped
22 [9d8e1524] (02/20) Accurately ripped
23 [77bc2828] (02/20) Accurately ripped
24 [749ed11b] (02/20) Accurately ripped

Track Peak [ CRC32 ] [W/O NULL] [ LOG ]
– 99,9 [749D961D] [068EA7D6] CRC32
01 79,8 [C09FDB37] [80A8682D]
02 65,2 [3CABFE6E] [77331963]
03 69,3 [141E83E7] [6E520525]
04 71,4 [E2647128] [971D4C48]
05 68,0 [EF4899B1] [0056FD7A]
06 45,8 [68957E18] [F4C7E11D]
07 73,0 [E202441E] [A0F36146]
08 71,1 [87364DBD] [4CF32A37]
09 99,9 [5A39383F] [9C4B924F]
10 74,9 [9CFB6F34] [C716A759]
11 57,8 [6B6EBA93] [5A447376]
12 72,0 [10F01A2C] [0C847E7E]
13 84,5 [04D1A881] [8F1CC07C]
14 84,6 [22867EBA] [617B54D0]
15 73,9 [B2CE04AC] [7A3C5821]
16 39,8 [87EB1C02] [BB55EF19]
17 89,1 [C9FC5650] [9C14A821]
18 77,1 [05071F8C] [59348C32]
19 43,7 [D47E8F58] [7DFBDC1F]
20 66,9 [E9C77FB8] [3711DE4F]
21 65,2 [E8771472] [C571E535]
22 79,5 [66C0A603] [C4851089]
23 46,1 [7325A484] [3FD1CB2F]
24 74,8 [4DC02F02] [BFDE0E01]

Thanks to the Original ripper (unknown)!

Download:

European Union Baroque Orchestra, Roy Goodman – Rameau: Pigmalion, Platee and Dardanus Ballet Suites (2005) Download, Warez, DDL, Free, Full Album, Torrent, Legal.

Download