Eureka – Great Escapes (2015)

Download
Eureka - Great Escapes (2015)

Eureka – Great Escapes (2015)
XLD Rip | FLAC (image+.cue+log) – 330 MB | MP3 CBR 320 kbps (LAME 3.93) – 110 MB | Covers – 23 MB
Genre: Neo-Progressive Rock | RAR 3% Rec. | Label: Silverware (SIL02015)

Eureka is a band/project led by multi-instrumentalist Frank Bossert, based in Hamburg, Germany. This is not quite a concept album like "Shackleton’s Voyage" (2009), but still strings together some clever compositions that are all intertwined in spirit if not in content. The artwork is absolute first class, a collision between nature and human achievement that depicts the adventurous nature of life and the need to escape the dreary routine and enjoy what our planet has to offer. RPWL mastermind Yogi Lang has been recruited to assist in mixing and his neo/Floydian pop feel is everywhere to be heard, guiding Bossert into the realm of personal songs that have meaning for more than just the artist.

Progarchives

Tracklist:
01. Stepping Out
02. Animated World
03. Stolen Child
04. One Million Stars
05. State of View
06. Chase the Dream
07. Escape!
08. On the Run
09. The Big Picture
Part I: Bricks and Mortar
Part II: A Slow Poison
Part III: Lady Luck
10. Solid Ground

Total time: 46:52

XLD log
X Lossless Decoder version 20161007 (149.3)

XLD extraction logfile from 2017-07-27 16:02:40 +0200

Eureka / Great Escapes

Used drive : HL-DT-ST DVDRW GX40N (revision RQ00)
Media type : Pressed CD

Ripper mode : XLD Secure Ripper
Disable audio cache : OK for the drive with a cache less than 1375KiB
Make use of C2 pointers : NO
Read offset correction : 6
Max retry count : 100
Gap status : Analyzed, Appended

TOC of the extracted CD
Track | Start | Length | Start sector | End sector
––––––––––––––––––––––––––––-
1 | 00:00:00 | 02:09:00 | 0 | 9674
2 | 02:09:00 | 04:00:39 | 9675 | 27713
3 | 06:09:39 | 03:42:71 | 27714 | 44434
4 | 09:52:35 | 03:53:40 | 44435 | 61949
5 | 13:46:00 | 04:05:42 | 61950 | 80366
6 | 17:51:42 | 06:33:28 | 80367 | 109869
7 | 24:24:70 | 03:36:09 | 109870 | 126078
8 | 28:01:04 | 04:00:35 | 126079 | 144113
9 | 32:01:39 | 10:08:06 | 144114 | 189719
10 | 42:09:45 | 04:42:39 | 189720 | 210908

AccurateRip Summary (DiscID: 000f5521-007fa064-7e0afc0a)
Track 01 : OK (v2, confidence 5/5)
Track 02 : OK (v2, confidence 5/5)
Track 03 : OK (v2, confidence 5/5)
Track 04 : OK (v2, confidence 5/5)
Track 05 : OK (v2, confidence 5/5)
Track 06 : OK (v2, confidence 5/5)
Track 07 : OK (v2, confidence 5/5)
Track 08 : OK (v2, confidence 5/5)
Track 09 : OK (v2, confidence 5/5)
Track 10 : OK (v2, confidence 5/5)
->All tracks accurately ripped.

All Tracks
Filename : /Users/likewendy/Desktop/EXTRACTION XLD/01 Eureka – Great Escapes.flac
Album gain : -8.70 dB
Peak : 0.983002
CRC32 hash (test run) : 350D2DC6
CRC32 hash : 350D2DC6
CRC32 hash (skip zero) : 213888C9
Statistics
Read error : 0
Jitter error (maybe fixed) : 0
Retry sector count : 0
Damaged sector count : 0

Track 01
Pre-gap length : 00:02:00

Track gain : -7.22 dB
Peak : 0.954712
CRC32 hash (test run) : EA478465
CRC32 hash : EA478465
CRC32 hash (skip zero) : 0AFCB5E5
AccurateRip v1 signature : A5C879B6
AccurateRip v2 signature : 58A10B32
->Accurately ripped (v2, confidence 5/5)
Statistics
Read error : 0
Jitter error (maybe fixed) : 0
Retry sector count : 0
Damaged sector count : 0

Track 02

Track gain : -8.93 dB
Peak : 0.983002
CRC32 hash (test run) : 94A37F6D
CRC32 hash : 94A37F6D
CRC32 hash (skip zero) : 85943D17
AccurateRip v1 signature : 2A80DC7A
AccurateRip v2 signature : 8CE43490
->Accurately ripped (v2, confidence 5/5)
Statistics
Read error : 0
Jitter error (maybe fixed) : 0
Retry sector count : 0
Damaged sector count : 0

Track 03

Track gain : -8.12 dB
Peak : 0.956635
CRC32 hash (test run) : 06F474FD
CRC32 hash : 06F474FD
CRC32 hash (skip zero) : C9F7693A
AccurateRip v1 signature : 0DA7A67D
AccurateRip v2 signature : EF0D133C
->Accurately ripped (v2, confidence 5/5)
Statistics
Read error : 0
Jitter error (maybe fixed) : 0
Retry sector count : 0
Damaged sector count : 0

Track 04

Track gain : -7.67 dB
Peak : 0.957947
CRC32 hash (test run) : BC03CE6D
CRC32 hash : BC03CE6D
CRC32 hash (skip zero) : 68F8BD68
AccurateRip v1 signature : E7FDE047
AccurateRip v2 signature : B6DFCA42
->Accurately ripped (v2, confidence 5/5)
Statistics
Read error : 0
Jitter error (maybe fixed) : 0
Retry sector count : 0
Damaged sector count : 0

Track 05

Track gain : -8.39 dB
Peak : 0.956635
CRC32 hash (test run) : E0205FAC
CRC32 hash : E0205FAC
CRC32 hash (skip zero) : ECFC1592
AccurateRip v1 signature : 1659A24E
AccurateRip v2 signature : 4C835C03
->Accurately ripped (v2, confidence 5/5)
Statistics
Read error : 0
Jitter error (maybe fixed) : 0
Retry sector count : 0
Damaged sector count : 0

Track 06

Track gain : -9.62 dB
Peak : 0.966675
CRC32 hash (test run) : B9A2EB5A
CRC32 hash : B9A2EB5A
CRC32 hash (skip zero) : 52230667
AccurateRip v1 signature : 7D8CCCB3
AccurateRip v2 signature : 90D5AE09
->Accurately ripped (v2, confidence 5/5)
Statistics
Read error : 0
Jitter error (maybe fixed) : 0
Retry sector count : 0
Damaged sector count : 0

Track 07

Track gain : -8.59 dB
Peak : 0.957916
CRC32 hash (test run) : 726F3225
CRC32 hash : 726F3225
CRC32 hash (skip zero) : 4E95543C
AccurateRip v1 signature : 5BA253CB
AccurateRip v2 signature : 197F3DC7
->Accurately ripped (v2, confidence 5/5)
Statistics
Read error : 0
Jitter error (maybe fixed) : 0
Retry sector count : 0
Damaged sector count : 0

Track 08

Track gain : -9.42 dB
Peak : 0.957794
CRC32 hash (test run) : 45B72686
CRC32 hash : 45B72686
CRC32 hash (skip zero) : 87C0C677
AccurateRip v1 signature : 36D68E13
AccurateRip v2 signature : D2794897
->Accurately ripped (v2, confidence 5/5)
Statistics
Read error : 0
Jitter error (maybe fixed) : 0
Retry sector count : 0
Damaged sector count : 0

Track 09

Track gain : -8.12 dB
Peak : 0.957520
CRC32 hash (test run) : DB991737
CRC32 hash : DB991737
CRC32 hash (skip zero) : EE7C1E33
AccurateRip v1 signature : F9BA5F5D
AccurateRip v2 signature : 86FBE1BC
->Accurately ripped (v2, confidence 5/5)
Statistics
Read error : 0
Jitter error (maybe fixed) : 0
Retry sector count : 0
Damaged sector count : 0

Track 10

Track gain : -7.94 dB
Peak : 0.955750
CRC32 hash (test run) : FD057200
CRC32 hash : FD057200
CRC32 hash (skip zero) : 7DFD3554
AccurateRip v1 signature : F8EAB84B
AccurateRip v2 signature : FC3E645A
->Accurately ripped (v2, confidence 5/5)
Statistics
Read error : 0
Jitter error (maybe fixed) : 0
Retry sector count : 0
Damaged sector count : 0

No errors occurred

End of status report

CUETools log
[CUETools log; Date: 28.07.2017 1:31:43; Version: 2.1.4]
[CTDB TOCID: 2q75q1ndp5tSdbdH9VV0R0CFUcg-] found.
Track | CTDB Status
1 | (9/9) Accurately ripped
2 | (9/9) Accurately ripped
3 | (9/9) Accurately ripped
4 | (9/9) Accurately ripped
5 | (9/9) Accurately ripped
6 | (9/9) Accurately ripped
7 | (9/9) Accurately ripped
8 | (9/9) Accurately ripped
9 | (9/9) Accurately ripped
10 | (9/9) Accurately ripped
[AccurateRip ID: 000f5521-007fa064-7e0afc0a] found.
Track [ CRC | V2 ] Status
01 [a5c879b6|58a10b32] (0+5/5) Accurately ripped
02 [2a80dc7a|8ce43490] (0+5/5) Accurately ripped
03 [0da7a67d|ef0d133c] (0+5/5) Accurately ripped
04 [e7fde047|b6dfca42] (0+5/5) Accurately ripped
05 [1659a24e|4c835c03] (0+5/5) Accurately ripped
06 [7d8cccb3|90d5ae09] (0+5/5) Accurately ripped
07 [5ba253cb|197f3dc7] (0+5/5) Accurately ripped
08 [36d68e13|d2794897] (0+5/5) Accurately ripped
09 [f9ba5f5d|86fbe1bc] (0+5/5) Accurately ripped
10 [f8eab84b|fc3e645a] (0+5/5) Accurately ripped

Track Peak [ CRC32 ] [W/O NULL]
– 98,3 [350D2DC6] [213888C9]
01 95,4 [EA478465] [0AFCB5E5]
02 98,3 [94A37F6D] [85943D17]
03 95,6 [06F474FD] [C9F7693A]
04 95,7 [BC03CE6D] [68F8BD68]
05 95,6 [E0205FAC] [ECFC1592]
06 96,6 [B9A2EB5A] [52230667]
07 95,7 [726F3225] [4E95543C]
08 95,7 [45B72686] [87C0C677]
09 95,7 [DB991737] [EE7C1E33]
10 95,5 [FD057200] [7DFD3554]

Thanks to likewendy

Welcome to My Blog!

Eureka – Great Escapes (2015) Download, Warez, DDL, Free, Full Album, Torrent, Legal.

Download