Estrella Morente – My Songs And A Poem (2001) {Realworld}

Download
Estrella Morente - My Songs And A Poem (2001) {Realworld}

Estrella Morente – My Songs And A Poem (2001) {Realworld}
EAC Rip | FLAC with CUE and log | scans | 301 mb
MP3 CBR 320kbps | RAR | 127 mb
Genre: Flamenco

My Songs And A Poem is the 2001 album by singer Estrella Morente. This was released on Peter Gabriel’s Realworld label and shows her love of flamenco music.

Estrella Morente - My Songs And A Poem (2001) {Realworld}

01. Coquinas (Alegrías)
02. En Lo Alto Del Cerro De Palomares (Tangos)
03. Moguer (Bulerías)
04. La Noche (Soleá)
05. Bulerías De La Bola
06. Alcazaba (Media Granaína)
07. A Pastora (Sevillanas)
08. Peregrinitos (Bulería)
09. ¿A Qué Niegas El Delirio (Malagueñas)
10. Tangos De Pepico
11. Soleá Grana
12. Galería (Taranta)
13. Que Llegue El Domingo (Bulería)
14. Las Llamas Llegan Al Cielo (Taranta)

Produced by her father, the legendary Enrique Morente
Sound engineers: Oscar Clavel, Harold Bergon, Mario G Albeni, Jose Maria Sagrista and Ramon Fernandez
Recording assistants: Alvaro Laguna, Jose Ramoa, Serio & JA Espinosa
Mixed and mastered by Oscar Clavel

Estrella Morente - My Songs And A Poem (2001) {Realworld}
EAC Log
Exact Audio Copy V1.1 from 23. June 2015

EAC extraction logfile from 16. December 2016, 8:10

Estrella Morente / My Songs And A Poem

Used drive : TEAC DVD-ROM DV-28SW Adapter: 1 ID: 0

Read mode : Secure
Utilize accurate stream : Yes
Defeat audio cache : Yes
Make use of C2 pointers : No

Read offset correction : 6
Overread into Lead-In and Lead-Out : No
Fill up missing offset samples with silence : Yes
Delete leading and trailing silent blocks : No
Null samples used in CRC calculations : Yes
Used interface : Native Win32 interface for Win NT & 2000
Gap handling : Appended to previous track

Used output format : Internal WAV Routines
Sample format : 44.100 Hz; 16 Bit; Stereo

TOC of the extracted CD

Track | Start | Length | Start sector | End sector
––––––––––––––––––––––––––––-
1 | 0:00.00 | 3:28.45 | 0 | 15644
2 | 3:28.45 | 3:24.54 | 15645 | 30998
3 | 6:53.24 | 3:44.62 | 30999 | 47860
4 | 10:38.11 | 3:25.27 | 47861 | 63262
5 | 14:03.38 | 6:05.54 | 63263 | 90691
6 | 20:09.17 | 3:47.15 | 90692 | 107731
7 | 23:56.32 | 4:05.49 | 107732 | 126155
8 | 28:02.06 | 3:24.60 | 126156 | 141515
9 | 31:26.66 | 2:17.11 | 141516 | 151801
10 | 33:44.02 | 3:28.48 | 151802 | 167449
11 | 37:12.50 | 3:45.59 | 167450 | 184383
12 | 40:58.34 | 2:59.47 | 184384 | 197855
13 | 43:58.06 | 6:34.60 | 197856 | 227465
14 | 50:32.66 | 2:00.20 | 227466 | 236485

Track 1

Filename C:My DocumentsMy FLACEstrella Morente – My Songs And A Poem (2001) [FLAC] {Realworld}1 – Coquinas (Alegrías).wav

Pre-gap length 0:00:02.00

Peak level 100.0 %
Extraction speed 2.7 X
Track quality 100.0 %
Test CRC 6C1ACE48
Copy CRC 6C1ACE48
Accurately ripped (confidence 3) [AEE8267D] (AR v2)
Copy OK

Track 2

Filename C:My DocumentsMy FLACEstrella Morente – My Songs And A Poem (2001) [FLAC] {Realworld}2 – En Lo Alto Del Cerro De Palomares (Tangos).wav

Pre-gap length 0:00:00.42

Peak level 100.0 %
Extraction speed 2.9 X
Track quality 100.0 %
Test CRC E5E98AEB
Copy CRC E5E98AEB
Accurately ripped (confidence 3) [B20C5642] (AR v2)
Copy OK

Track 3

Filename C:My DocumentsMy FLACEstrella Morente – My Songs And A Poem (2001) [FLAC] {Realworld}3 – Moguer (Bulerías).wav

Pre-gap length 0:00:00.31

Peak level 100.0 %
Extraction speed 3.2 X
Track quality 100.0 %
Test CRC F44ADB3B
Copy CRC F44ADB3B
Accurately ripped (confidence 3) [6FBB3822] (AR v2)
Copy OK

Track 4

Filename C:My DocumentsMy FLACEstrella Morente – My Songs And A Poem (2001) [FLAC] {Realworld}4 – La Noche (Soleá).wav

Pre-gap length 0:00:01.39

Peak level 100.0 %
Extraction speed 3.4 X
Track quality 100.0 %
Test CRC 324909AB
Copy CRC 324909AB
Accurately ripped (confidence 3) [039C1E91] (AR v2)
Copy OK

Track 5

Filename C:My DocumentsMy FLACEstrella Morente – My Songs And A Poem (2001) [FLAC] {Realworld}5 – Bulerías De La Bola.wav

Pre-gap length 0:00:01.18

Peak level 100.0 %
Extraction speed 3.7 X
Track quality 100.0 %
Test CRC A1A236EA
Copy CRC A1A236EA
Accurately ripped (confidence 3) [7BEE9B84] (AR v2)
Copy OK

Track 6

Filename C:My DocumentsMy FLACEstrella Morente – My Songs And A Poem (2001) [FLAC] {Realworld}6 – Alcazaba (Media Granaína).wav

Pre-gap length 0:00:01.19

Peak level 100.0 %
Extraction speed 3.9 X
Track quality 100.0 %
Test CRC EFB4B9A8
Copy CRC EFB4B9A8
Accurately ripped (confidence 3) [E9CFAA08] (AR v2)
Copy OK

Track 7

Filename C:My DocumentsMy FLACEstrella Morente – My Songs And A Poem (2001) [FLAC] {Realworld}7 – A Pastora (Sevillanas).wav

Pre-gap length 0:00:01.44

Peak level 100.0 %
Extraction speed 3.4 X
Track quality 99.9 %
Test CRC 2D12C4B2
Copy CRC 2D12C4B2
Accurately ripped (confidence 3) [62D0565D] (AR v2)
Copy OK

Track 8

Filename C:My DocumentsMy FLACEstrella Morente – My Songs And A Poem (2001) [FLAC] {Realworld}8 – Peregrinitos (Bulería).wav

Pre-gap length 0:00:00.42

Peak level 100.0 %
Extraction speed 4.3 X
Track quality 100.0 %
Test CRC B6D767F1
Copy CRC B6D767F1
Accurately ripped (confidence 3) [3CDFBB07] (AR v2)
Copy OK

Track 9

Filename C:My DocumentsMy FLACEstrella Morente – My Songs And A Poem (2001) [FLAC] {Realworld}9 – ¿A Qué Niegas El Delirio (Malagueñas).wav

Pre-gap length 0:00:01.33

Peak level 99.5 %
Extraction speed 4.0 X
Track quality 100.0 %
Test CRC AC7A67EB
Copy CRC AC7A67EB
Accurately ripped (confidence 3) [FB5AE4F6] (AR v2)
Copy OK

Track 10

Filename C:My DocumentsMy FLACEstrella Morente – My Songs And A Poem (2001) [FLAC] {Realworld}10 – Tangos De Pepico.wav

Pre-gap length 0:00:00.39

Peak level 100.0 %
Extraction speed 4.1 X
Track quality 100.0 %
Test CRC CA046133
Copy CRC CA046133
Accurately ripped (confidence 3) [C2B01FDD] (AR v2)
Copy OK

Track 11

Filename C:My DocumentsMy FLACEstrella Morente – My Songs And A Poem (2001) [FLAC] {Realworld}11 – Soleá Grana.wav

Pre-gap length 0:00:01.25

Peak level 100.0 %
Extraction speed 4.5 X
Track quality 100.0 %
Test CRC E1D1500D
Copy CRC E1D1500D
Accurately ripped (confidence 3) [CB0E457C] (AR v2)
Copy OK

Track 12

Filename C:My DocumentsMy FLACEstrella Morente – My Songs And A Poem (2001) [FLAC] {Realworld}12 – Galería (Taranta).wav

Pre-gap length 0:00:02.00

Peak level 100.0 %
Extraction speed 3.2 X
Track quality 99.9 %
Test CRC D6D7B0AA
Copy CRC D6D7B0AA
Accurately ripped (confidence 3) [D7379072] (AR v2)
Copy OK

Track 13

Filename C:My DocumentsMy FLACEstrella Morente – My Songs And A Poem (2001) [FLAC] {Realworld}13 – Que Llegue El Domingo (Bulería).wav

Pre-gap length 0:00:01.11

Peak level 100.0 %
Extraction speed 4.2 X
Track quality 100.0 %
Test CRC 40BF2C06
Copy CRC 40BF2C06
Accurately ripped (confidence 3) [0CF1F5C9] (AR v2)
Copy OK

Track 14

Filename C:My DocumentsMy FLACEstrella Morente – My Songs And A Poem (2001) [FLAC] {Realworld}14 – Las Llamas Llegan Al Cielo (Taranta).wav

Pre-gap length 0:00:01.54

Peak level 95.2 %
Extraction speed 4.0 X
Track quality 100.0 %
Test CRC F16A8400
Copy CRC F16A8400
Accurately ripped (confidence 3) [DD9F8B15] (AR v2)
Copy OK

All tracks accurately ripped

No errors occurred

End of status report

–– CUETools DB Plugin V2.1.6

[CTDB TOCID: yuas5u48V20uonAWw99QbZFzQjo-] found
Submit result: yuas5u48V20uonAWw99QbZFzQjo- has been confirmed
Track | CTDB Status
1 | (3/3) Accurately ripped
2 | (3/3) Accurately ripped
3 | (3/3) Accurately ripped
4 | (3/3) Accurately ripped
5 | (3/3) Accurately ripped
6 | (3/3) Accurately ripped
7 | (3/3) Accurately ripped
8 | (3/3) Accurately ripped
9 | (3/3) Accurately ripped
10 | (3/3) Accurately ripped
11 | (3/3) Accurately ripped
12 | (3/3) Accurately ripped
13 | (3/3) Accurately ripped
14 | (3/3) Accurately ripped

==== Log checksum 32EB19A239519AC9A21C6367EB9F761289BB9FC330B39DE82B1C4C10D706C698 ====

Estrella Morente - My Songs And A Poem (2001) {Realworld}

Estrella Morente – My Songs And A Poem (2001) {Realworld} Download, Warez, DDL, Free, Full Album, Torrent, Legal.

Download