Esther Williams – Inside Of Me (1981) [2011 FTG]

Download
Esther Williams - Inside Of Me (1981) [2011 FTG]

Esther Williams – Inside Of Me (1981) [2011 FTG]
EAC Rip | FLAC (Image) +CUE, LOG | 261 MB | Covers Included
Genre: Funk, Soul, Disco | Label: Funky Town Grooves | Catalog Number: FTG-248

When Esther Williams’ Inside of Me was first released in 1981, there was a lot of talk about how disco had died. To hear some people tell it, disco was so out of fashion in 1981 that even Donna Summer was trying to be new wave. But truth be told, disco was quite plentiful in 1981. Disco never died; it evolved and diversified, and new terms emerged in the ‘’80s (dance-pop, deep house, Hi-NRG). Williams enjoyed some exposure in dance clubs in 1981, especially with her seductive hit "I’ll Be Your Pleasure" (which opens this album). Inside of Me, which the Brooklyn-based Funky Town Grooves reissued on CD in 2011, doesn’t get into Euro-disco at all; rather, Williams favors a disco-soul approach (à la Loleatta Holloway or Jocelyn Brown) on club-friendly offerings such as "I’ll Be Your Pleasure," "You Can Have It All," and "You Can Use It." But it would be a mistake to think that Inside of Me is strictly an album of uptempo dance grooves. Actually, the slower jams are very much in the Philadelphia soul vein, including "You Are the Spice of My Life," "Ready for Love," and the title song. So even though some parts of this 36-minute CD are club-friendly, other parts of it have a lot of quiet storm appeal. Inside of Me was not a huge commercial hit when it first came out on LP back in 1981; regardless, this is a solid effort from the talented but underexposed Williams (who married Washington, D.C.-based jazz saxophonist Davey Yarborough and shouldn’t be confused with the actress who appeared in all those MGM musicals in the ’40s and ’50s). And it is good to see Inside of Me reissued on CD after being out of print for many years. – AllMusic Review by Alex Henderson

EAC Log
Exact Audio Copy V1.0 beta 3 from 29. August 2011

EAC extraction logfile from 4. December 2012, 20:40

Esther Williams / Inside Of Me

Used drive : PIONEER DVD-RW DVR-212 Adapter: 2 ID: 0

Read mode : Secure
Utilize accurate stream : Yes
Defeat audio cache : Yes
Make use of C2 pointers : No

Read offset correction : 48
Overread into Lead-In and Lead-Out : No
Fill up missing offset samples with silence : Yes
Delete leading and trailing silent blocks : No
Null samples used in CRC calculations : Yes
Used interface : Native Win32 interface for Win NT & 2000

Used output format : User Defined Encoder
Selected bitrate : 896 kBit/s
Quality : High
Add ID3 tag : Yes
Command line compressor : C:Program FilesFLACflac.exe
Additional command line options : -V -8 -T "Date=%year%" -T "Genre=%genre%" %source%

TOC of the extracted CD

Track | Start | Length | Start sector | End sector
––––––––––––––––––––––––––––-
1 | 0:00.00 | 7:49.27 | 0 | 35201
2 | 7:49.27 | 3:55.14 | 35202 | 52840
3 | 11:44.41 | 3:40.70 | 52841 | 69410
4 | 15:25.36 | 3:40.27 | 69411 | 85937
5 | 19:05.63 | 4:27.71 | 85938 | 106033
6 | 23:33.59 | 5:56.20 | 106034 | 132753
7 | 29:30.04 | 3:42.24 | 132754 | 149427
8 | 33:12.28 | 3:38.67 | 149428 | 165844

Range status and errors

Selected range

Filename E:Import CDEsther Williams – Inside Of Me.wav

Peak level 99.7 %
Extraction speed 7.0 X
Range quality 100.0 %
Test CRC 341EE3DD
Copy CRC 341EE3DD
Copy OK

No errors occurred

AccurateRip summary

Track 1 not present in database
Track 2 not present in database
Track 3 not present in database
Track 4 not present in database
Track 5 not present in database
Track 6 not present in database
Track 7 not present in database
Track 8 not present in database

None of the tracks are present in the AccurateRip database

End of status report

==== Log checksum D9923E787BA4B75BB39B8507B6E8FD30AC587A7281C56C7240F34FB005682195 ====

Tracklist:
01. I’ll Be Your Pleasure [0:07:49.36]
02. Inside Of Me [0:03:55.18]
03. Make It With You [0:03:40.93]
04. You Are The Spice Of My Life [0:03:40.36]
05. You Can Use It [0:04:27.94]
06. Ready For Love [0:05:56.26]
07. Who Said It Was Wrong [0:03:42.32]
08. You Can Have It All [0:03:38.89]

Esther Williams – Inside Of Me (1981) [2011 FTG] Download, Warez, DDL, Free, Full Album, Torrent, Legal.

Download