Eric Tagg – Dream Walkin' (1982) Japanese Remastered Expanded Reissue 2015

Download
Eric Tagg - Dream Walkin' (1982) Japanese Remastered Expanded Reissue 2015

Eric Tagg – Dream Walkin’ (1982) Japanese Remastered Expanded Reissue 2015
EAC | FLAC | Tracks (Cue&Log) ~ 324 Mb (incl 5%) | Mp3 (CBR320) ~ 138 Mb (incl 5%) | Scans included
Genre: Soft Rock, Crossover Jazz | Label: Pony Canyon | # PCCY-50073 | Time: 00:46:21

A classic west coast album by the incredibly talented songwriter Eric Tagg. The album consists of L.A’s finest musicians & is packed with beautifully crafted & sentimental songs. Eric’s talent lies in writing songs with a sort of humorous twist to them. A little hard to explain, one should just take a close listen.
Also, the whole album is produced by Lee Ritenour & it sounds like a follow up to his own "Rit" album. If you liked Rit then don’t miss this offering. It’s much better…

Review by Tony Ammer, Allmusic.com User

Eric Tagg was fabulous studio keyboardist in the 70’s and 80’s, when in 1981 he hit it big, really big. The song "Is It You" (written by Bill Champlin, Eric Tagg, and Lee Ritenour) was Lee Ritenour’s only pop song, and was a minor pop hit, an amazing feat for a jazz guitarist.

The song featured, Eric Tagg’s breathy vocals, similar to Kenny Loggins, a smooth, subtle sound, and some nifty percusion hooks. In this outing, Eric Tagg replicates those same sounds and brings together some superb musicians such as Lee Ritenour, Don Grusin, David Foster, Greg Mathison, Abraham Laboriel, Tom Scott, and Chuck Finley, not to mention Bill Champlin on backing vocals.

The CD is excellent, well produced (by Lee Ritenour) and epidomizes the smooth jazz adult contemporary sound of Eric Tagg. All songs were written by Eric Tagg, and the CD is an even mixture of rhythmic grooves and ballads, with the classic percussion hooks Tagg is known for.

The only fault of the CD is that it might be a tad over-produced and understated, with the musicianship buried in the mix, as no one steps out and realy solos.

If you liked "Is It You?" from the "Rit" CD, you will love this CD.

Review by Scooter, Amazon.com

If there’s such a thing as unsung heroes of the soft rock/adult contemporary genre, right near the top of the list would be Eric Tagg. Although he’s not as known as his contemporaries within the genre, he is still lauded as an exceptional talent. The Texas native initially got his start playing in a few bands in his local hometown up until 1975. That’s when he relocated overseas to release his debut "Smilin’ Memories". He followed it up with his sophomore effort "Rendez-Vous". While he had some success across the pond, things didn’t exactly break through for him in the States. That all changed in 1981, when he appeared on jazz guitarist Lee Ritenour’s album "Rit". It instantly spawned a top 20 hit with the ballad "Is It You" on which Eric sang lead vocals. A year later, Ritenour released the follow-up "Rit 2", in which Eric sat in for another session- this time appearing on a handful of songs. Around that same time, he issued his third recording "Dream Walkin’" in Japan.

What makes this record great- aside from the songwriting- is the production value. The producer repsonsible for the sound of the album is Tagg’s mentor Lee Ritenour. Almost all of the songs are new material, save for "Promises Promises" and "Dream Walkin’"- both of which have appeared on Ritenour’s album "Rit 2". The album starts off with the uptempo "No One There", a song in which Eric laments losing someone who has since moved on. On "Marianne (I Was Only Joking)", he sings about playing a practical joke on his significant other which eventually backfired. He sings about trying to salvage a relationship from a one night stand on "A Bigger Love", and shows indifference to a seemingly emotional woman on "Crybaby". He compares romance to foreign confection on "Marzipan" and closes the album with a cover of "Maos De Afeto" by the Brazilian jazz musician Ivan Lins. As great as this album was, unfortunately Tagg would later leave the music scene to become a man of the cloth. As revered as this album is, it’s hard to find as it was released only in the Japanese market. It has since been reissued in 2006 and became out of print once again. If one happens to stumble across Eric Tagg’s "Dream Walkin’", make it a point to get this album. It’s one of those records that deserve to be heard by many people.

Review by Perverted Alchemist, Amazon.com

Tracklist:

01. No One There (03:35)
02. Marianne (04:12)
03. Promises Promises (04:34)
04. Dreamwalkin’ (04:28)
05. In The Way (03:22)
06. A Bigger Love (04:43)
07. Crybaby (04:11)
08. Just Another Dream (03:49)
09. Marzipan (04:10)
10. Maos De Afeto (04:23)
11. Round The Corner (bonus track) (04:48)

EAC log
Exact Audio Copy V1.0 beta 2 from 29. April 2011

Отчёт EAC об извлечении, выполненном 5. февраля 2017, 11:19

Eric Tagg / Dream Walkin

Дисковод: PLEXTOR BDDVDRPX-B330SA Adapter: 0 ID: 1

Режим чтения : Достоверность
Использование точного потока : Да
Отключение кэша аудио : Да
Использование указателей C2 : Нет

Коррекция смещения при чтении : 702
Способность читать области Lead-in и Lead-out : Нет
Заполнение пропущенных сэмплов тишиной : Да
Удаление блоков с тишиной в начале и конце : Нет
При вычислениях CRC использовались нулевые сэмплы : Да
Интерфейс : Встроенный Win32-интерфейс для Win NT/2000
Обработка зазоров : Добавлено к предыдущему треку

Выходной формат : Пользовательский кодировщик
Выбранный битрейт : 128 kBit/s
Качество : Высокий
Добавление ID3-тега : Нет
Утилита сжатия : C:Program FilesExact Audio CopyFLACFLAC.EXE
Дополнительные параметры : -6 -V -T "ARTIST=%artist%" -T "TITLE=%title%" -T "ALBUM=%albumtitle%" -T "DATE=%year%" -T "TRACKNUMBER=%tracknr%" -T "GENRE=%genre%" -T "COMMENT=%comment%" -T "BAND=%albuminterpret%" -T "COMPOSER=%composer%" %haslyrics%–tag-from-

TOC извлечённого CD

Трек | Старт | Длительность | Начальный сектор | Конечный сектор
––––––––––––––––––––––––––––––––––-
1 | 0:00.00 | 3:35.52 | 0 | 16176
2 | 3:35.52 | 4:12.61 | 16177 | 35137
3 | 7:48.38 | 4:34.64 | 35138 | 55751
4 | 12:23.27 | 4:28.43 | 55752 | 75894
5 | 16:51.70 | 3:22.25 | 75895 | 91069
6 | 20:14.20 | 4:43.45 | 91070 | 112339
7 | 24:57.65 | 4:11.09 | 112340 | 131173
8 | 29:08.74 | 3:49.46 | 131174 | 148394
9 | 32:58.45 | 4:10.22 | 148395 | 167166
10 | 37:08.67 | 4:23.61 | 167167 | 186952
11 | 41:32.53 | 4:48.43 | 186953 | 208595

Трек 1

Имя файла D:FLAC1 No One There.wav

Длина предзазора 0:00:02.00

Пиковый уровень 99.2 %
Скорость извлечения 3.9 X
Качество трека 100.0 %
CRC теста 91D8688D
CRC копии 91D8688D
Точное извлечение (достоверность 2) [938DC88B] (AR v2)
Копирование… OK

Трек 2

Имя файла D:FLAC2 Marianne.wav

Длина предзазора 0:00:01.08

Пиковый уровень 99.2 %
Скорость извлечения 4.6 X
Качество трека 100.0 %
CRC теста 0B5F4E60
CRC копии 0B5F4E60
Точное извлечение (достоверность 2) [23AB7585] (AR v2)
Копирование… OK

Трек 3

Имя файла D:FLAC3 Promises Promises.wav

Длина предзазора 0:00:00.14

Пиковый уровень 99.2 %
Скорость извлечения 4.7 X
Качество трека 99.9 %
CRC теста 7183B620
CRC копии 7183B620
Точное извлечение (достоверность 2) [EAD70B40] (AR v2)
Копирование… OK

Трек 4

Имя файла D:FLAC4 Dreamwalkin’.wav

Длина предзазора 0:00:00.17

Пиковый уровень 99.2 %
Скорость извлечения 5.0 X
Качество трека 99.9 %
CRC теста 099E6240
CRC копии 099E6240
Точное извлечение (достоверность 2) [E9A6E2C3] (AR v2)
Копирование… OK

Трек 5

Имя файла D:FLAC5 In The Way.wav

Длина предзазора 0:00:01.04

Пиковый уровень 99.2 %
Скорость извлечения 5.5 X
Качество трека 100.0 %
CRC теста A4C5C0EA
CRC копии A4C5C0EA
Точное извлечение (достоверность 2) [1A1750C5] (AR v2)
Копирование… OK

Трек 6

Имя файла D:FLAC6 A Bigger Love.wav

Длина предзазора 0:00:02.64

Пиковый уровень 99.2 %
Скорость извлечения 6.3 X
Качество трека 100.0 %
CRC теста 72E96C80
CRC копии 72E96C80
Точное извлечение (достоверность 2) [164EEFF7] (AR v2)
Копирование… OK

Трек 7

Имя файла D:FLAC7 Crybaby.wav

Длина предзазора 0:00:00.45

Пиковый уровень 99.2 %
Скорость извлечения 6.6 X
Качество трека 100.0 %
CRC теста 1E381C71
CRC копии 1E381C71
Точное извлечение (достоверность 2) [F7FCE2FD] (AR v2)
Копирование… OK

Трек 8

Имя файла D:FLAC8 Just Another Dream.wav

Пиковый уровень 99.2 %
Скорость извлечения 6.4 X
Качество трека 100.0 %
CRC теста A3D725BD
CRC копии A3D725BD
Точное извлечение (достоверность 2) [6FF86FF7] (AR v2)
Копирование… OK

Трек 9

Имя файла D:FLAC9 Marzipan.wav

Длина предзазора 0:00:00.65

Пиковый уровень 99.2 %
Скорость извлечения 6.2 X
Качество трека 99.9 %
CRC теста 797B08E6
CRC копии 797B08E6
Точное извлечение (достоверность 2) [A534AE76] (AR v2)
Копирование… OK

Трек 10

Имя файла D:FLAC10 Maos De Afeto.wav

Длина предзазора 0:00:01.06

Пиковый уровень 95.8 %
Скорость извлечения 7.4 X
Качество трека 100.0 %
CRC теста E872ED23
CRC копии E872ED23
Точное извлечение (достоверность 2) [14D14DCC] (AR v2)
Копирование… OK

Трек 11

Имя файла D:FLAC11 Round The Corner (bonus track).wav

Длина предзазора 0:00:02.45

Пиковый уровень 99.2 %
Скорость извлечения 4.7 X
Качество трека 100.0 %
CRC теста 3B0A7B81
CRC копии 3B0A7B81
Точное извлечение (достоверность 2) [C6705CA3] (AR v2)
Копирование… OK

Все треки извлечены точно

Ошибок не произошло

Конец отчёта

–– CUETools DB Plugin V2.1.4

[CTDB TOCID: DQ5QWoJkDc0W6AsVq3LQWg9SA1A-] found
Submit result: DQ5QWoJkDc0W6AsVq3LQWg9SA1A- has been confirmed
Track | CTDB Status
1 | (6/6) Accurately ripped
2 | (6/6) Accurately ripped
3 | (6/6) Accurately ripped
4 | (6/6) Accurately ripped
5 | (6/6) Accurately ripped
6 | (6/6) Accurately ripped
7 | (6/6) Accurately ripped
8 | (6/6) Accurately ripped
9 | (6/6) Accurately ripped
10 | (6/6) Accurately ripped
11 | (6/6) Accurately ripped

==== Контрольная сумма отчёта 76EF6168FA9B89556FC0B0B9702C39F01C1B0EE2F98A96C97D45351307FC2121 ====

DR log
foobar2000 1.2 / Dynamic Range Meter 1.1.1
log date: 2017-02-05 19:57:36

––––––––––––––––––––––––––––––––––––––––
Analyzed: Eric Tagg / Dream Walkin
––––––––––––––––––––––––––––––––––––––––

DR Peak RMS Duration Track
––––––––––––––––––––––––––––––––––––––––
DR10 -0.07 dB -12.21 dB 3:36 01-No One There
DR11 -0.07 dB -13.01 dB 4:13 02-Marianne
DR9 -0.07 dB -10.94 dB 4:35 03-Promises Promises
DR12 -0.07 dB -15.20 dB 4:29 04-Dreamwalkin’
DR10 -0.07 dB -12.43 dB 3:22 05-In The Way
DR10 -0.07 dB -12.40 dB 4:44 06-A Bigger Love
DR11 -0.07 dB -11.97 dB 4:11 07-Crybaby
DR10 -0.07 dB -12.71 dB 3:50 08-Just Another Dream
DR10 -0.07 dB -12.20 dB 4:10 09-Marzipan
DR11 -0.37 dB -15.78 dB 4:24 10-Maos De Afeto
DR10 -0.07 dB -11.87 dB 4:49 11-Round The Corner (bonus track)
––––––––––––––––––––––––––––––––––––––––

Number of tracks: 11
Official DR value: DR10

Samplerate: 44100 Hz
Channels: 2
Bits per sample: 16
Bitrate: 942 kbps
Codec: FLAC
================================================================================

Eric Tagg - Dream Walkin' (1982) Japanese Remastered Expanded Reissue 2015

Eric Tagg - Dream Walkin' (1982) Japanese Remastered Expanded Reissue 2015

All thanks to original releaser – teimuraz67

More interesting music in My Blog

Eric Tagg – Dream Walkin' (1982) Japanese Remastered Expanded Reissue 2015 Download, Warez, DDL, Free, Full Album, Torrent, Legal.

Download