Eric Andersen – Blue River / Stages: The Lost Album (2014) | ViralVideoPk

Daily Dose of Free Downloads

Eric Andersen – Blue River / Stages: The Lost Album (2014)

Download

Eric Andersen - Blue River / Stages: The Lost Album (2014)

Eric Andersen – Blue River / Stages: The Lost Album (2014)
EAC | FLAC (image+.cue, log) | Covers Included | 01:44:34 | 682 MB
Genre: Folk-Rock | Label: BGO Records | Catalog: BGOCD 1159

This 2014 BGO two-fer pairs 1972’s Blue River and Stages: The Lost Album, largely recorded in 1972 but released in 1991. It’s a nice pairing, containing Andersen’s acclaimed Columbia debut and the record he cut for the label immediately afterward, a record the label didn’t release until two decades later. Andersen made good records before and good records after, but these two albums are arguably his peak and it’s nice to have them together on a two-fer.

AllMusic

Eric Andersen - Blue River / Stages: The Lost Album (2014)

Track List:

Disc One, Blue River, 1972
01. "Is It Really Love at All" (Andersen) – 5:21
02. "Pearl’s Goodtime Blues" (Andersen) – 2:21
03. "Wind and Sand" (Andersen) – 4:30
04. "Faithful" (Andersen) – 3:15
05. "Blue River" (Andersen) – 4:46
06. "Florentine" (Andersen) – 3:31
07. "Sheila" (Andersen) – 4:37
08. "More Often Than Not" (David Wiffen) – 4:52
09. "Round the Bend" (Andersen) – 5:38
10. "Come To My Bedside, My Darlin’" (Andersen) – 4:58
11. "Why Don’t You Love Me" (Hank Williams) – 2:54

Line-Up:
Eric Andersen – acoustic guitar, electric guitar, piano, harmonica, vocals
David Bromberg – dobro, acoustic guitar
Andy Johnson – electric guitar, acoustic guitar, vibraphone, background vocals
David Briggs – organ, keyboards, celeste
Weldon Myrick – steel guitar
Norbert Putnam – bass
Glen Spreen – organ, harpsichord, keyboards, woodwinds
Eddie Hinton – acoustic guitar, electric guitar
Grady Martin – gut string guitar, acoustic guitar
Kevin Kelly – accordion
Mark Sporer – bass
Kenneth Buttrey – drums, percussion, tambourine
Jim McKevitt – drums
Rick Shlosser – drums
Deborah Andersen – piano, background vocals
Joni Mitchell – vocals, background vocals
Farrell Morris – vibraphone, background vocals
Jerry Carrigan – percussion
Millie Kirkham – background vocals
Sonja Montgomery – background vocals
Laverna Moore – background vocals
Florence Warner – background vocals
Temple Riser – background vocals
The Jordanaires – background vocals
The Holidays – background vocals

EAC Log
Exact Audio Copy V1.1 from 23. June 2015

EAC extraction logfile from 25. December 2016, 23:19

Eric Andersen / Blue River

Used drive : ASUS BW-12D1S-U Adapter: 1 ID: 1

Read mode : Secure
Utilize accurate stream : Yes
Defeat audio cache : Yes
Make use of C2 pointers : No

Read offset correction : 667
Overread into Lead-In and Lead-Out : No
Fill up missing offset samples with silence : Yes
Delete leading and trailing silent blocks : No
Null samples used in CRC calculations : Yes
Used interface : Native Win32 interface for Win NT & 2000

Used output format : User Defined Encoder
Selected bitrate : 1024 kBit/s
Quality : High
Add ID3 tag : No
Command line compressor : C:Program Files (x86)Exact Audio CopyFLACFLAC.EXE
Additional command line options : -6 -V -T "ARTIST=%artist%" -T "TITLE=%title%" -T "ALBUM=%albumtitle%" -T "DATE=%year%" -T "TRACKNUMBER=%tracknr%" -T "GENRE=%genre%" -T "COMMENT=%comment%" -T "BAND=%albuminterpret%" -T "ALBUMARTIST=%albuminterpret%" -T "COMPOSER=%composer%" %haslyrics%–tag-from-file=LYRICS="%lyricsfile%"%haslyrics% -T "DISCNUMBER=%cdnumber%" -T "TOTALDISCS=%totalcds%" -T "TOTALTRACKS=%numtracks%" %hascover%–picture="%coverfile%"%hascover% %source% -o %dest%

TOC of the extracted CD

Track | Start | Length | Start sector | End sector
––––––––––––––––––––––––––––-
1 | 0:00.00 | 5:22.63 | 0 | 24212
2 | 5:22.63 | 2:22.02 | 24213 | 34864
3 | 7:44.65 | 4:29.60 | 34865 | 55099
4 | 12:14.50 | 3:16.19 | 55100 | 69818
5 | 15:30.69 | 4:45.72 | 69819 | 91265
6 | 20:16.66 | 3:31.37 | 91266 | 107127
7 | 23:48.28 | 4:36.67 | 107128 | 127894
8 | 28:25.20 | 4:53.31 | 127895 | 149900
9 | 33:18.51 | 5:50.30 | 149901 | 176180
10 | 39:09.06 | 5:00.60 | 176181 | 198740
11 | 44:09.66 | 2:45.42 | 198741 | 211157

Range status and errors

Selected range

Filename C:UsersAlexandreDownloadsTorrents of AutumnAndersen, Eric [1972] Blue RiverAndersen, Eric [1972] Blue River.wav

Peak level 100.0 %
Extraction speed 7.2 X
Range quality 100.0 %
Test CRC 24AE452B
Copy CRC 24AE452B
Copy OK

No errors occurred

AccurateRip summary

Track 1 cannot be verified as accurate (confidence 1) [713F578D], AccurateRip returned [B3CD0B52] (AR v2)
Track 2 cannot be verified as accurate (confidence 1) [74955ECF], AccurateRip returned [85A08396] (AR v2)
Track 3 cannot be verified as accurate (confidence 1) [39E50FC6], AccurateRip returned [0CB2159D] (AR v2)
Track 4 cannot be verified as accurate (confidence 1) [EE0C30D0], AccurateRip returned [EA0F2228] (AR v2)
Track 5 cannot be verified as accurate (confidence 1) [A8D509BD], AccurateRip returned [EE30114E] (AR v2)
Track 6 cannot be verified as accurate (confidence 1) [7951EEA4], AccurateRip returned [5B186BC7] (AR v2)
Track 7 cannot be verified as accurate (confidence 1) [EB3EF0D7], AccurateRip returned [E5EC0CF6] (AR v2)
Track 8 cannot be verified as accurate (confidence 1) [2D3509A7], AccurateRip returned [88B71827] (AR v2)
Track 9 cannot be verified as accurate (confidence 1) [F2D2EE9E], AccurateRip returned [56F6F565] (AR v2)
Track 10 cannot be verified as accurate (confidence 1) [F0BD088D], AccurateRip returned [AEC40DA6] (AR v2)
Track 11 cannot be verified as accurate (confidence 1) [CA112D83], AccurateRip returned [A28D759F] (AR v2)

No tracks could be verified as accurate
You may have a different pressing from the one(s) in the database

End of status report

–– CUETools DB Plugin V2.1.6

[CTDB TOCID: iD6yKcQ0OvkAQv4h8LtAuIj8Fa0-] found
Submit result: iD6yKcQ0OvkAQv4h8LtAuIj8Fa0- has been confirmed
Track | CTDB Status
1 | (4/4) Accurately ripped
2 | (4/4) Accurately ripped
3 | (4/4) Accurately ripped
4 | (4/4) Accurately ripped
5 | (4/4) Accurately ripped
6 | (4/4) Accurately ripped
7 | (4/4) Accurately ripped
8 | (4/4) Accurately ripped
9 | (4/4) Accurately ripped
10 | (4/4) Accurately ripped
11 | (4/4) Accurately ripped

CUETools Log
[CUETools log; Date: 27.12.2016 10:30:36; Version: 2.1.5]
[CTDB TOCID: iD6yKcQ0OvkAQv4h8LtAuIj8Fa0-] found.
Track | CTDB Status
1 | (5/5) Accurately ripped
2 | (5/5) Accurately ripped
3 | (5/5) Accurately ripped
4 | (5/5) Accurately ripped
5 | (5/5) Accurately ripped
6 | (5/5) Accurately ripped
7 | (5/5) Accurately ripped
8 | (5/5) Accurately ripped
9 | (5/5) Accurately ripped
10 | (5/5) Accurately ripped
11 | (5/5) Accurately ripped
[AccurateRip ID: 0013043b-00a5ed17-770aff0b] found.
Track [ CRC | V2 ] Status
01 [f89c5e9a|713f578d] (0+0/1) No match
02 [d3c50c63|74955ecf] (0+0/1) No match
03 [be866779|39e50fc6] (0+0/1) No match
04 [4ed2101b|ee0c30d0] (0+0/1) No match
05 [3ae23583|a8d509bd] (0+0/1) No match
06 [ed6716d0|7951eea4] (0+0/1) No match
07 [3e3396e6|eb3ef0d7] (0+0/1) No match
08 [65bf8876|2d3509a7] (0+0/1) No match
09 [22fa078d|f2d2ee9e] (0+0/1) No match
10 [574afd96|f0bd088d] (0+0/1) No match
11 [98536bdd|ca112d83] (0+0/1) No match
Offsetted by -12:
01 [365809ca] (0/1) No match (V2 was not tested)
02 [e2a81f27] (0/1) No match (V2 was not tested)
03 [8cfbbfe5] (0/1) No match (V2 was not tested)
04 [47ad2eff] (0/1) No match (V2 was not tested)
05 [7bad482f] (0/1) No match (V2 was not tested)
06 [cbfc63dc] (0/1) No match (V2 was not tested)
07 [3486bdae] (0/1) No match (V2 was not tested)
08 [bc9687aa] (0/1) No match (V2 was not tested)
09 [81bbe321] (0/1) No match (V2 was not tested)
10 [106a24be] (0/1) No match (V2 was not tested)
11 [6e3e8b79] (0/1) No match (V2 was not tested)

Track Peak [ CRC32 ] [W/O NULL] [ LOG ]
– 100,0 [24AE452B] [4424472B] CRC32
01 97,1 [FAC79F56] [3DB930C9]
02 100,0 [7629D258] [58603971]
03 100,0 [D6128482] [91B6DB40]
04 95,4 [D207C49C] [C6AA4959]
05 100,0 [6CC2D62D] [06B4CD88]
06 100,0 [8562499E] [07AB0163]
07 94,8 [19267ACF] [71A2899D]
08 100,0 [5585DE0F] [C78BEF9E]
09 100,0 [43EB360D] [C0CB0C0D]
10 100,0 [63681D52] [C8E02D61]
11 100,0 [50E7F2C2] [56414E56]

Disc Two, Stages: The Lost Album, 1972-1973; 1990
01. "Baby, I’m Lonesome" (Andersen) – 3:17
02. "Moonchild River Song" (Andersen) – 4:20
03. "Can’t Get You Out of My Life" (Andersen) – 2:54
04. "Woman, She Was Gentle" (Andersen) – 4:18
05. "Time Run Like a Freight Train" (Andersen) – 8:29
06. "It’s Been a Long Time" (Andersen) – 3:21
07. "Wild Crow Blues" (Andersen) – 6:10
08. "Be True to You" (Andersen) – 3:07
09. "I Love to Sing My Ballad, Mama" (Andersen) – 2:56
10. "Dream to Rimbaud" (Andersen) – 6:23
11. "Make It Last (Angel in the Wind) (Andersen) – 4:51
12. "Lie with Me" (Andersen) – 3:50
13. "Soul of My Song" (Andersen, Jonas Fjeld, Willie Nile, Ole Paus) – 3:55

Line-Up:
Eric Andersen – acoustic guitar, electric guitar, piano, harmonica, vocals
Andy Johnson – acoustic guitar
Leon Russell – organ, piano, guitar
David Briggs – piano, Hammond organ, clavinet
Rick Danko – bass guitar, background vocals
Garth Hudson – accordion
Pete Drake – steel guitar
Weldon Myrick – pedal steel guitar
Norbert Putnam – upright bass, cello
Eddie Hinton – acoustic guitar
Grady Martin – gut string guitar, acoustic guitar
Joe Spivey – acoustic guitar, fiddle
Kenny Malone – drums, percussion
Kenneth Buttrey – drums
Deborah Andersen – piano, background vocals
Farrell Morris – percussion
Steve Addabbo – synthesizer
Eric Bazilian – mandolin, concertina, background vocals
Tommy Cosgrove – bass guitar
Teddy Irwin – acoustic guitar
Mike Leech – bass
Charlie McCoy – percussion
Andy Newmark – drums
Willie Nile – electric guitar
Troy Seals – electric guitar
Glen Spreen – Hammond organ
Reggie Young – electric guitar
Jonas Fjeld – acoustic guitar, electric piano
Dan Fogelberg – background vocals
Joan Baez – background vocals
Shawn Colvin – background vocals
Florence Warner – background vocals

EAC Log
Exact Audio Copy V1.1 from 23. June 2015

EAC extraction logfile from 25. December 2016, 23:46

Eric Andersen / Stages: The Lost Album

Used drive : ASUS BW-12D1S-U Adapter: 1 ID: 1

Read mode : Secure
Utilize accurate stream : Yes
Defeat audio cache : Yes
Make use of C2 pointers : No

Read offset correction : 667
Overread into Lead-In and Lead-Out : No
Fill up missing offset samples with silence : Yes
Delete leading and trailing silent blocks : No
Null samples used in CRC calculations : Yes
Used interface : Native Win32 interface for Win NT & 2000

Used output format : User Defined Encoder
Selected bitrate : 1024 kBit/s
Quality : High
Add ID3 tag : No
Command line compressor : C:Program Files (x86)Exact Audio CopyFLACFLAC.EXE
Additional command line options : -6 -V -T "ARTIST=%artist%" -T "TITLE=%title%" -T "ALBUM=%albumtitle%" -T "DATE=%year%" -T "TRACKNUMBER=%tracknr%" -T "GENRE=%genre%" -T "COMMENT=%comment%" -T "BAND=%albuminterpret%" -T "ALBUMARTIST=%albuminterpret%" -T "COMPOSER=%composer%" %haslyrics%–tag-from-file=LYRICS="%lyricsfile%"%haslyrics% -T "DISCNUMBER=%cdnumber%" -T "TOTALDISCS=%totalcds%" -T "TOTALTRACKS=%numtracks%" %hascover%–picture="%coverfile%"%hascover% %source% -o %dest%

TOC of the extracted CD

Track | Start | Length | Start sector | End sector
––––––––––––––––––––––––––––-
1 | 0:00.00 | 3:20.22 | 0 | 15021
2 | 3:20.22 | 4:21.30 | 15022 | 34626
3 | 7:41.52 | 2:55.60 | 34627 | 47811
4 | 10:37.37 | 4:20.13 | 47812 | 67324
5 | 14:57.50 | 8:30.25 | 67325 | 105599
6 | 23:28.00 | 3:21.52 | 105600 | 120726
7 | 26:49.52 | 6:12.00 | 120727 | 148626
8 | 33:01.52 | 3:09.48 | 148627 | 162849
9 | 36:11.25 | 2:58.07 | 162850 | 176206
10 | 39:09.32 | 6:26.33 | 176207 | 205189
11 | 45:35.65 | 4:52.65 | 205190 | 227154
12 | 50:28.55 | 3:52.57 | 227155 | 244611
13 | 54:21.37 | 3:55.55 | 244612 | 262291

Range status and errors

Selected range

Filename C:UsersAlexandreDownloadsTorrents of AutumnAndersen, Eric [2014] Blue River & Stages~ The Lost Album (digitally remastered)Andersen, Eric [1973 & 1991] Stages~ The Lost Album.wav

Peak level 100.0 %
Extraction speed 7.4 X
Range quality 100.0 %
Test CRC 5B65C4A5
Copy CRC 5B65C4A5
Copy OK

No errors occurred

AccurateRip summary

Track 1 cannot be verified as accurate (confidence 14) [8D2AD218], AccurateRip returned [792829D8] (AR v2)
Track 2 cannot be verified as accurate (confidence 14) [FED2A709], AccurateRip returned [F80D6E56] (AR v2)
Track 3 cannot be verified as accurate (confidence 12) [0A7B9412], AccurateRip returned [714E0BAB] (AR v2)
Track 4 cannot be verified as accurate (confidence 13) [B2A83D17], AccurateRip returned [C028FC30] (AR v2)
Track 5 cannot be verified as accurate (confidence 13) [D4BA5EBC], AccurateRip returned [4AF0027F] (AR v2)
Track 6 cannot be verified as accurate (confidence 14) [12A65980], AccurateRip returned [70FF67EC] (AR v2)
Track 7 cannot be verified as accurate (confidence 14) [458A73CB], AccurateRip returned [94D5ED29] (AR v2)
Track 8 cannot be verified as accurate (confidence 14) [5EACA77C], AccurateRip returned [CCA35185] (AR v2)
Track 9 cannot be verified as accurate (confidence 14) [89F1DAD5], AccurateRip returned [2797C417] (AR v2)
Track 10 cannot be verified as accurate (confidence 14) [FB0A6746], AccurateRip returned [2F03FE29] (AR v2)
Track 11 cannot be verified as accurate (confidence 14) [0F1302A1], AccurateRip returned [1A67D0AA] (AR v2)
Track 12 cannot be verified as accurate (confidence 15) [1937218C], AccurateRip returned [9B46EC4F] (AR v2)
Track 13 cannot be verified as accurate (confidence 14) [E0CC3AFA], AccurateRip returned [83D6775F] (AR v2)

No tracks could be verified as accurate
You may have a different pressing from the one(s) in the database

End of status report

–– CUETools DB Plugin V2.1.6

[CTDB TOCID: NKqbL7I7njmCMAQz0ZkdVDUF.uM-] found
Submit result: NKqbL7I7njmCMAQz0ZkdVDUF.uM- has been confirmed
Track | CTDB Status
1 | ( 4/16) Accurately ripped
2 | ( 4/16) Accurately ripped
3 | ( 4/16) Accurately ripped
4 | ( 4/16) Accurately ripped
5 | ( 4/16) Accurately ripped
6 | ( 4/16) Accurately ripped
7 | ( 4/16) Accurately ripped
8 | ( 4/16) Accurately ripped
9 | ( 4/16) Accurately ripped
10 | ( 4/16) Accurately ripped
11 | ( 4/16) Accurately ripped
12 | ( 4/16) Accurately ripped
13 | ( 4/16) Accurately ripped

CUETools Log
[CUETools log; Date: 27.12.2016 10:31:00; Version: 2.1.5]
[CTDB TOCID: NKqbL7I7njmCMAQz0ZkdVDUF.uM-] found.
Track | CTDB Status
1 | ( 5/17) Accurately ripped
2 | ( 5/17) Accurately ripped
3 | ( 5/17) Accurately ripped
4 | ( 5/17) Accurately ripped
5 | ( 5/17) Accurately ripped
6 | ( 5/17) Accurately ripped
7 | ( 5/17) Accurately ripped
8 | ( 5/17) Accurately ripped
9 | ( 5/17) Accurately ripped
10 | ( 5/17) Accurately ripped
11 | ( 5/17) Accurately ripped
12 | ( 5/17) Accurately ripped
13 | ( 5/17) Accurately ripped
[AccurateRip ID: 001bbdbe-0118a49a-a20da90d] found.
Track [ CRC | V2 ] Status
01 [d4711e70|8d2ad218] (00+00/18) No match
02 [d23ce742|fed2a709] (00+00/18) No match
03 [c16b5f8b|0a7b9412] (00+00/16) No match
04 [7e1b21c7|b2a83d17] (00+00/17) No match
05 [4f0de90a|d4ba5ebc] (00+00/17) No match
06 [c4362c83|12a65980] (00+00/18) No match
07 [520226ac|458a73cb] (00+00/18) No match
08 [84084c22|5eaca77c] (00+00/18) No match
09 [d9e7e7ee|89f1dad5] (00+00/18) No match
10 [59305ac4|fb0a6746] (00+00/18) No match
11 [0ca589ca|0f1302a1] (00+00/18) No match
12 [ab9894d1|1937218c] (00+00/19) No match
13 [1af881b9|e0cc3afa] (00+00/18) No match

Track Peak [ CRC32 ] [W/O NULL] [ LOG ]
– 100,0 [5B65C4A5] [29146D5F] CRC32
01 100,0 [EC277888] [0905D155]
02 100,0 [F1808E48] [429EC9A5]
03 100,0 [F517F8F1] [A83A1413]
04 100,0 [4115AF2C] [97681D20]
05 98,0 [841D2C49] [93576A2B]
06 95,5 [B54C37DB] [3B8B0135]
07 94,4 [8309F294] [8603F2B5]
08 100,0 [5AB26D2D] [FF19558D]
09 79,4 [B411802B] [F71234AD]
10 85,3 [499EAC0F] [3666B3A0]
11 79,4 [CD3CE670] [AC317DE8]
12 79,4 [E090E1F0] [BB899729]
13 79,4 [DF2315D6] [116F2910]

Eric Andersen - Blue River / Stages: The Lost Album (2014)

Thanks to the Original ripper (unknown)!

Download:

Eric Andersen – Blue River / Stages: The Lost Album (2014) Download, Warez, DDL, Free, Full Album, Torrent, Legal.

Download


  • Recent Posts

  • Recent Tags