Ensemble Daedalus, Roberto Festa – Canzoni Villanesche: Neapolitan Love Songs of the 16th century (2012)

Download
Ensemble Daedalus, Roberto Festa - Canzoni Villanesche: Neapolitan Love Songs of the 16th century (2012)

Ensemble Daedalus, Roberto Festa – Canzoni Villanesche: Neapolitan Love Songs of the 16th century (2012)
EAC | FLAC (tracks+.cue, log) | Covers Included | 02:04:20 | 614 MB
Genre: Classical, Vocal | Label: Accent | Catalog: ACC 24268

This double album from the Accent label collects two single recordings, one made in Ghent in 1994, the other in Corsica and Frankfurt in 2003 and 2005. The second shares only a few musicians with the first but is essentially made of the same stuff, so you might wonder what exactly is added. The pieces on the second CD are generally longer, more serious, and more intricate. But the more important answer is that the repertory involved is almost unknown, and any contribution to its recorded coverage is welcome. The pieces here, many of them by anonymous composers, poets, or even both, are convincingly presented in the notes by recorder player and director Roberto Festa as essentially anti-madrigals: they were compiled by publishers as brash, humorous, Southern Italian counterparts to the increasingly literary and experimental madrigals issuing from Northern courts. As such, they’re a great deal of fun, with many of the earlier pieces trafficking in delightfully bawdy sexual imagery vastly different from the subtle conceits of the madrigal. Like their Northern counterparts, these villanesche, which went by various names, underwent development as established composers tried out the form; a piece like Lasso’s Sto core mio se fosse di diamante (CD 2, track 16) has the harmonic subtlety of a mid-level madrigal. In general, though, this is high-spirited, simple, direct music, given a small but important dose of period percussion by Festa. Recommended for good Renaissance collections. – James Manheim

AllMusic

Ensemble Daedalus, Roberto Festa - Canzoni Villanesche: Neapolitan Love Songs of the 16th century (2012)

Track List:

CD 1:
01 Madonna tu me fai lo scorucciato 3:51
02 Villanella Ch’all’acqua vai 4:11
03 Venimo a salutarte a ‘sta contrata 4:06
04 ‘Sto core mio fosse di diamante 5:50
05 Madonna mia, la vostra alma bellezza 4:02
06 Boccuccia dolce chiu che canamielle 2:34
07 Voccuccia de no pierseco apreturo 3:58
08 Madonna non e piu lo tiempo antico 4:54
09 Chi la gagliarda, donne, vo imparare 4:24
10 Mentre il cuculo li suo cucu cantava 2:55
11 La villanella 1:51
12 Baciami, vita mia, baciami anchora 2:35
13 A quand’a quand’ haveva una vicina 3:44
14 La cortesia voi donne predicate 2:58
15 S’io dormo aggio gran male 5:47
16 ‘St’ amaro core mio e diventato 2:42

EAC Log
Exact Audio Copy V1.1 from 23. June 2015

EAC extraction logfile from 5. July 2017, 18:40

Ensemble Daedalus, Roberto Festa / Canzoni Villanesche alla Napolitana [CD1]

Used drive : HL-DT-STDVDRAM GP57EB40 Adapter: 1 ID: 1

Read mode : Secure
Utilize accurate stream : Yes
Defeat audio cache : Yes
Make use of C2 pointers : No

Read offset correction : 6
Overread into Lead-In and Lead-Out : No
Fill up missing offset samples with silence : Yes
Delete leading and trailing silent blocks : No
Null samples used in CRC calculations : Yes
Used interface : Native Win32 interface for Win NT & 2000
Gap handling : Appended to previous track

Used output format : User Defined Encoder
Selected bitrate : 1024 kBit/s
Quality : High
Add ID3 tag : No
Command line compressor : C:Program Files (x86)Exact Audio CopyFLACFLAC.EXE
Additional command line options : -6 -V -T "ARTIST=%artist%" -T "TITLE=%title%" -T "ALBUM=%albumtitle%" -T "DATE=%year%" -T "TRACKNUMBER=%tracknr%" -T "GENRE=%genre%" -T "COMMENT=%comment%" -T "BAND=%albuminterpret%" -T "ALBUMARTIST=%albuminterpret%" -T "COMPOSER=%composer%" %haslyrics%–tag-from-file=LYRICS="%lyricsfile%"%haslyrics% -T "DISCNUMBER=%cdnumber%" -T "TOTALDISCS=%totalcds%" -T "TOTALTRACKS=%numtracks%" %hascover%–picture="%coverfile%"%hascover% %source% -o %dest%

TOC of the extracted CD

Track | Start | Length | Start sector | End sector
––––––––––––––––––––––––––––-
1 | 0:00.32 | 3:52.28 | 32 | 17459
2 | 3:52.60 | 4:11.67 | 17460 | 36351
3 | 8:04.52 | 4:06.33 | 36352 | 54834
4 | 12:11.10 | 5:49.45 | 54835 | 81054
5 | 18:00.55 | 4:03.02 | 81055 | 99281
6 | 22:03.57 | 2:34.53 | 99282 | 110884
7 | 24:38.35 | 3:58.45 | 110885 | 128779
8 | 28:37.05 | 4:54.37 | 128780 | 150866
9 | 33:31.42 | 4:24.00 | 150867 | 170666
10 | 37:55.42 | 2:56.15 | 170667 | 183881
11 | 40:51.57 | 1:50.48 | 183882 | 192179
12 | 42:42.30 | 2:36.62 | 192180 | 203941
13 | 45:19.17 | 3:44.68 | 203942 | 220809
14 | 49:04.10 | 2:58.50 | 220810 | 234209
15 | 52:02.60 | 5:47.50 | 234210 | 260284
16 | 57:50.35 | 2:42.40 | 260285 | 272474

Track 1

Filename C:EAC1 Madonna tu me fai lo scorucciato.wav

Pre-gap length 0:00:02.42

Peak level 83.1 %
Extraction speed 1.1 X
Track quality 99.9 %
Test CRC 6E317F87
Copy CRC 6E317F87
Cannot be verified as accurate (confidence 3) [BA8C35D6], AccurateRip returned [BAB81B5D] (AR v2)
Copy OK

Track 2

Filename C:EAC2 Villanella Ch’ all’ acqua vai.wav

Pre-gap length 0:00:04.57

Peak level 32.8 %
Extraction speed 1.4 X
Track quality 100.0 %
Test CRC 25D92DC3
Copy CRC 25D92DC3
Cannot be verified as accurate (confidence 3) [CCC98490], AccurateRip returned [AF116475] (AR v2)
Copy OK

Track 3

Filename C:EAC3 Venimo a salutarte a ‘sta contrata.wav

Pre-gap length 0:00:04.73

Peak level 97.7 %
Extraction speed 1.5 X
Track quality 100.0 %
Test CRC 243D7281
Copy CRC 243D7281
Cannot be verified as accurate (confidence 3) [481541BA], AccurateRip returned [71DBA794] (AR v2)
Copy OK

Track 4

Filename C:EAC4 ‘Sto core mio se fosse di diamante.wav

Pre-gap length 0:00:05.40

Peak level 27.6 %
Extraction speed 1.6 X
Track quality 99.9 %
Test CRC F5AB40F3
Copy CRC F5AB40F3
Cannot be verified as accurate (confidence 3) [3C3F6DE6], AccurateRip returned [99788042] (AR v2)
Copy OK

Track 5

Filename C:EAC5 Madonnia mia, la vostra alma belleza.wav

Pre-gap length 0:00:03.73

Peak level 62.9 %
Extraction speed 1.6 X
Track quality 99.9 %
Test CRC 1B792BBD
Copy CRC 1B792BBD
Cannot be verified as accurate (confidence 3) [9DB2548C], AccurateRip returned [7606D5B9] (AR v2)
Copy OK

Track 6

Filename C:EAC6 Boccucia dolce chiu che canamielle.wav

Pre-gap length 0:00:02.42

Peak level 39.1 %
Extraction speed 1.4 X
Track quality 99.9 %
Test CRC 4866B81A
Copy CRC 4866B81A
Cannot be verified as accurate (confidence 3) [1EA98245], AccurateRip returned [DE1F41F3] (AR v2)
Copy OK

Track 7

Filename C:EAC7 Voccuccia de no pierseco apreturo.wav

Pre-gap length 0:00:04.26

Peak level 97.7 %
Extraction speed 1.9 X
Track quality 100.0 %
Test CRC 067D37F2
Copy CRC 067D37F2
Cannot be verified as accurate (confidence 3) [8DBF7451], AccurateRip returned [DC96280B] (AR v2)
Copy OK

Track 8

Filename C:EAC8 Madonna non e piu lo tiempo antico.wav

Pre-gap length 0:00:01.80

Peak level 97.7 %
Extraction speed 1.8 X
Track quality 99.9 %
Test CRC 7B96FC4A
Copy CRC 7B96FC4A
Cannot be verified as accurate (confidence 3) [11897E84], AccurateRip returned [1CE1DC89] (AR v2)
Copy OK

Track 9

Filename C:EAC9 Chi la gagliarda, donne, vo imparare.wav

Pre-gap length 0:00:00.40

Peak level 97.7 %
Extraction speed 2.1 X
Track quality 100.0 %
Test CRC 3D545B44
Copy CRC 3D545B44
Cannot be verified as accurate (confidence 3) [01E3402F], AccurateRip returned [E6D8287F] (AR v2)
Copy OK

Track 10

Filename C:EAC10 Mentre il cuculo il suo cucu cantava.wav

Pre-gap length 0:00:02.26

Peak level 93.1 %
Extraction speed 2.0 X
Track quality 100.0 %
Test CRC 88CBF11D
Copy CRC 88CBF11D
Cannot be verified as accurate (confidence 3) [60A88E8B], AccurateRip returned [78E38D6E] (AR v2)
Copy OK

Track 11

Filename C:EAC11 La villanella.wav

Pre-gap length 0:00:00.73

Peak level 37.5 %
Extraction speed 1.9 X
Track quality 100.0 %
Test CRC 08B7732E
Copy CRC 08B7732E
Cannot be verified as accurate (confidence 3) [AADBB857], AccurateRip returned [E8A5C5DC] (AR v2)
Copy OK

Track 12

Filename C:EAC12 Baciami, vita mia, baciami anchora.wav

Pre-gap length 0:00:01.80

Peak level 97.7 %
Extraction speed 2.1 X
Track quality 100.0 %
Test CRC 6E1D19BE
Copy CRC 6E1D19BE
Cannot be verified as accurate (confidence 3) [7E4F9F31], AccurateRip returned [5F4577D2] (AR v2)
Copy OK

Track 13

Filename C:EAC13 A Quand’ A Quand’ haveva una vicina.wav

Pre-gap length 0:00:01.93

Peak level 92.4 %
Extraction speed 2.3 X
Track quality 100.0 %
Test CRC 859EBF18
Copy CRC 859EBF18
Cannot be verified as accurate (confidence 3) [5AD22190], AccurateRip returned [5D1558AD] (AR v2)
Copy OK

Track 14

Filename C:EAC14 La Cortesia voi donne predicate.wav

Pre-gap length 0:00:02.90

Peak level 14.8 %
Extraction speed 2.2 X
Track quality 100.0 %
Test CRC CE351067
Copy CRC CE351067
Cannot be verified as accurate (confidence 3) [E6EE6C93], AccurateRip returned [DB0D2CED] (AR v2)
Copy OK

Track 15

Filename C:EAC15 S’ io dormo aggio gran male.wav

Pre-gap length 0:00:00.24

Peak level 82.9 %
Extraction speed 2.5 X
Track quality 100.0 %
Test CRC 7B41DF78
Copy CRC 7B41DF78
Cannot be verified as accurate (confidence 3) [6BEAFF73], AccurateRip returned [DF3ABFD6] (AR v2)
Copy OK

Track 16

Filename C:EAC16 ‘St’ amaro core mio e diventato.wav

Pre-gap length 0:00:00.66

Peak level 46.4 %
Extraction speed 2.3 X
Track quality 100.0 %
Test CRC 4489575B
Copy CRC 4489575B
Cannot be verified as accurate (confidence 3) [EB85A651], AccurateRip returned [A5BDFAA4] (AR v2)
Copy OK

No tracks could be verified as accurate
You may have a different pressing from the one(s) in the database

No errors occurred

End of status report

–– CUETools DB Plugin V2.1.6

[CTDB TOCID: nNXMWOYAW.CIWyPPbbA2MXNTu5E-] found
Submit result: already submitted
Track | CTDB Status
1 | (3/3) Accurately ripped
2 | (3/3) Accurately ripped
3 | (3/3) Accurately ripped
4 | (3/3) Accurately ripped
5 | (3/3) Accurately ripped
6 | (3/3) Accurately ripped
7 | (3/3) Accurately ripped
8 | (3/3) Accurately ripped
9 | (3/3) Accurately ripped
10 | (3/3) Accurately ripped
11 | (3/3) Accurately ripped
12 | (3/3) Accurately ripped
13 | (3/3) Accurately ripped
14 | (3/3) Accurately ripped
15 | (3/3) Accurately ripped
16 | (3/3) Accurately ripped

==== Log checksum 9DC006327A22F3A694764048F0C77A80E04DFE9015FECD544DD9B0D591E73681 ====

CUETools Log
[CUETools log; Date: 31.07.2017 10:44:04; Version: 2.1.5]
Pregap length 00:00:32.
[CTDB TOCID: nNXMWOYAW.CIWyPPbbA2MXNTu5E-] found.
Track | CTDB Status
1 | (3/3) Accurately ripped
2 | (3/3) Accurately ripped
3 | (3/3) Accurately ripped
4 | (3/3) Accurately ripped
5 | (3/3) Accurately ripped
6 | (3/3) Accurately ripped
7 | (3/3) Accurately ripped
8 | (3/3) Accurately ripped
9 | (3/3) Accurately ripped
10 | (3/3) Accurately ripped
11 | (3/3) Accurately ripped
12 | (3/3) Accurately ripped
13 | (3/3) Accurately ripped
14 | (3/3) Accurately ripped
15 | (3/3) Accurately ripped
16 | (3/3) Accurately ripped
[AccurateRip ID: 0024e54f-01b4a708-d10e3110] found.
Track [ CRC | V2 ] Status
01 [cb4a0e1e|ba8c35d6] (0+0/5) No match
02 [3f472c34|ccc98490] (0+0/5) No match
03 [b6cbd801|481541ba] (0+0/5) No match
04 [f6a0648e|3c3f6de6] (0+0/5) No match
05 [2fc8d012|9db2548c] (0+0/5) No match
06 [d286ef17|1ea98245] (0+0/5) No match
07 [7e5172b2|8dbf7451] (0+0/5) No match
08 [1a526956|11897e84] (0+0/5) No match
09 [3297d112|01e3402f] (0+0/5) No match
10 [3bd6e88c|60a88e8b] (0+0/5) No match
11 [c1f63607|aadbb857] (0+0/5) No match
12 [4a4392f4|7e4f9f31] (0+0/5) No match
13 [82497cf4|5ad22190] (0+0/5) No match
14 [4fc26a1f|e6ee6c93] (0+0/5) No match
15 [bb12c373|6beaff73] (0+0/5) No match
16 [fea6a1a6|eb85a651] (0+0/5) No match
Offsetted by -658:
01 [4c38ef3e] (0/5) No match (V2 was not tested)
02 [e07860d0] (0/5) No match (V2 was not tested)
03 [34224d0b] (0/5) No match (V2 was not tested)
04 [4f7fbe60] (0/5) No match (V2 was not tested)
05 [eb7c7887] (0/5) No match (V2 was not tested)
06 [882a3938] (0/5) No match (V2 was not tested)
07 [c2809b80] (0/5) No match (V2 was not tested)
08 [d8faa36a] (0/5) No match (V2 was not tested)
09 [fc109cba] (0/5) No match (V2 was not tested)
10 [7d50a4cc] (0/5) No match (V2 was not tested)
11 [910f41fc] (0/5) No match (V2 was not tested)
12 [6b71ea9c] (0/5) No match (V2 was not tested)
13 [55e4b1ac] (0/5) No match (V2 was not tested)
14 [1b661919] (0/5) No match (V2 was not tested)
15 [ac66d16a] (0/5) No match (V2 was not tested)
16 [58a0e4f0] (0/5) No match (V2 was not tested)
Offsetted by 6:
01 [c9a03298] (0/5) No match (V2 was not tested)
02 [23868b1f] (0/5) No match (V2 was not tested)
03 [dea27494] (0/5) No match (V2 was not tested)
04 [56962bc7] (0/5) No match (V2 was not tested)
05 [0a05d08c] (0/5) No match (V2 was not tested)
06 [9333b4d8] (0/5) No match (V2 was not tested)
07 [cf0914fc] (0/5) No match (V2 was not tested)
08 [235922be] (0/5) No match (V2 was not tested)
09 [199fc68e] (0/5) No match (V2 was not tested)
10 [54fead5f] (0/5) No match (V2 was not tested)
11 [fedf6ca3] (0/5) No match (V2 was not tested)
12 [29fceb6e] (0/5) No match (V2 was not tested)
13 [82c5faf0] (0/5) No match (V2 was not tested)
14 [4546abdf] (0/5) No match (V2 was not tested)
15 [3120374b] (0/5) No match (V2 was not tested)
16 [ba26556f] (0/5) No match (V2 was not tested)

Track Peak [ CRC32 ] [W/O NULL] [ LOG ]
– 97,7 [8687CA01] [95BB9F10]
01 83,1 [6E317F87] [F066AC3F] CRC32
02 32,8 [25D92DC3] [A963BD10] CRC32
03 97,7 [243D7281] [726E72E6] CRC32
04 27,6 [F5AB40F3] [F8D92F83] CRC32
05 62,9 [1B792BBD] [7150890E] CRC32
06 39,1 [4866B81A] [7566F19D] CRC32
07 97,7 [067D37F2] [5290D979] CRC32
08 97,7 [7B96FC4A] [25772EDF] CRC32
09 97,7 [3D545B44] [E4123DC9] CRC32
10 93,1 [88CBF11D] [F866A324] CRC32
11 37,5 [08B7732E] [65C09CD9] CRC32
12 97,7 [6E1D19BE] [02B2BD76] CRC32
13 92,4 [859EBF18] [BF7CDFCB] CRC32
14 14,8 [CE351067] [50F29D53] CRC32
15 82,9 [7B41DF78] [27C92EB4] CRC32
16 46,4 [4489575B] [EA149345] CRC32

CD 2:
01 Sto calascione che me metto ’nzino 0:55
02 Deh, quando ti veggio 5:11
03 O Vecchia tu che guardi 2:52
04 Vorria, Madonna, fareti sapere 2:48
05 A colascione 2:38
06 O Lucia miau, miau 3:27
07 Deh! La morte de mariteto 4:46
08 Vorria ca fosse ciaola 4:38
09 Villanella ch‘all‘acqua vai 4:05
10 Jesce sole 1:08
11 Madonna non e piu lo tiempo antico 3:48
12 Che sia maldicta l’acqua 3:05
13 Voria, crudel, tornare 3:58
14 Recercar secondo 1:51
15 Caccia la vecchia fuora del campo 1:38
16 Sto core mio se fosse di diamante 5:49
17 Tu sai che la cornacchia 6:29
18 Nuttata ‘e sentimento 4:07

EAC Log
Exact Audio Copy V1.1 from 23. June 2015

EAC extraction logfile from 5. July 2017, 20:06

Ensemble Daedalus, Roberto Festa / Canzoni Villanesche alla Napolitana [CD2]

Used drive : HL-DT-STDVDRAM GP57EB40 Adapter: 1 ID: 1

Read mode : Secure
Utilize accurate stream : Yes
Defeat audio cache : Yes
Make use of C2 pointers : No

Read offset correction : 6
Overread into Lead-In and Lead-Out : No
Fill up missing offset samples with silence : Yes
Delete leading and trailing silent blocks : No
Null samples used in CRC calculations : Yes
Used interface : Native Win32 interface for Win NT & 2000
Gap handling : Appended to previous track

Used output format : User Defined Encoder
Selected bitrate : 1024 kBit/s
Quality : High
Add ID3 tag : No
Command line compressor : C:Program Files (x86)Exact Audio CopyFLACFLAC.EXE
Additional command line options : -6 -V -T "ARTIST=%artist%" -T "TITLE=%title%" -T "ALBUM=%albumtitle%" -T "DATE=%year%" -T "TRACKNUMBER=%tracknr%" -T "GENRE=%genre%" -T "COMMENT=%comment%" -T "BAND=%albuminterpret%" -T "ALBUMARTIST=%albuminterpret%" -T "COMPOSER=%composer%" %haslyrics%–tag-from-file=LYRICS="%lyricsfile%"%haslyrics% -T "DISCNUMBER=%cdnumber%" -T "TOTALDISCS=%totalcds%" -T "TOTALTRACKS=%numtracks%" %hascover%–picture="%coverfile%"%hascover% %source% -o %dest%

TOC of the extracted CD

Track | Start | Length | Start sector | End sector
––––––––––––––––––––––––––––-
1 | 0:00.00 | 0:55.16 | 0 | 4140
2 | 0:55.16 | 5:12.09 | 4141 | 27549
3 | 6:07.25 | 2:52.26 | 27550 | 40475
4 | 8:59.51 | 2:48.65 | 40476 | 53140
5 | 11:48.41 | 2:41.11 | 53141 | 65226
6 | 14:29.52 | 3:28.09 | 65227 | 80835
7 | 17:57.61 | 4:46.57 | 80836 | 102342
8 | 22:44.43 | 4:38.34 | 102343 | 123226
9 | 27:23.02 | 4:05.50 | 123227 | 141651
10 | 31:28.52 | 1:08.09 | 141652 | 146760
11 | 32:36.61 | 3:48.45 | 146761 | 163905
12 | 36:25.31 | 3:05.31 | 163906 | 177811
13 | 39:30.62 | 3:58.08 | 177812 | 195669
14 | 43:28.70 | 1:52.17 | 195670 | 204086
15 | 45:21.12 | 1:38.41 | 204087 | 211477
16 | 46:59.53 | 5:50.01 | 211478 | 237728
17 | 52:49.54 | 6:29.37 | 237729 | 266940
18 | 59:19.16 | 4:07.58 | 266941 | 285523

Track 1

Filename C:EAC1 Sto calascione che me metto.wav

Pre-gap length 0:00:02.00

Peak level 38.4 %
Extraction speed 0.8 X
Track quality 100.0 %
Test CRC B172A933
Copy CRC B172A933
Cannot be verified as accurate (confidence 1) [2567C3E0], AccurateRip returned [76DDB355] (AR v2)
Copy OK

Track 2

Filename C:EAC2 Deh, quando ti veggio.wav

Peak level 92.1 %
Extraction speed 1.4 X
Track quality 100.0 %
Test CRC FD3FDC18
Copy CRC FD3FDC18
Cannot be verified as accurate (confidence 1) [5650575C], AccurateRip returned [5F667665] (AR v2)
Copy OK

Track 3

Filename C:EAC3 O Vecchia tu che guardi.wav

Peak level 88.3 %
Extraction speed 1.4 X
Track quality 100.0 %
Test CRC 7F8E46FB
Copy CRC 7F8E46FB
Cannot be verified as accurate (confidence 1) [EB23596C], AccurateRip returned [F974DAF1] (AR v2)
Copy OK

Track 4

Filename C:EAC4 Vorria, Madonna, fareti sapere.wav

Peak level 97.6 %
Extraction speed 1.4 X
Track quality 100.0 %
Test CRC 90674680
Copy CRC 90674680
Cannot be verified as accurate (confidence 1) [14D3AEFA], AccurateRip returned [9E9DA5EF] (AR v2)
Copy OK

Track 5

Filename C:EAC5 A calascione.wav

Peak level 92.5 %
Extraction speed 1.5 X
Track quality 100.0 %
Test CRC 2303E6FA
Copy CRC 2303E6FA
Cannot be verified as accurate (confidence 1) [E1A501AF], AccurateRip returned [8D5DA9CA] (AR v2)
Copy OK

Track 6

Filename C:EAC6 O Lucia miau, miau.wav

Peak level 98.3 %
Extraction speed 1.4 X
Track quality 99.9 %
Test CRC 5D6F0004
Copy CRC 5D6F0004
Cannot be verified as accurate (confidence 1) [5E9DF51F], AccurateRip returned [E3732AB0] (AR v2)
Copy OK

Track 7

Filename C:EAC7 Deh! La morte de mariteto.wav

Peak level 99.4 %
Extraction speed 1.8 X
Track quality 100.0 %
Test CRC BF7F38DE
Copy CRC BF7F38DE
Cannot be verified as accurate (confidence 1) [014462C0], AccurateRip returned [0A334C52] (AR v2)
Copy OK

Track 8

Filename C:EAC8 Vorria ca fosse ciaola.wav

Peak level 95.0 %
Extraction speed 1.9 X
Track quality 100.0 %
Test CRC 2DA8581B
Copy CRC 2DA8581B
Cannot be verified as accurate (confidence 1) [98D241FB], AccurateRip returned [0E78726B] (AR v2)
Copy OK

Track 9

Filename C:EAC9 Villancella ch’all’acqua vai.wav

Peak level 70.2 %
Extraction speed 1.7 X
Track quality 99.9 %
Test CRC DC03D6F9
Copy CRC DC03D6F9
Cannot be verified as accurate (confidence 1) [4D0507AB], AccurateRip returned [7470C89D] (AR v2)
Copy OK

Track 10

Filename C:EAC10 Jesce sole.wav

Peak level 95.4 %
Extraction speed 1.5 X
Track quality 100.0 %
Test CRC 51C25805
Copy CRC 51C25805
Cannot be verified as accurate (confidence 1) [C5366059], AccurateRip returned [57B3F435] (AR v2)
Copy OK

Track 11

Filename C:EAC11 Madonna non e piu.wav

Peak level 82.9 %
Extraction speed 2.0 X
Track quality 100.0 %
Test CRC C9D7A37B
Copy CRC C9D7A37B
Cannot be verified as accurate (confidence 1) [37358634], AccurateRip returned [F8B8F9A3] (AR v2)
Copy OK

Track 12

Filename C:EAC12 Che sia maledicta l’acqua.wav

Peak level 96.6 %
Extraction speed 2.0 X
Track quality 100.0 %
Test CRC 58618D8C
Copy CRC 58618D8C
Cannot be verified as accurate (confidence 1) [AA4E50C8], AccurateRip returned [E3C0F76D] (AR v2)
Copy OK

Track 13

Filename C:EAC13 Voria, crudel, tornare.wav

Peak level 85.2 %
Extraction speed 2.2 X
Track quality 100.0 %
Test CRC F24D98BE
Copy CRC F24D98BE
Cannot be verified as accurate (confidence 1) [58AFEAFC], AccurateRip returned [39D0FB21] (AR v2)
Copy OK

Track 14

Filename C:EAC14 Recercar secondo.wav

Peak level 15.6 %
Extraction speed 1.5 X
Track quality 99.9 %
Test CRC 0C0E857A
Copy CRC 0C0E857A
Cannot be verified as accurate (confidence 1) [49A8E3B9], AccurateRip returned [41897672] (AR v2)
Copy OK

Track 15

Filename C:EAC15 Caccia la vecchia fuora.wav

Peak level 15.8 %
Extraction speed 1.9 X
Track quality 100.0 %
Test CRC 426B1A0C
Copy CRC 426B1A0C
Cannot be verified as accurate (confidence 1) [ED0845E8], AccurateRip returned [BA31B24F] (AR v2)
Copy OK

Track 16

Filename C:EAC16 Sto core mio se fosse.wav

Peak level 98.9 %
Extraction speed 2.4 X
Track quality 100.0 %
Test CRC BD5FD02C
Copy CRC BD5FD02C
Cannot be verified as accurate (confidence 1) [1A4A2B3B], AccurateRip returned [23C5CEC5] (AR v2)
Copy OK

Track 17

Filename C:EAC17 Tu sai che la cornacchia.wav

Peak level 100.0 %
Extraction speed 2.6 X
Track quality 100.0 %
Test CRC F4C20F54
Copy CRC F4C20F54
Cannot be verified as accurate (confidence 1) [65E395FE], AccurateRip returned [91E82413] (AR v2)
Copy OK

Track 18

Filename C:EAC18 Nuttata ‘e sentimento.wav

Peak level 44.7 %
Extraction speed 2.5 X
Track quality 100.0 %
Test CRC ACFED35F
Copy CRC ACFED35F
Cannot be verified as accurate (confidence 1) [D30F77A8], AccurateRip returned [DCC7C41A] (AR v2)
Copy OK

No tracks could be verified as accurate
You may have a different pressing from the one(s) in the database

No errors occurred

End of status report

–– CUETools DB Plugin V2.1.6

[CTDB TOCID: VfVlEVBm41yLpiWldGDCyxpZ1uQ-] found
Submit result: VfVlEVBm41yLpiWldGDCyxpZ1uQ- has been confirmed
Track | CTDB Status
1 | (5/5) Accurately ripped
2 | (5/5) Accurately ripped
3 | (5/5) Accurately ripped
4 | (5/5) Accurately ripped
5 | (5/5) Accurately ripped
6 | (5/5) Accurately ripped
7 | (5/5) Accurately ripped
8 | (5/5) Accurately ripped
9 | (5/5) Accurately ripped
10 | (5/5) Accurately ripped
11 | (5/5) Accurately ripped
12 | (5/5) Accurately ripped
13 | (5/5) Accurately ripped
14 | (5/5) Accurately ripped
15 | (5/5) Accurately ripped
16 | (5/5) Accurately ripped
17 | (5/5) Accurately ripped
18 | (5/5) Accurately ripped

==== Log checksum DAD0252595D2D0CE46DABCD83E82615800A6FEA2BB0E3DE17EB6C88393C33A3F ====

CUETools Log
[CUETools log; Date: 31.07.2017 10:44:27; Version: 2.1.5]
[CTDB TOCID: VfVlEVBm41yLpiWldGDCyxpZ1uQ-] found.
Track | CTDB Status
1 | (6/6) Accurately ripped
2 | (6/6) Accurately ripped
3 | (6/6) Accurately ripped
4 | (6/6) Accurately ripped
5 | (6/6) Accurately ripped
6 | (6/6) Accurately ripped
7 | (6/6) Accurately ripped
8 | (6/6) Accurately ripped
9 | (6/6) Accurately ripped
10 | (6/6) Accurately ripped
11 | (6/6) Accurately ripped
12 | (6/6) Accurately ripped
13 | (6/6) Accurately ripped
14 | (6/6) Accurately ripped
15 | (6/6) Accurately ripped
16 | (6/6) Accurately ripped
17 | (6/6) Accurately ripped
18 | (6/6) Accurately ripped
[AccurateRip ID: 002694f5-02095ea2-fb0ede12] found.
Track [ CRC | V2 ] Status
01 [9c1ebdc8|2567c3e0] (0+0/2) No match
02 [86215cf4|5650575c] (0+0/2) No match
03 [5673e549|eb23596c] (0+0/2) No match
04 [a8ee9868|14d3aefa] (0+0/2) No match
05 [76a0f32d|e1a501af] (0+0/2) No match
06 [0a080ddb|5e9df51f] (0+0/2) No match
07 [6de5f16d|014462c0] (0+0/2) No match
08 [88a0ba1b|98d241fb] (0+0/2) No match
09 [22c3910c|4d0507ab] (0+0/2) No match
10 [ebd3e183|c5366059] (0+0/2) No match
11 [9ea816ef|37358634] (0+0/2) No match
12 [2916bf94|aa4e50c8] (0+0/2) No match
13 [a35d7bc3|58afeafc] (0+0/2) No match
14 [f6140dfd|49a8e3b9] (0+0/2) No match
15 [fe31f34e|ed0845e8] (0+0/2) No match
16 [8d777605|1a4a2b3b] (0+0/2) No match
17 [20bb71b6|65e395fe] (0+0/2) No match
18 [ae91d562|d30f77a8] (0+0/2) No match
Offsetted by -581:
01 [76ddb355] (1/2) Accurately ripped
02 [5f667665] (1/2) Accurately ripped
03 [f974daf1] (1/2) Accurately ripped
04 [9e9da5ef] (1/2) Accurately ripped
05 [8d5da9ca] (1/2) Accurately ripped
06 [e3732ab0] (1/2) Accurately ripped
07 [0a334c52] (1/2) Accurately ripped
08 [0e78726b] (1/2) Accurately ripped
09 [7470c89d] (1/2) Accurately ripped
10 [57b3f435] (1/2) Accurately ripped
11 [f8b8f9a3] (1/2) Accurately ripped
12 [e3c0f76d] (1/2) Accurately ripped
13 [39d0fb21] (1/2) Accurately ripped
14 [41897672] (1/2) Accurately ripped
15 [ba31b24f] (1/2) Accurately ripped
16 [23c5cec5] (1/2) Accurately ripped
17 [91e82413] (1/2) Accurately ripped
18 [dcc7c41a] (1/2) Accurately ripped

Track Peak [ CRC32 ] [W/O NULL] [ LOG ]
– 100,0 [4C9C3DF3] [D0D3EFA1]
01 38,4 [B172A933] [C43B713C] CRC32
02 92,1 [FD3FDC18] [58CA6244] CRC32
03 88,3 [7F8E46FB] [3CA4E9D2] CRC32
04 97,6 [90674680] [521F415E] CRC32
05 92,5 [2303E6FA] [02F971F1] CRC32
06 98,3 [5D6F0004] [A71A13F7] CRC32
07 99,4 [BF7F38DE] [D06F12AC] CRC32
08 95,0 [2DA8581B] [D6EA74D0] CRC32
09 70,2 [DC03D6F9] [BDD33BB8] CRC32
10 95,4 [51C25805] [0C30A04B] CRC32
11 82,9 [C9D7A37B] [431CB7E9] CRC32
12 96,6 [58618D8C] [6449DEE7] CRC32
13 85,2 [F24D98BE] [E268B9B7] CRC32
14 15,6 [0C0E857A] [36B1BC22] CRC32
15 15,8 [426B1A0C] [C00196FA] CRC32
16 98,8 [BD5FD02C] [AF8921B4] CRC32
17 100,0 [F4C20F54] [C5935A5E] CRC32
18 44,7 [ACFED35F] [CDE4E20E] CRC32

Performers:
Ensemble Daedalus
Roberto Festa, direction

CD I
Maria Cristina Kiehr – soprano
Otto Rastbichler, Marco Beasley – tenor
Josep Cabré – baritone
Roberto Festa – recorder, percussion
Renée Stock, Markus Tapio – viol
Hugh Sandilands – lute, chitarrino francese, viol
Federico Marincola – colascione, discant lute, lute
Mara Galassi – arpa doppia, arpa ad arpione

CD II
Pascal Bertin – countertenor
Luciano Catapano – tenor, guitar
Josep Benet tenor · Josep Cabré – baritone
Roberto Festa recorder · Hugh Sandilands – guitar, lute
Leonardo Massa – colascione · Pierre Pitzl – guitar, tenor viol
Brigitte Gasser – tenor viol · Renée Stock – bass viol
Roberto Festa – direction

Thanks to the Original ripper (unknown)!

Download:

Ensemble Daedalus, Roberto Festa – Canzoni Villanesche: Neapolitan Love Songs of the 16th century (2012) Download, Warez, DDL, Free, Full Album, Torrent, Legal.

Download