Ensemble Correspondances & Sébastien Daucé – Henry du Mont: O Mysterium (Motets & élévations) (2016) | ViralVideoPk

Daily Dose of Free Downloads

Ensemble Correspondances & Sébastien Daucé – Henry du Mont: O Mysterium (Motets & élévations) (2016)

Download

Ensemble Correspondances & Sébastien Daucé - Henry du Mont: O Mysterium (Motets & élévations) (2016)

Ensemble Correspondances & Sébastien Daucé – Henry du Mont: O Mysterium (Motets & élévations)
Classical | FLAC (tracks)+cue, log, booklet | 71:10 min | 369 MB
Label: Harmonia Mundi | Tracks: 12 | Rls.date: 2016

For 20 years (from 1663 to 1683) Henry Du Mont directed the music of the Sun King’s chapel. For the daily Mass there he built up a new repertory consisting of motets for full chorus and more intimate pieces for solo voices. The former aimed to transpose to the context of ‘ordinary’ the format of the large-scale works conceived for extraordinary ceremonies. Sébastien Daucé presents an innovative approach to these grands motets, that at once links specific musical features with historical data, for each of which he adopts a specific instrumental scoring.

TRACKLIST

Motets pour la chapelle du Roy (Christophe Ballard, 1686) (Henry Du Mont)
1. Memorare, opiissima Virgo Maria 07:36

Motets à III parties (Christophe Ballard, 1681)
2. Jesu dulcedo cordium (Elévation) 03:41

Motets à IV parties (Christophe Ballard, 1681)
3. Desidero te millies (Elévation) 03:07

Motets pour la chapelle du Roy (Christophe Ballard, 1686)
4. O æterne misericors Deus 08:50

Motets à III parties (Christophe Ballard, 1681)
5. Sub umbra noctis profundæ (Elévation) 04:21

Motets pour la chapelle du Roy (Christophe Ballard, 1686)
6. O mysterium 07:19

Cantica Sacra (Robert Ballard, 1652)
7. Allemanda Gravis 03:10

Motets à III parties (Christophe Ballard, 1681)
8. Ave Regina cælorum (Elévation) 03:29

Motets pour la chapelle du Roy (Christophe Ballard, 1686)
9. O dulcissima 10:55

Motets à deux voix (Robert Ballard, 1668)
10. Quam pulchra es (Elévation) 04:57

Motets à III parties
11. O præcelsum (Elévation) 03:27

Motets pour la chapelle du Roy (Christophe Ballard, 1686)
12. Super flumina Babylonis 10:18

EAC Log
Exact Audio Copy V1.3 from 2. September 2016

EAC extraction logfile from 2. January 2017, 21:07

Sebastien Dauce – Ensemble Correspondances / Du Mont – O Mysterium (Motets, Elevations for Louis XIV)

Used drive : ATAPI iHBS112 2 Adapter: 1 ID: 1

Read mode : Secure
Utilize accurate stream : Yes
Defeat audio cache : Yes
Make use of C2 pointers : No

Read offset correction : 6
Overread into Lead-In and Lead-Out : No
Fill up missing offset samples with silence : Yes
Delete leading and trailing silent blocks : No
Null samples used in CRC calculations : Yes
Used interface : Native Win32 interface for Win NT & 2000
Gap handling : Appended to previous track

Used output format : User Defined Encoder
Selected bitrate : 128 kBit/s
Quality : High
Add ID3 tag : No
Command line compressor : C:Program Files (x86)Exact Audio CopyFlacflac.exe
Additional command line options : -8 -V -T "ARTIST=%artist%" -T "TITLE=%title%" -T "ALBUM=%albumtitle%" -T "DATE=%year%" -T "TRACKNUMBER=%tracknr%" -T "GENRE=%genre%" -T "PERFORMER=%albuminterpret%" -T "COMPOSER=%composer%" -T "ALBUMARTIST=%albumartist%" -T "DISCNUMBER=%cdnumber%" -T "TOTALDISCS=%totalcds%" -T "TOTALTRACKS=%numtracks%" -T "COMMENT=EAC Secure Mode, Test & Copy, AccurateRip, FLAC -8" %source% -o %dest%

TOC of the extracted CD

Track | Start | Length | Start sector | End sector
––––––––––––––––––––––––––––-
1 | 0:00.00 | 7:36.43 | 0 | 34242
2 | 7:36.43 | 3:41.33 | 34243 | 50850
3 | 11:18.01 | 3:07.05 | 50851 | 64880
4 | 14:25.06 | 8:50.50 | 64881 | 104680
5 | 23:15.56 | 4:21.46 | 104681 | 124301
6 | 27:37.27 | 7:19.71 | 124302 | 157297
7 | 34:57.23 | 3:10.14 | 157298 | 171561
8 | 38:07.37 | 3:29.31 | 171562 | 187267
9 | 41:36.68 | 10:55.74 | 187268 | 236466
10 | 52:32.67 | 4:57.24 | 236467 | 258765
11 | 57:30.16 | 3:27.38 | 258766 | 274328
12 | 60:57.54 | 10:18.66 | 274329 | 320744

Track 1

Filename D:DLEnsemble Correspondances – Henry Du Mont – O Mysterium (2016) [FLAC]1 – Motets pour la Chapelle du Roy – Memorare.wav

Pre-gap length 0:00:02.00

Peak level 97.1 %
Extraction speed 6.4 X
Track quality 100.0 %
Test CRC E36FD2BF
Copy CRC E36FD2BF
Accurately ripped (confidence 3) [2360D250] (AR v2)
Copy OK

Track 2

Filename D:DLEnsemble Correspondances – Henry Du Mont – O Mysterium (2016) [FLAC]2 – Motets a 3 Voix – Jesu dulcedo cordium.wav

Peak level 59.2 %
Extraction speed 5.5 X
Track quality 99.9 %
Test CRC 6B6239EC
Copy CRC 6B6239EC
Accurately ripped (confidence 3) [B8700013] (AR v2)
Copy OK

Track 3

Filename D:DLEnsemble Correspondances – Henry Du Mont – O Mysterium (2016) [FLAC]3 – Motets a 4 Voix – Desidero te millies.wav

Peak level 93.7 %
Extraction speed 6.8 X
Track quality 100.0 %
Test CRC D41E97D0
Copy CRC D41E97D0
Accurately ripped (confidence 3) [64F796A4] (AR v2)
Copy OK

Track 4

Filename D:DLEnsemble Correspondances – Henry Du Mont – O Mysterium (2016) [FLAC]4 – Motets pour la Chapelle du Roy – O aeterne misericors Deus.wav

Peak level 98.8 %
Extraction speed 8.4 X
Track quality 100.0 %
Test CRC 086E1162
Copy CRC 086E1162
Accurately ripped (confidence 3) [410FBD28] (AR v2)
Copy OK

Track 5

Filename D:DLEnsemble Correspondances – Henry Du Mont – O Mysterium (2016) [FLAC]5 – Motets a 3 Voix – Sub umbra noctis profundae.wav

Peak level 98.2 %
Extraction speed 7.1 X
Track quality 99.9 %
Test CRC 75232CAA
Copy CRC 75232CAA
Accurately ripped (confidence 3) [699D92EA] (AR v2)
Copy OK

Track 6

Filename D:DLEnsemble Correspondances – Henry Du Mont – O Mysterium (2016) [FLAC]6 – Motets pour la Chapelle du Roy – O mysterium.wav

Peak level 98.7 %
Extraction speed 9.4 X
Track quality 100.0 %
Test CRC 869DF4D5
Copy CRC 869DF4D5
Accurately ripped (confidence 3) [0BA33E75] (AR v2)
Copy OK

Track 7

Filename D:DLEnsemble Correspondances – Henry Du Mont – O Mysterium (2016) [FLAC]7 – Cantica sacra – Allemanda Gravis.wav

Peak level 48.9 %
Extraction speed 9.0 X
Track quality 100.0 %
Test CRC 482EB885
Copy CRC 482EB885
Accurately ripped (confidence 2) [96BC870B] (AR v2)
Copy OK

Track 8

Filename D:DLEnsemble Correspondances – Henry Du Mont – O Mysterium (2016) [FLAC]8 – Motets a 3 Voix – Ave Regina caelorum.wav

Peak level 95.5 %
Extraction speed 9.4 X
Track quality 100.0 %
Test CRC B3D813C1
Copy CRC B3D813C1
Accurately ripped (confidence 2) [AB80603E] (AR v2)
Copy OK

Track 9

Filename D:DLEnsemble Correspondances – Henry Du Mont – O Mysterium (2016) [FLAC]9 – Motets pour la Chapelle du Roy – O dulcissima.wav

Peak level 98.7 %
Extraction speed 11.0 X
Track quality 100.0 %
Test CRC 2CED4632
Copy CRC 2CED4632
Accurately ripped (confidence 2) [131C93AD] (AR v2)
Copy OK

Track 10

Filename D:DLEnsemble Correspondances – Henry Du Mont – O Mysterium (2016) [FLAC]10 – Motets a 2 Voix – Quam pulchra es.wav

Peak level 66.1 %
Extraction speed 10.9 X
Track quality 100.0 %
Test CRC ABADADC8
Copy CRC ABADADC8
Accurately ripped (confidence 3) [0909C93F] (AR v2)
Copy OK

Track 11

Filename D:DLEnsemble Correspondances – Henry Du Mont – O Mysterium (2016) [FLAC]11 – Motets a 3 Voix – O praecelsum.wav

Peak level 98.8 %
Extraction speed 8.6 X
Track quality 99.9 %
Test CRC A0688383
Copy CRC A0688383
Accurately ripped (confidence 3) [90FD677A] (AR v2)
Copy OK

Track 12

Filename D:DLEnsemble Correspondances – Henry Du Mont – O Mysterium (2016) [FLAC]12 – Motets pour la Chapelle du Roy – Super flumina Babylonis.wav

Peak level 98.8 %
Extraction speed 12.2 X
Track quality 100.0 %
Test CRC 5058DEF9
Copy CRC 5058DEF9
Accurately ripped (confidence 2) [FA1C8411] (AR v2)
Copy OK

All tracks accurately ripped

No errors occurred

End of status report

–– CUETools DB Plugin V2.1.6

[CTDB TOCID: OP6p5wjHMF5SU8eT9qeBcmIZcEg-] found
Submit result: OP6p5wjHMF5SU8eT9qeBcmIZcEg- has been confirmed
Track | CTDB Status
1 | (11/11) Accurately ripped
2 | (11/11) Accurately ripped
3 | (11/11) Accurately ripped
4 | (11/11) Accurately ripped
5 | (11/11) Accurately ripped
6 | (11/11) Accurately ripped
7 | (11/11) Accurately ripped
8 | (11/11) Accurately ripped
9 | (11/11) Accurately ripped
10 | (11/11) Accurately ripped
11 | (11/11) Accurately ripped
12 | (11/11) Accurately ripped

==== Log checksum 0277FB7E48C8D3C593DD13DC6D451EB485FAB287BA58F48B552FF3D362DC0196 ====

Ensemble Correspondances & Sébastien Daucé - Henry du Mont: O Mysterium (Motets & élévations) (2016)

Thanks to the Original customer.
My Blog mp3, flac & HDtracks

Ensemble Correspondances & Sébastien Daucé – Henry du Mont: O Mysterium (Motets & élévations) (2016) Download, Warez, DDL, Free, Full Album, Torrent, Legal.

Download


  • Recent Posts

  • Recent Tags