Enrico Pieranunzi/Marc Johnson/Joey Baron – Live In Japan (2CD) (2007) {Cam Jazz}

Download
Enrico Pieranunzi/Marc Johnson/Joey Baron - Live In Japan (2CD) (2007) {Cam Jazz}

Enrico Pieranunzi/Marc Johnson/Joey Baron – Live In Japan (2CD) (2007) {Cam Jazz}
EAC Rip | FLAC with CUE and log | scans | 650 mb
MP3 CBR 320kbps | RAR | 287 mb
Genre: jazz

Enrico Pieranunzi, Marc Johnson and Joey Baron performed together in Tokyo and released highlights from it as a 2CD set called Live In Japan. Recorded in 2004, it was released in 2007 by Cam Jazz.

Enrico Pieranunzi/Marc Johnson/Joey Baron - Live In Japan (2CD) (2007) {Cam Jazz}

DISC 1
1. Aurora Giapponese
2. Impronippo
3. How Can You Not
4. If Only For A Time
5. Mio Caro Dottor Grasler
6. Musashi
7. Improleaves

DISC 2
1. Winter Moon
2. Broken Time
3. Tokyo Reflections
4. Nuovo Cinema Paradiso
5. Ninfa Plebea
6. When I Think Of You
7. Improminor

Enrico Pieranunzi-piano
Marc Johnson-bass
Joey Baron-drums

Produced by Ermando Basso
Engineered by Danilo Rossi
Mixed by Goffredo Gibellini
Assisted by Gianluca Porelli
Mastered by Danilo Rossi

Recorded in Tokyo at Asahi Hall, Arena Hall & Yokohama at Aka-Renga Hall on 18-19, 23-25 March, 2004

Enrico Pieranunzi/Marc Johnson/Joey Baron - Live In Japan (2CD) (2007) {Cam Jazz}
EAC Log
EAC extraction logfile from 26. June 2017, 19:31 for CD
Enrico Pieranunzi/Marc Johnson/Joey Baron / Live In Japan (Disc 1)

Used drive : TSSTcorpDVD+-RW TS-H653B Adapter: 2 ID: 0
Read mode : Secure with NO C2, accurate stream, disable cache
Read offset correction : 6
Overread into Lead-In and Lead-Out : No

Used output format : Internal WAV Routines
44.100 Hz; 16 Bit; Stereo

Other options :
Fill up missing offset samples with silence : Yes
Delete leading and trailing silent blocks : No
Native Win32 interface for Win NT & 2000

Track 1
Filename C:Documents and SettingscuntfistDesktopFLAC’s14Enrico Pieranunzi, Marc Johnson, Joey Baron – Live In Japan (2CD) (2007) [FLAC] {Cam Jazz}Disc 11 – Aurora Giapponese.wav

Pre-gap length 0:00:02.00

Peak level 97.0 %
Track quality 100.0 %
Test CRC 5874935C
Copy CRC 5874935C
Copy OK

Track 2
Filename C:Documents and SettingscuntfistDesktopFLAC’s14Enrico Pieranunzi, Marc Johnson, Joey Baron – Live In Japan (2CD) (2007) [FLAC] {Cam Jazz}Disc 12 – Impronippo.wav

Peak level 97.5 %
Track quality 100.0 %
Test CRC FCBB7F05
Copy CRC FCBB7F05
Copy OK

Track 3
Filename C:Documents and SettingscuntfistDesktopFLAC’s14Enrico Pieranunzi, Marc Johnson, Joey Baron – Live In Japan (2CD) (2007) [FLAC] {Cam Jazz}Disc 13 – How Can You Not .wav

Peak level 97.6 %
Track quality 100.0 %
Test CRC 2ADEA038
Copy CRC 2ADEA038
Copy OK

Track 4
Filename C:Documents and SettingscuntfistDesktopFLAC’s14Enrico Pieranunzi, Marc Johnson, Joey Baron – Live In Japan (2CD) (2007) [FLAC] {Cam Jazz}Disc 14 – If Only For A Time.wav

Peak level 97.8 %
Track quality 100.0 %
Test CRC 1A532EFE
Copy CRC 1A532EFE
Copy OK

Track 5
Filename C:Documents and SettingscuntfistDesktopFLAC’s14Enrico Pieranunzi, Marc Johnson, Joey Baron – Live In Japan (2CD) (2007) [FLAC] {Cam Jazz}Disc 15 – Mio Caro Dottor Grasler.wav

Peak level 97.8 %
Track quality 100.0 %
Test CRC 3DB17C1D
Copy CRC 3DB17C1D
Copy OK

Track 6
Filename C:Documents and SettingscuntfistDesktopFLAC’s14Enrico Pieranunzi, Marc Johnson, Joey Baron – Live In Japan (2CD) (2007) [FLAC] {Cam Jazz}Disc 16 – Musashi.wav

Peak level 97.4 %
Track quality 99.9 %
Test CRC 4D83FA0D
Copy CRC 4D83FA0D
Copy OK

Track 7
Filename C:Documents and SettingscuntfistDesktopFLAC’s14Enrico Pieranunzi, Marc Johnson, Joey Baron – Live In Japan (2CD) (2007) [FLAC] {Cam Jazz}Disc 17 – Improleaves.wav

Peak level 97.8 %
Track quality 100.0 %
Test CRC 2502781C
Copy CRC 2502781C
Copy OK

No errors occured

End of status report

EAC extraction logfile from 26. June 2017, 20:13 for CD
Enrico Pieranunzi/Marc Johnson/Joey Baron / Live In Japan (Disc 2)

Used drive : TSSTcorpDVD+-RW TS-H653B Adapter: 2 ID: 0
Read mode : Secure with NO C2, accurate stream, disable cache
Read offset correction : 6
Overread into Lead-In and Lead-Out : No

Used output format : Internal WAV Routines
44.100 Hz; 16 Bit; Stereo

Other options :
Fill up missing offset samples with silence : Yes
Delete leading and trailing silent blocks : No
Native Win32 interface for Win NT & 2000

Track 1
Filename C:Documents and SettingscuntfistDesktopFLAC’s14Enrico Pieranunzi, Marc Johnson, Joey Baron – Live In Japan (2CD) (2007) [FLAC] {Cam Jazz}Disc 21 – Winter Moon.wav

Pre-gap length 0:00:02.00

Peak level 97.6 %
Track quality 100.0 %
Test CRC D4B21CED
Copy CRC D4B21CED
Copy OK

Track 2
Filename C:Documents and SettingscuntfistDesktopFLAC’s14Enrico Pieranunzi, Marc Johnson, Joey Baron – Live In Japan (2CD) (2007) [FLAC] {Cam Jazz}Disc 22 – Broken Time.wav

Peak level 97.2 %
Track quality 100.0 %
Test CRC 9A940F42
Copy CRC 9A940F42
Copy OK

Track 3
Filename C:Documents and SettingscuntfistDesktopFLAC’s14Enrico Pieranunzi, Marc Johnson, Joey Baron – Live In Japan (2CD) (2007) [FLAC] {Cam Jazz}Disc 23 – Tokyo Reflections.wav

Peak level 97.0 %
Track quality 100.0 %
Test CRC 7FB33DE2
Copy CRC 7FB33DE2
Copy OK

Track 4
Filename C:Documents and SettingscuntfistDesktopFLAC’s14Enrico Pieranunzi, Marc Johnson, Joey Baron – Live In Japan (2CD) (2007) [FLAC] {Cam Jazz}Disc 24 – Nuovo Cinema Paradiso.wav

Peak level 97.1 %
Track quality 100.0 %
Test CRC 8AB8439C
Copy CRC 8AB8439C
Copy OK

Track 5
Filename C:Documents and SettingscuntfistDesktopFLAC’s14Enrico Pieranunzi, Marc Johnson, Joey Baron – Live In Japan (2CD) (2007) [FLAC] {Cam Jazz}Disc 25 – Ninfa Plebea.wav

Peak level 65.8 %
Track quality 100.0 %
Test CRC 26CD2F57
Copy CRC 26CD2F57
Copy OK

Track 6
Filename C:Documents and SettingscuntfistDesktopFLAC’s14Enrico Pieranunzi, Marc Johnson, Joey Baron – Live In Japan (2CD) (2007) [FLAC] {Cam Jazz}Disc 26 – When I Think Of You.wav

Peak level 66.0 %
Track quality 99.9 %
Test CRC 2EACA358
Copy CRC 2EACA358
Copy OK

Track 7
Filename C:Documents and SettingscuntfistDesktopFLAC’s14Enrico Pieranunzi, Marc Johnson, Joey Baron – Live In Japan (2CD) (2007) [FLAC] {Cam Jazz}Disc 27 – Improminor.wav

Peak level 93.5 %
Track quality 99.9 %
Test CRC 566272B6
Copy CRC 566272B6
Copy OK

No errors occured

End of status report

Enrico Pieranunzi/Marc Johnson/Joey Baron - Live In Japan (2CD) (2007) {Cam Jazz}

Enrico Pieranunzi/Marc Johnson/Joey Baron – Live In Japan (2CD) (2007) {Cam Jazz} Download, Warez, DDL, Free, Full Album, Torrent, Legal.

Download