England – Garden Shed 1977 (2CD Remastered Golden Edition 2015)

Download
England - Garden Shed 1977 (2CD Remastered Golden Edition 2015)

England – Garden Shed 1977 (2CD Remastered Golden Edition 2015)
EAC Rip | FLAC (Tracks) +cue, log, artworks – 573 MB | MP3 CBR 320 kbps – 218 MB | 01:35:33
Progressive Rock | Label: New Music – Green Tree | Release Year: 2015

Warning Prog heads, you may really like this one and you may have to open the ‘ol wallet to afford it as well. England are a superb prog act which combine the best elements of Genesis, Yes, Gentle Giant and Supertramp. This recording is brimming with mellotron textures, keyboards and organ to make you drool and variant time signatures which remind one very much of Gentle Giant. England have written some real classic prog songs here and after a few listens you will be hooked on their brilliance. "Garden Shed" has been remastered and offers great speaker seperation and a very clean crisp sound. This is classic progressive rock and is highly recommended by this prog head.

TRACKLIST

CD 1 Garden Shed – Golden Edition

01 Midnight Madness
02 All Alone
03 Three Piece Suite
04 Paraffinalea
05 Yellow
06 Poisoned Youth

EAC
Exact Audio Copy V1.0 beta 3 from 29. August 2011

EAC extraction logfile from 1. April 2016, 20:51

England / Garden Shed

Used drive : HL-DT-STBD-RE BH14NS48 Adapter: 2 ID: 0

Read mode : Secure
Utilize accurate stream : Yes
Defeat audio cache : Yes
Make use of C2 pointers : No

Read offset correction : 6
Overread into Lead-In and Lead-Out : No
Fill up missing offset samples with silence : Yes
Delete leading and trailing silent blocks : No
Null samples used in CRC calculations : Yes
Used interface : Native Win32 interface for Win NT & 2000
Gap handling : Appended to previous track

Used output format : User Defined Encoder
Selected bitrate : 896 kBit/s
Quality : High
Add ID3 tag : No
Command line compressor : C:Program FilesExact Audio Copyflac.exe
Additional command line options : -8 -V -T "ARTIST=%artist%" -T "TITLE=%title%" -T "ALBUM=%albumtitle%" -T "DATE=%year%" -T "TRACKNUMBER=%tracknr%" -T "GENRE=%genre%" -T "PERFORMER=%albuminterpret%" -T "COMPOSER=%composer%" %haslyrics%–tag-from-file=LYRICS="%lyricsfile%"%haslyrics% -T "ALBUMARTIST=%albumartist%" -T "DISCNUMBER=%cdnumber%" -T "TOTALDISCS=%totalcds%" -T "TOTALTRACKS=%numtracks%" -T "COMMENT=%comment%" %source% -o %dest%

TOC of the extracted CD

Track | Start | Length | Start sector | End sector
––––––––––––––––––––––––––––-
1 | 0:00.00 | 6:57.25 | 0 | 31299
2 | 6:57.25 | 1:46.28 | 31300 | 39277
3 | 8:43.53 | 12:59.09 | 39278 | 97711
4 | 21:42.62 | 4:13.02 | 97712 | 116688
5 | 25:55.64 | 5:25.56 | 116689 | 141119
6 | 31:21.45 | 16:15.25 | 141120 | 214269

Track 1

Filename C:EAC1 – Midnight Madness.wav

Pre-gap length 0:00:02.00

Peak level 100.0 %
Extraction speed 3.6 X
Track quality 99.9 %
Test CRC 0383B24C
Copy CRC 0383B24C
Accurately ripped (confidence 3) [14833510] (AR v2)
Copy OK

Track 2

Filename C:EAC2 – All Alone.wav

Pre-gap length 0:00:02.00

Peak level 49.8 %
Extraction speed 2.8 X
Track quality 100.0 %
Test CRC C2DC9DDF
Copy CRC C2DC9DDF
Accurately ripped (confidence 3) [52E432CB] (AR v2)
Copy OK

Track 3

Filename C:EAC3 – Three Piece Suite.wav

Peak level 100.0 %
Extraction speed 2.8 X
Track quality 100.0 %
Test CRC E26E293A
Copy CRC E26E293A
Accurately ripped (confidence 3) [4195A459] (AR v2)
Copy OK

Track 4

Filename C:EAC4 – Paraffinalea.wav

Pre-gap length 0:00:02.00

Peak level 99.1 %
Extraction speed 1.6 X
Track quality 100.0 %
Test CRC 2DAE1233
Copy CRC 2DAE1233
Accurately ripped (confidence 3) [84397DBD] (AR v2)
Copy OK

Track 5

Filename C:EAC5 – Yellow.wav

Pre-gap length 0:00:02.00

Peak level 71.2 %
Extraction speed 1.8 X
Track quality 100.0 %
Test CRC 6EC3C3E1
Copy CRC 6EC3C3E1
Accurately ripped (confidence 3) [FFA6ADF7] (AR v2)
Copy OK

Track 6

Filename C:EAC6 – Poisoned Youth.wav

Pre-gap length 0:00:02.00

Peak level 98.9 %
Extraction speed 2.1 X
Track quality 100.0 %
Test CRC 77CAA7C0
Copy CRC 77CAA7C0
Accurately ripped (confidence 3) [93C55630] (AR v2)
Copy OK

All tracks accurately ripped

No errors occurred

End of status report

==== Log checksum 87E891AAF094705667572F201A2D5D4042576F1C4A153BE19812448E97868837 ====

CD 2 Bonus Tracks:

07 Nanagram >Live< 2006
08 Carmina Burana
09 Fags, Booze & Lottery
10 The Ladies Valley
11 Masters Of War
12 Three Piece Suite (Olympic Version, 1976)
13 Heebeegeebee
14 Nanagram

EAC
Exact Audio Copy V1.0 beta 3 from 29. August 2011

EAC extraction logfile from 1. April 2016, 22:14

England / Garden Shed Disc2

Used drive : HL-DT-STBD-RE BH14NS48 Adapter: 2 ID: 0

Read mode : Secure
Utilize accurate stream : Yes
Defeat audio cache : Yes
Make use of C2 pointers : No

Read offset correction : 6
Overread into Lead-In and Lead-Out : No
Fill up missing offset samples with silence : Yes
Delete leading and trailing silent blocks : No
Null samples used in CRC calculations : Yes
Used interface : Native Win32 interface for Win NT & 2000
Gap handling : Appended to previous track

Used output format : User Defined Encoder
Selected bitrate : 896 kBit/s
Quality : High
Add ID3 tag : No
Command line compressor : C:Program FilesExact Audio Copyflac.exe
Additional command line options : -8 -V -T "ARTIST=%artist%" -T "TITLE=%title%" -T "ALBUM=%albumtitle%" -T "DATE=%year%" -T "TRACKNUMBER=%tracknr%" -T "GENRE=%genre%" -T "PERFORMER=%albuminterpret%" -T "COMPOSER=%composer%" %haslyrics%–tag-from-file=LYRICS="%lyricsfile%"%haslyrics% -T "ALBUMARTIST=%albumartist%" -T "DISCNUMBER=%cdnumber%" -T "TOTALDISCS=%totalcds%" -T "TOTALTRACKS=%numtracks%" -T "COMMENT=%comment%" %source% -o %dest%

TOC of the extracted CD

Track | Start | Length | Start sector | End sector
––––––––––––––––––––––––––––-
1 | 0:00.00 | 5:11.38 | 0 | 23362
2 | 5:11.38 | 4:01.62 | 23363 | 41499
3 | 9:13.25 | 4:48.73 | 41500 | 63172
4 | 14:02.23 | 7:44.06 | 63173 | 97978
5 | 21:46.29 | 4:28.67 | 97979 | 118145
6 | 26:15.21 | 11:46.09 | 118146 | 171104
7 | 38:01.30 | 5:38.52 | 171105 | 196506
8 | 43:40.07 | 4:15.39 | 196507 | 215670

Track 1

Filename C:EAC1 – Nanagram ]Live[ 2006.wav

Pre-gap length 0:00:02.00

Peak level 93.9 %
Extraction speed 3.7 X
Track quality 100.0 %
Test CRC C8B5CDA4
Copy CRC C8B5CDA4
Accurately ripped (confidence 3) [76E0278B] (AR v2)
Copy OK

Track 2

Filename C:EAC2 – Carmina Burana.wav

Pre-gap length 0:00:02.00

Peak level 79.3 %
Extraction speed 3.2 X
Track quality 100.0 %
Test CRC 3E4BC114
Copy CRC 3E4BC114
Accurately ripped (confidence 3) [33627075] (AR v2)
Copy OK

Track 3

Filename C:EAC3 – Fags, Booze & Lottery.wav

Pre-gap length 0:00:02.00

Peak level 83.6 %
Extraction speed 2.0 X
Track quality 100.0 %
Test CRC 00215208
Copy CRC 00215208
Accurately ripped (confidence 3) [2F228F5D] (AR v2)
Copy OK

Track 4

Filename C:EAC4 – The Ladie’s Valley.wav

Pre-gap length 0:00:02.00

Peak level 77.6 %
Extraction speed 1.6 X
Track quality 100.0 %
Test CRC A01EF8D4
Copy CRC A01EF8D4
Accurately ripped (confidence 3) [D7661CA9] (AR v2)
Copy OK

Track 5

Filename C:EAC5 – Masters Of War.wav

Pre-gap length 0:00:02.00

Peak level 73.3 %
Extraction speed 1.4 X
Track quality 99.9 %
Test CRC 62972531
Copy CRC 62972531
Accurately ripped (confidence 3) [AE395266] (AR v2)
Copy OK

Track 6

Filename C:EAC6 – Three Piece Suite (Olympic Version, 1976).wav

Pre-gap length 0:00:02.00

Peak level 95.3 %
Extraction speed 1.9 X
Track quality 99.9 %
Test CRC 134B2B39
Copy CRC 134B2B39
Accurately ripped (confidence 3) [8322D9D5] (AR v2)
Copy OK

Track 7

Filename C:EAC7 – Heebeegeebee.wav

Pre-gap length 0:00:02.00

Peak level 67.9 %
Extraction speed 2.0 X
Track quality 100.0 %
Test CRC 1C636EC9
Copy CRC 1C636EC9
Accurately ripped (confidence 3) [3E96C78B] (AR v2)
Copy OK

Track 8

Filename C:EAC8 – Nanagram.wav

Pre-gap length 0:00:02.00

Peak level 74.0 %
Extraction speed 2.0 X
Track quality 100.0 %
Test CRC D6E6447D
Copy CRC D6E6447D
Accurately ripped (confidence 3) [42BD48B5] (AR v2)
Copy OK

All tracks accurately ripped

No errors occurred

End of status report

==== Log checksum A7BDB0D24D1F19312D6373577A213DCE0B502CCCE134FBDE78319FE050DE907B ====

All thanks go to the original releaser

England – Garden Shed 1977 (2CD Remastered Golden Edition 2015) Download, Warez, DDL, Free, Full Album, Torrent, Legal.

Download