Emma Kirkby, Christopher Hogwood – Handel, Arne, Lampe, Haydn & Mozart (1998)

Download
Emma Kirkby, Christopher Hogwood - Handel, Arne, Lampe, Haydn & Mozart (1998)

Emma Kirkby, Christopher Hogwood – Handel, Arne, Lampe, Haydn & Mozart (1998)
EAC | FLAC (image+.cue, log) | Covers Included | 139:22 | 637 MB
Genre: Classical, Vocal | Label: Decca | Catalog: B000009DG1

Classical music is one of the greatest joys in life. Opera on the other hand, is often too melodramatic to stomach. But there is nothing more enchanting than an Aria. On this 2 CD set, Emma Kirkby sings in sweet exultation. Her voice expresses power and agility yet a limpid tranquility. Clarity is the greatest achievement of any musician. With the aid of precision accompaniment on period instruments, shameless perfection is delivered. She soothes the soul longing for beauty. Her marvelous Soprano is rendered on 25 tracks in this eclectic ensemble. If you are a champion of Handel or a devotee of Mozart, you should not hesitate to purchase this CD. Emma Kirkby will have you beaming with delight and pining for more. Surely it will be one of the brightest of your collection.

AllMusic

Emma Kirkby, Christopher Hogwood - Handel, Arne, Lampe, Haydn & Mozart (1998)

Track List:

CD 1:
1-1 Overture HWV A13 (From Alessandro Severo)
Composed By – George Frideric Handel*
1-2 Welcome Mars (From Brittania)
Composed By – John Frederick Lampe
1-3 Pretty warblers (From Dione)
Composed By – John Frederick Lampe
1-4 Hornpipe (1740)
Composed By – George Frideric Handel*
1-5 Rise, Glory, Rise (From Rosamund)
Composed By – Thomas Augustinus Arne*
1-6 Ingrato Polinesso…Neghittosi Or Voi Che Fate? HWV 33/41b (From Ariodante)
Composed By – George Frideric Handel*
1-7 Credete Al Mio Dolore, HWV 34/40 (From Alcina)
Composed By – George Frideric Handel*
1-8 Tornami A Vegheggiar, HWV 34/15 (From Alcina)
Composed By – George Frideric Handel*
1-9 March In D, HWV 345
Composed By – George Frideric Handel*
1-10 War, He Sung. Is Toil And Trouble, HWV 75/11 (From Alexander’s Feast)
Composed By – George Frideric Handel*
1-11 Sweet Bird, HWV 55/11-12 (From L’Allegro, Il Penseroso Ed Il Moderato)
Composed By – George Frideric Handel*
1-12 Capricious Man, HWV 53/37 (From Saul)
Composed By – George Frideric Handel*
1-13 By The Rusty-Fringed Bank (From Comus)
Composed By – Thomas Augustinus Arne*
1-14 Brightest Lady – Thrice Upon Thy Finger’s Tips (From Comus)
Composed By – Thomas Augustinus Arne*
1-15 Where The Bee Sucks There Lurk I (Ariel’s Song In The Tempest)
Composed By – Thomas Augustinus Arne*

EAC Log
Exact Audio Copy V1.0 beta 3 from 29. August 2011

EAC extraction logfile from 29. March 2012, 18:01

Emma Kirkby [vocal] / Emma Kirkby sings Handel, Arne, Haydn & Mozart 1_2 [Acad Ancient Music- Hogwood]

Used drive : HL-DT-STDVDRAM GH22NS90 Adapter: 7 ID: 0

Read mode : Secure
Utilize accurate stream : Yes
Defeat audio cache : Yes
Make use of C2 pointers : No

Read offset correction : 6
Overread into Lead-In and Lead-Out : No
Fill up missing offset samples with silence : Yes
Delete leading and trailing silent blocks : No
Null samples used in CRC calculations : Yes
Used interface : Native Win32 interface for Win NT & 2000

Used output format : User Defined Encoder
Selected bitrate : 896 kBit/s
Quality : High
Add ID3 tag : No
Command line compressor : C:Program FilesExact Audio CopyFlacflac.exe
Additional command line options : -8 -V -T "ARTIST=%artist%" -T "TITLE=%title%" -T "ALBUM=%albumtitle%" -T "DATE=%year%" -T "TRACKNUMBER=%tracknr%" -T "GENRE=%genre%" -T "PERFORMER=%albuminterpret%" -T "COMPOSER=%composer%" %haslyrics%–tag-from-file=LYRICS="%lyricsfile%"%haslyrics% -T "ALBUMARTIST=%albumartist%" -T "ALBUM ARTIST=%albumartist%" -T "DISCNUMBER=%cdnumber%" -T "TOTALDISCS=%totalcds%" -T "TOTALTRACKS=%numtracks%" -T "COMMENT=%comment%" %source% -o %dest%

TOC of the extracted CD

Track | Start | Length | Start sector | End sector
––––––––––––––––––––––––––––-
1 | 0:00.32 | 5:33.00 | 32 | 25006
2 | 5:33.32 | 4:32.13 | 25007 | 45419
3 | 10:05.45 | 7:58.00 | 45420 | 81269
4 | 18:03.45 | 1:35.25 | 81270 | 88419
5 | 19:38.70 | 6:35.37 | 88420 | 118081
6 | 26:14.32 | 3:44.63 | 118082 | 134944
7 | 29:59.20 | 5:39.25 | 134945 | 160394
8 | 35:38.45 | 4:22.00 | 160395 | 180044
9 | 40:00.45 | 1:25.00 | 180045 | 186419
10 | 41:25.45 | 5:03.62 | 186420 | 209206
11 | 46:29.32 | 13:02.13 | 209207 | 267869
12 | 59:31.45 | 3:46.50 | 267870 | 284869
13 | 63:18.20 | 4:32.00 | 284870 | 305269
14 | 67:50.20 | 1:44.62 | 305270 | 313131
15 | 69:35.07 | 2:20.63 | 313132 | 323694

Range status and errors

Selected range

Filename C:UsersQuantumDesktopAUDIO RIPPEREmma Kirkby [vocal] – Emma Kirkby sings Handel, Arne, Haydn & Mozart 1_2 [Acad Ancient Music- Hogwood].wav

Peak level 99.9 %
Extraction speed 2.0 X
Range quality 100.0 %
Test CRC 0648F6F7
Copy CRC 0648F6F7
Copy OK

No errors occurred

AccurateRip summary

Track 1 accurately ripped (confidence 5) [C58E4B22] (AR v1)
Track 2 accurately ripped (confidence 5) [3968B074] (AR v1)
Track 3 accurately ripped (confidence 5) [2FF5A10A] (AR v1)
Track 4 accurately ripped (confidence 5) [70BC7D5A] (AR v1)
Track 5 accurately ripped (confidence 5) [EA9271BD] (AR v1)
Track 6 accurately ripped (confidence 5) [5BB31757] (AR v1)
Track 7 accurately ripped (confidence 5) [806C661A] (AR v1)
Track 8 accurately ripped (confidence 5) [76ADBC1A] (AR v1)
Track 9 accurately ripped (confidence 5) [7AF53468] (AR v1)
Track 10 accurately ripped (confidence 5) [1522EC17] (AR v1)
Track 11 accurately ripped (confidence 5) [BFA70BD4] (AR v1)
Track 12 accurately ripped (confidence 5) [2F0D4C36] (AR v1)
Track 13 accurately ripped (confidence 5) [218B8C20] (AR v1)
Track 14 accurately ripped (confidence 5) [F50DBD20] (AR v1)
Track 15 accurately ripped (confidence 5) [21B77E1F] (AR v1)

All tracks accurately ripped

End of status report

–– CUETools DB Plugin V2.1.3

[CTDB TOCID: a8mzymhY.vRKy8FLLKctLIFGAfs-] disk not present in database, Submit result: discs with pregaps not supported in this protocol version

==== Log checksum F92771C576CCC2F2E5BB962CCAFC2F265C4E7C2FAC16A870E4920FDD54252056 ====

CUETools Log
[CUETools log; Date: 21.12.2016 21:05:53; Version: 2.1.5]
Pregap length 00:00:32.
[CTDB TOCID: a8mzymhY.vRKy8FLLKctLIFGAfs-] found.
Track | CTDB Status
1 | (8/8) Accurately ripped
2 | (8/8) Accurately ripped
3 | (8/8) Accurately ripped
4 | (8/8) Accurately ripped
5 | (8/8) Accurately ripped
6 | (8/8) Accurately ripped
7 | (8/8) Accurately ripped
8 | (8/8) Accurately ripped
9 | (8/8) Accurately ripped
10 | (8/8) Accurately ripped
11 | (8/8) Accurately ripped
12 | (8/8) Accurately ripped
13 | (8/8) Accurately ripped
14 | (8/8) Accurately ripped
15 | (8/8) Accurately ripped
[AccurateRip ID: 002990f0-01d51ae1-c310db0f] found.
Track [ CRC | V2 ] Status
01 [c58e4b22|57649179] (05+03/20) Accurately ripped
02 [3968b074|35f9a733] (05+03/20) Accurately ripped
03 [2ff5a10a|c8d229d6] (05+04/21) Accurately ripped
04 [70bc7d5a|68ddedd5] (05+04/21) Accurately ripped
05 [ea9271bd|3b0a2515] (05+04/21) Accurately ripped
06 [5bb31757|cf98270b] (05+04/21) Accurately ripped
07 [806c661a|0b669bdf] (05+04/21) Accurately ripped
08 [76adbc1a|2f99ebc7] (05+04/21) Accurately ripped
09 [7af53468|625d2b71] (05+04/21) Accurately ripped
10 [1522ec17|a29ac2b1] (05+04/21) Accurately ripped
11 [bfa70bd4|48ebf202] (05+04/21) Accurately ripped
12 [2f0d4c36|264926ce] (05+04/21) Accurately ripped
13 [218b8c20|332e4f80] (05+04/21) Accurately ripped
14 [f50dbd20|be2288f6] (05+04/21) Accurately ripped
15 [21b77e1f|0093c63a] (05+04/21) Accurately ripped
Offsetted by 669:
01 [10e53125] (02/20) Accurately ripped
02 [a71fbe21] (02/20) Accurately ripped
03 [1505a38a] (02/21) Accurately ripped
04 [d11ad673] (02/21) Accurately ripped
05 [2287c8fd] (02/21) Accurately ripped
06 [9c019f55] (02/21) Accurately ripped
07 [7ed151e4] (02/21) Accurately ripped
08 [ace45f33] (02/21) Accurately ripped
09 [8d0e8a7f] (02/21) Accurately ripped
10 [5c135336] (02/21) Accurately ripped
11 [a77e159b] (02/21) Accurately ripped
12 [f77c3e7d] (02/21) Accurately ripped
13 [28da01ee] (02/21) Accurately ripped
14 [958f6963] (02/21) Accurately ripped
15 [932209eb] (02/21) Accurately ripped
Offsetted by -1427:
01 [c80df9d3] (00/20) No match (V2 was not tested)
02 [c21f01e3] (00/20) No match (V2 was not tested)
03 [b4195f0b] (00/21) No match (V2 was not tested)
04 [300f4863] (00/21) No match (V2 was not tested)
05 [20238401] (00/21) No match (V2 was not tested)
06 [eba8779c] (00/21) No match (V2 was not tested)
07 [f49f4417] (00/21) No match (V2 was not tested)
08 [6edab997] (00/21) No match (V2 was not tested)
09 [2dec0c24] (00/21) No match (V2 was not tested)
10 [efa99b58] (00/21) No match (V2 was not tested)
11 [dc143cb3] (00/21) No match (V2 was not tested)
12 [581f0a4d] (00/21) No match (V2 was not tested)
13 [3407824a] (00/21) No match (V2 was not tested)
14 [d8ad0b29] (00/21) No match (V2 was not tested)
15 [05e2729e] (00/21) No match (V2 was not tested)

Track Peak [ CRC32 ] [W/O NULL] [ LOG ]
– 78,4 [0648F6F7] [AA45EFA8] CRC32
01 30,6 [857F8B40] [6985CF54]
02 49,0 [1EDAA2E6] [305CBA03]
03 42,3 [B2BF07AA] [72B00124]
04 31,4 [81174357] [7F02BE71]
05 78,4 [275025A0] [765F8B9B]
06 53,3 [5DEDC0B1] [5A372D38]
07 50,0 [981E1095] [59B24E99]
08 53,4 [33C43C81] [A1B3478C]
09 38,6 [2E5177B6] [AC5271AD]
10 39,6 [CD9CE1C2] [328B15F0]
11 39,4 [37F6CF2D] [9207A7B4]
12 60,0 [67105FD1] [8E127BDD]
13 44,5 [14999D45] [019B8257]
14 30,9 [83982697] [63D981A4]
15 49,6 [589DADCD] [E4D6A647]

CD 2:
2-1 With Verdure Clad (From The Creation)
Composed By – Joseph Haydn
2-2 On Mighty Pens (From The Creation)
Composed By – Joseph Haydn
2-3 Aer Tranquillo E Di Sereni (From Il Ré Pastore, K208)
Composed By – Wolfgang Amadeus Mozart
2-4 L’Amero, Saro Costante (From Il Ré Pastore, K208)
Composed By – Wolfgang Amadeus MozartSoloist [Violin] – Christopher Hirons
2-5 Voi Avete Un Cor Fedele, K217
Composed By – Wolfgang Amadeus Mozart
2-6 Ah, Lo Previdi!, K272
Composed By – Wolfgang Amadeus Mozart
2-7 Ruhe Sanft, Mein Holdes Leben (From Zaide, K344)
Composed By – Wolfgang Amadeus Mozart
2-8 Trostlos Schluchzet Philomele (From Zaide, K344)
Composed By – Wolfgang Amadeus Mozart
2-9 Nehmt Meinen Dank, Ihr Holden Gönner!, K383
Composed By – Wolfgang Amadeus Mozart
2-10 Ch’Io Mi Scordi Di Te?. K505
Composed By – Wolfgang Amadeus Mozart
Soloist [Fortepiano] – Steven Lubin

EAC Log
Exact Audio Copy V1.0 beta 3 from 29. August 2011

EAC extraction logfile from 29. March 2012, 19:05

Emma Kirkby / Emma Kirkby sings Handel, Arne, Haydn & Mozart

Used drive : HL-DT-STDVDRAM GH22NS90 Adapter: 7 ID: 0

Read mode : Secure
Utilize accurate stream : Yes
Defeat audio cache : Yes
Make use of C2 pointers : No

Read offset correction : 6
Overread into Lead-In and Lead-Out : No
Fill up missing offset samples with silence : Yes
Delete leading and trailing silent blocks : No
Null samples used in CRC calculations : Yes
Used interface : Native Win32 interface for Win NT & 2000

Used output format : User Defined Encoder
Selected bitrate : 896 kBit/s
Quality : High
Add ID3 tag : No
Command line compressor : C:Program FilesExact Audio CopyFlacflac.exe
Additional command line options : -8 -V -T "ARTIST=%artist%" -T "TITLE=%title%" -T "ALBUM=%albumtitle%" -T "DATE=%year%" -T "TRACKNUMBER=%tracknr%" -T "GENRE=%genre%" -T "PERFORMER=%albuminterpret%" -T "COMPOSER=%composer%" %haslyrics%–tag-from-file=LYRICS="%lyricsfile%"%haslyrics% -T "ALBUMARTIST=%albumartist%" -T "ALBUM ARTIST=%albumartist%" -T "DISCNUMBER=%cdnumber%" -T "TOTALDISCS=%totalcds%" -T "TOTALTRACKS=%numtracks%" -T "COMMENT=%comment%" %source% -o %dest%

TOC of the extracted CD

Track | Start | Length | Start sector | End sector
––––––––––––––––––––––––––––-
1 | 0:00.00 | 4:58.48 | 0 | 22397
2 | 4:58.48 | 7:18.24 | 22398 | 55271
3 | 12:16.72 | 6:17.38 | 55272 | 83584
4 | 18:34.35 | 6:08.50 | 83585 | 111234
5 | 24:43.10 | 6:21.62 | 111235 | 139871
6 | 31:04.72 | 11:24.45 | 139872 | 191216
7 | 42:29.42 | 5:29.05 | 191217 | 215896
8 | 47:58.47 | 5:27.43 | 215897 | 240464
9 | 53:26.15 | 3:39.70 | 240465 | 256959
10 | 57:06.10 | 10:19.73 | 256960 | 303457

Range status and errors

Selected range

Filename C:UsersQuantumDesktopAUDIO RIPPEREmma Kirkby – Emma Kirkby sings Handel, Arne, Haydn & Mozart.wav

Peak level 98.8 %
Extraction speed 2.0 X
Range quality 100.0 %
Test CRC 5126C2AA
Copy CRC 5126C2AA
Copy OK

No errors occurred

AccurateRip summary

Track 1 accurately ripped (confidence 6) [3EF64623] (AR v1)
Track 2 accurately ripped (confidence 5) [EB0E027F] (AR v1)
Track 3 accurately ripped (confidence 6) [F1E1E3B1] (AR v1)
Track 4 accurately ripped (confidence 6) [8BBB9B6D] (AR v1)
Track 5 accurately ripped (confidence 6) [1E948347] (AR v1)
Track 6 accurately ripped (confidence 6) [8ED91843] (AR v1)
Track 7 accurately ripped (confidence 6) [D28041C7] (AR v1)
Track 8 accurately ripped (confidence 6) [20C77238] (AR v1)
Track 9 accurately ripped (confidence 6) [F11ECF2C] (AR v1)
Track 10 accurately ripped (confidence 6) [AA7F18BA] (AR v1)

All tracks accurately ripped

End of status report

–– CUETools DB Plugin V2.1.3

[CTDB TOCID: iHTc0PmS11knmnjdvyoLZ1D4jsI-] disk not present in database, Submit result: iHTc0PmS11knmnjdvyoLZ1D4jsI- has been uploaded

==== Log checksum F27EAC7F881FEF7BFE5FB3DBAB78256AF30D6F50EF4F2C36AA1027E540F70EE9 ====

CUETools Log
[CUETools log; Date: 21.12.2016 21:06:36; Version: 2.1.5]
[CTDB TOCID: iHTc0PmS11knmnjdvyoLZ1D4jsI-] found.
Track | CTDB Status
1 | (9/9) Accurately ripped
2 | (9/9) Accurately ripped
3 | (9/9) Accurately ripped
4 | (9/9) Accurately ripped
5 | (9/9) Accurately ripped
6 | (9/9) Accurately ripped
7 | (9/9) Accurately ripped
8 | (9/9) Accurately ripped
9 | (9/9) Accurately ripped
10 | (9/9) Accurately ripped
[AccurateRip ID: 0018b987-00c78d76-840fce0a] found.
Track [ CRC | V2 ] Status
01 [3ef64623|0bb48339] (06+08/14) Accurately ripped
02 [eb0e027f|c021ade7] (05+08/13) Accurately ripped
03 [f1e1e3b1|0595ebdf] (06+08/14) Accurately ripped
04 [8bbb9b6d|6ba541aa] (06+08/14) Accurately ripped
05 [1e948347|bb77750e] (06+08/14) Accurately ripped
06 [8ed91843|2ffc5c62] (06+08/14) Accurately ripped
07 [d28041c7|e1d2d186] (06+08/14) Accurately ripped
08 [20c77238|ed8a522b] (06+08/14) Accurately ripped
09 [f11ecf2c|0026b9a9] (06+08/14) Accurately ripped
10 [aa7f18ba|95ac0e84] (06+08/14) Accurately ripped

Track Peak [ CRC32 ] [W/O NULL] [ LOG ]
– 97,1 [5126C2AA] [9BA9132E] CRC32
01 77,1 [D6B895C2] [F570058E]
02 90,1 [20F82BBA] [B240C000]
03 87,6 [7A2DEB28] [4A7F341F]
04 91,3 [9DE5B1AE] [A09FF058]
05 96,9 [6ACE6EEB] [728C4FAB]
06 97,1 [329FADC1] [06E17395]
07 88,5 [0DB8B49D] [245E1167]
08 96,0 [83DC29D0] [829E3904]
09 92,9 [64627615] [D6AA8ABE]
10 95,6 [8B6D8EC3] [6058CB1F]

Performers:
Emma Kirkby, soprano
Academy of Ancient Music
Christopher Hogwood, conductor

Thanks to the Original ripper (unknown)!

Download:

Emma Kirkby, Christopher Hogwood – Handel, Arne, Lampe, Haydn & Mozart (1998) Download, Warez, DDL, Free, Full Album, Torrent, Legal.

Download