Emerson Lake & Palmer – The Best Of Emerson Lake & Palmer (1980) Repost / New Rip

Download
Emerson Lake & Palmer - The Best Of Emerson Lake & Palmer (1980) Repost / New Rip

Emerson Lake & Palmer – The Best Of Emerson Lake & Palmer (1980)
EAC Rip | FLAC (Img) + Cue + Log ~ 237 Mb | MP3 CBR320 ~ 94 Mb
Scans (PNG, 120 dpi) ~ 104 Mb | RAR 5% Recovery
Progressive Rock | Atlantic #19283-2, Europe: 250 757 | W.Germany

Welcome back, my friends, to the show that never ends. Well, such is the idea for an Emerson, Lake & Palmer compilation, but this one does tend to fall a bit short, literally. After all, since it was originally released as an LP, the disc comes in at less than 40 minutes. Certainly with a catalog as rich as Emerson, Lake & Palmer’s it is extremely difficult for one CD (especially a short one) to truly capture the essence of the group. This one fails both as a chronological compilation and as the best-of that it is billed as being. That said, there are some good points here. "Lucky Man," "Peter Gunn," and "Still You Turn Me On" are all essential Emerson, Lake & Palmer cuts that truly work well here. "Karn Evil 9" suffers, as it would have to, from the fact that only one movement of the piece can be presented on the disc. "Fanfare for the Common Man" is a similar situation, with just the single rendition being able to fit on the album. If you really want a compilation as a starting point for your Emerson, Lake & Palmer collection, you would be well advised to hold out for the more comprehensive two-CD set The Atlantic Years.

~ Gary Hill, All Music
Official Website | Wiki | Discogs | All Music

***************

Emerson Lake & Palmer - The Best Of Emerson Lake & Palmer (1980) Repost / New Rip

Track List:

01. Hoedown [0:03:46.15]
02. Lucky Man [0:04:38.50]
03. Karn Evil 9: 1st Impression, Pt. 2 [0:04:48.28]
04. Jerusalem [0:02:45.62]
05. Peter Gunn Theme [0:03:37.38]
06. Fanfare for the Common Man [0:02:56.70]
07. Still…You Turn Me On [0:02:54.20]
08. Tiger in a Spotlight [0:04:35.12]
09. Trilogy [0:08:51.55]

EAC Log
Exact Audio Copy V1.1 from 23. June 2015

EAC extraction logfile from 28. December 2016, 19:03

Emerson, Lake & Palmer / The Best of Emerson, Lake & Palmer [Atlantic]

Used drive : SONY BD RW BDX-S600U Adapter: 1 ID: 1

Read mode : Secure
Utilize accurate stream : Yes
Defeat audio cache : Yes
Make use of C2 pointers : No

Read offset correction : 48
Overread into Lead-In and Lead-Out : No
Fill up missing offset samples with silence : Yes
Delete leading and trailing silent blocks : No
Null samples used in CRC calculations : Yes
Used interface : Native Win32 interface for Win NT & 2000

Used output format : User Defined Encoder
Selected bitrate : 768 kBit/s
Quality : High
Add ID3 tag : No
Command line compressor : C:Program Files (x86)Exact Audio CopyFLACFLAC.EXE
Additional command line options : -V -8 -T "Date=%year%" -T "Genre=%genre%" %source%

TOC of the extracted CD

Track | Start | Length | Start sector | End sector
––––––––––––––––––––––––––––-
1 | 0:00.32 | 3:46.15 | 32 | 16996
2 | 3:46.47 | 4:38.50 | 16997 | 37896
3 | 8:25.22 | 4:48.28 | 37897 | 59524
4 | 13:13.50 | 2:45.62 | 59525 | 71961
5 | 15:59.37 | 3:37.38 | 71962 | 88274
6 | 19:37.00 | 2:56.70 | 88275 | 101544
7 | 22:33.70 | 2:54.20 | 101545 | 114614
8 | 25:28.15 | 4:35.12 | 114615 | 135251
9 | 30:03.27 | 8:51.55 | 135252 | 175131

Range status and errors

Selected range

Filename D:Emerson Lake & Palmer DiscographyCompilations1980. Emerson Lake & Palmer – The Best Of Emerson Lake & Palmer (Atlantic 19283-2, 250 757, W.Germany)Emerson, Lake & Palmer – The Best of Emerson, Lake & Palmer [Atlantic].wav

Peak level 92.4 %
Extraction speed 6.2 X
Range quality 100.0 %
Test CRC DCFBB8D6
Copy CRC DCFBB8D6
Copy OK

No errors occurred

AccurateRip summary

Track 1 accurately ripped (confidence 54) [A9CE2140] (AR v2)
Track 2 accurately ripped (confidence 54) [35154A44] (AR v2)
Track 3 accurately ripped (confidence 54) [43106ACA] (AR v2)
Track 4 accurately ripped (confidence 54) [D7D82A50] (AR v2)
Track 5 accurately ripped (confidence 54) [983A7909] (AR v2)
Track 6 accurately ripped (confidence 54) [C993D246] (AR v2)
Track 7 accurately ripped (confidence 54) [4B01BE31] (AR v2)
Track 8 accurately ripped (confidence 54) [12F06912] (AR v2)
Track 9 accurately ripped (confidence 52) [654B0CE7] (AR v2)

All tracks accurately ripped

End of status report

–– CUETools DB Plugin V2.1.6

[CTDB TOCID: w.YhQQcgMsu.HC42MNC3tl7vSBA-] found
Submit result: w.YhQQcgMsu.HC42MNC3tl7vSBA- has been confirmed
Track | CTDB Status
1 | (46/48) Accurately ripped, or (1/48) differs in 43 samples @00:28:07-00:28:08,01:07:00
2 | (48/48) Accurately ripped
3 | (46/48) Accurately ripped
4 | (48/48) Accurately ripped
5 | (45/48) Accurately ripped
6 | (48/48) Accurately ripped
7 | (48/48) Accurately ripped
8 | (47/48) Accurately ripped
9 | (48/48) Accurately ripped

==== Log checksum 52EC2E091179978A8963CA93043FA1551A3302ECEEF658C1201EBC041758D508 ====

DR Log
foobar2000 1.2.6 / Dynamic Range Meter 1.1.1
log date: 2016-12-28 22:58:02

––––––––––––––––––––––––––––––––––––––––
Analyzed: Emerson, Lake & Palmer / The Best of Emerson, Lake & Palmer [Atlantic]
––––––––––––––––––––––––––––––––––––––––

DR Peak RMS Duration Track
––––––––––––––––––––––––––––––––––––––––
DR12 -0.69 dB -16.53 dB 3:46 01-Hoedown
DR11 -3.54 dB -18.35 dB 4:39 02-Lucky Man
DR12 -2.42 dB -17.00 dB 4:48 03-Karn Evil 9: 1st Impression, Pt. 2
DR10 -3.23 dB -17.31 dB 2:46 04-Jerusalem
DR12 -3.00 dB -17.96 dB 3:38 05-Peter Gunn Theme
DR11 -3.03 dB -16.82 dB 2:57 06-Fanfare for the Common Man
DR13 -4.94 dB -23.61 dB 2:54 07-Still…You Turn Me On
DR13 -3.90 dB -19.78 dB 4:35 08-Tiger in a Spotlight
DR11 -2.39 dB -17.61 dB 8:52 09-Trilogy
––––––––––––––––––––––––––––––––––––––––

Number of tracks: 9
Official DR value: DR12

Samplerate: 44100 Hz
Channels: 2
Bits per sample: 16
Bitrate: 812 kbps
Codec: FLAC
================================================================================

CUETools Log
[CUETools log; Date: 28.12.2016 22:58:29; Version: 2.1.5]
Pregap length 00:00:32.
[CTDB TOCID: w.YhQQcgMsu.HC42MNC3tl7vSBA-] found.
Track | CTDB Status
1 | (47/49) Accurately ripped
2 | (49/49) Accurately ripped
3 | (47/49) Accurately ripped
4 | (49/49) Accurately ripped
5 | (46/49) Accurately ripped
6 | (49/49) Accurately ripped
7 | (49/49) Accurately ripped
8 | (48/49) Accurately ripped
9 | (49/49) Accurately ripped
[AccurateRip ID: 000c39d0-005997f0-76091f09] found.
Track [ CRC | V2 ] Status
01 [3e5eb5ab|a9ce2140] (060+054/114) Accurately ripped
02 [1ee4d73e|35154a44] (063+054/117) Accurately ripped
03 [54f7aee3|43106aca] (063+054/117) Accurately ripped
04 [fd4812fd|d7d82a50] (062+054/116) Accurately ripped
05 [6e18e56a|983a7909] (063+054/117) Accurately ripped
06 [bfd537e1|c993d246] (062+054/116) Accurately ripped
07 [ba274330|4b01be31] (062+054/116) Accurately ripped
08 [9a6ce7b8|12f06912] (062+054/116) Accurately ripped
09 [7e5abaa4|654b0ce7] (062+052/114) Accurately ripped

Track Peak [ CRC32 ] [W/O NULL] [ LOG ]
– 92,4 [DCFBB8D6] [CE73328D] CRC32
01 92,4 [1ADC64FA] [910906E8]
02 66,5 [83CE4609] [1A1DCBBF]
03 75,6 [3E8C07E5] [E6126CF3]
04 68,9 [26B82BB1] [E8A27471]
05 70,7 [7F5A079C] [3B45CF90]
06 70,5 [D569BE8B] [CB7F73AF]
07 56,6 [4F942358] [0D1BF562]
08 63,8 [ACD99BFF] [6BFB00DF]
09 75,9 [A082FAAF] [9B07A716]

Emerson Lake & Palmer - The Best Of Emerson Lake & Palmer (1980) Repost / New Rip

Emerson Lake & Palmer - The Best Of Emerson Lake & Palmer (1980) Repost / New Rip

All thanks go to alonzo

> Emerson, Lake & Palmer in my blog <

Download:

Emerson Lake & Palmer – The Best Of Emerson Lake & Palmer (1980) Repost / New Rip Download, Warez, DDL, Free, Full Album, Torrent, Legal.

Download