Emanuele Cardi – Tunder: Complete Organ Music (2016)

Download
Emanuele Cardi - Tunder: Complete Organ Music (2016)

Emanuele Cardi – Tunder: Complete Organ Music
Classical | FLAC (tracks)+cue, log, artwork | 91:21 min | 369 MB
Label: Brilliant Classics | Tracks: 16 | Rls.date: 2016

Franz Tunder (1614-1667): another of those superbly schooled North German musicians whose name was quickly eclipsed by the great Johann Sebastian, but whose music has happily been rediscovered by the historically informed performance movement. Indeed he studied with Frescobaldi, the forebear to whom Bach himself owed much, and the Florentine influence is apparent in some of the stile antico harmony of the chorales and the dancing rhythms of the Canzona in G major. Tunders career was made in Lübeck, where he became organist of the Marienkirche in 1641, having made a politically expedient marriage to the daughter of the court tailor. Among five children born to the Tunders, Anne Margarethe then married Tunders successor in Lübeck, the very Dieterich Buxtehude whom Bach hiked halfway up Germany to hear as a young man. In the Lübeck Marienkirche Tunder had command of two fine instruments, the large organ (three manuals, 52 stops) and the smaller one in the Totentanz Chapel (three manuals, 40 stops). His music reflects this potential for colour, especially the nine chorale settings: Hauptwerk, Ruckpositiv and pedal are used in varying combinations, including the exchange of voices, interconnections and special echo techniques such as canon-echo combinations, allowing the application of all its artifices that characterize the stylus phantasticus which is perhaps more associated now with harpsichord and chamber music. These new recordings were made on the organ of the Chiesa di S. Maria della Speranza in Battipaglia (Salerno, Italy), built in 1996 by Glauco Ghilardi, who took as his inspiration the 17th century North-German instruments of Arp Schnitger, doyen of organ builders, without whose work the sonority of Bachs mature writing for the organ is unimaginable. Franz Tunder (1614-1667) was born in the German city of Lübeck, where he stayed his whole life as organist and treasurer of the St. Marienkirche. Tunder is one of the cornerstones of the North German organ school. His style is the Stylus Phantasticus, in which the emotional content of the text is the basis of the musical expression, using sudden harmonic changes, dissonances and tone painting. Tunder left an oeuvre consisting of Chorale Preludes on Lutheran hymns, as well as several separate organ preludes. Emanuele Cardi is one of the foremost Italian organists, specialized in early organs and the restoration of Baroque instruments. On this recording he plays a magnificent Ghilardi organ built in 1996, inspired by the 17-th century German Arp Schnitger instruments. Excellent liner notes written by a musicologist, as well as the complete disposition and photo of the organ are included in the booklet. Another fine issue in the Brilliant Classics series of Pre-Bachian organ masters!

Emanuele Cardi - Tunder: Complete Organ Music (2016)

TRACLIST CD1

1. Præludium in G Minor (I) 03:09
2. In dich hab ich gehoffet, Herr 05:28
3. Auf meinen lieben Gott 07:26
4. Præludium in F Major 03:40
5. Herr Gott, dich loben wir 07:42
6. Canzona in G Major 01:42
7. Christ lag in Todes Banden 11:57
8. Jesus Christus, wahr’ Gottes Sohn 05:19

EAC Log
Exact Audio Copy V1.1 from 23. June 2015

EAC extraction logfile from 17. December 2016, 17:41

Emanuele Cardi, Salerno / Tunder – Complete Organ Music [CD1]

Used drive : HL-DT-STDVDRAM GP57EB40 Adapter: 1 ID: 1

Read mode : Secure
Utilize accurate stream : Yes
Defeat audio cache : Yes
Make use of C2 pointers : No

Read offset correction : 6
Overread into Lead-In and Lead-Out : No
Fill up missing offset samples with silence : Yes
Delete leading and trailing silent blocks : No
Null samples used in CRC calculations : Yes
Used interface : Native Win32 interface for Win NT & 2000
Gap handling : Appended to previous track

Used output format : User Defined Encoder
Selected bitrate : 1024 kBit/s
Quality : High
Add ID3 tag : No
Command line compressor : C:Program Files (x86)Exact Audio CopyFLACFLAC.EXE
Additional command line options : -6 -V -T "ARTIST=%artist%" -T "TITLE=%title%" -T "ALBUM=%albumtitle%" -T "DATE=%year%" -T "TRACKNUMBER=%tracknr%" -T "GENRE=%genre%" -T "COMMENT=%comment%" -T "BAND=%albuminterpret%" -T "ALBUMARTIST=%albuminterpret%" -T "COMPOSER=%composer%" %haslyrics%–tag-from-file=LYRICS="%lyricsfile%"%haslyrics% -T "DISCNUMBER=%cdnumber%" -T "TOTALDISCS=%totalcds%" -T "TOTALTRACKS=%numtracks%" %hascover%–picture="%coverfile%"%hascover% %source% -o %dest%

TOC of the extracted CD

Track | Start | Length | Start sector | End sector
––––––––––––––––––––––––––––-
1 | 0:00.00 | 3:11.22 | 0 | 14346
2 | 3:11.22 | 5:30.00 | 14347 | 39096
3 | 8:41.22 | 7:28.03 | 39097 | 72699
4 | 16:09.25 | 3:42.27 | 72700 | 89376
5 | 19:51.52 | 7:44.28 | 89377 | 124204
6 | 27:36.05 | 1:44.38 | 124205 | 132042
7 | 29:20.43 | 11:59.36 | 132043 | 186003
8 | 41:20.04 | 5:19.30 | 186004 | 209958

Track 1

Filename C:EAC1 Praeludium I in g minor.wav

Pre-gap length 0:00:02.00

Peak level 53.7 %
Extraction speed 2.5 X
Track quality 100.0 %
Test CRC 3E85E75C
Copy CRC 3E85E75C
Accurately ripped (confidence 2) [23C877B6] (AR v2)
Copy OK

Track 2

Filename C:EAC2 In dich hab ich gehoffet, Herr.wav

Pre-gap length 0:00:02.00

Peak level 50.7 %
Extraction speed 2.7 X
Track quality 99.9 %
Test CRC AA223539
Copy CRC AA223539
Accurately ripped (confidence 2) [36F9715D] (AR v2)
Copy OK

Track 3

Filename C:EAC3 Auf meinen lieben Gott.wav

Pre-gap length 0:00:02.00

Peak level 33.0 %
Extraction speed 3.6 X
Track quality 100.0 %
Test CRC 37AF83EB
Copy CRC 37AF83EB
Accurately ripped (confidence 2) [A4BC52D7] (AR v2)
Copy OK

Track 4

Filename C:EAC4 Praeludium in F major.wav

Pre-gap length 0:00:02.00

Peak level 45.9 %
Extraction speed 3.7 X
Track quality 100.0 %
Test CRC B7C38484
Copy CRC B7C38484
Accurately ripped (confidence 2) [834E24CB] (AR v2)
Copy OK

Track 5

Filename C:EAC5 Herr Gott, dich loben wir.wav

Pre-gap length 0:00:02.00

Peak level 37.2 %
Extraction speed 4.3 X
Track quality 100.0 %
Test CRC 91106E93
Copy CRC 91106E93
Accurately ripped (confidence 2) [60E7A976] (AR v2)
Copy OK

Track 6

Filename C:EAC6 Canzona in G major.wav

Pre-gap length 0:00:02.00

Peak level 14.0 %
Extraction speed 3.6 X
Track quality 100.0 %
Test CRC B786B7A4
Copy CRC B786B7A4
Accurately ripped (confidence 2) [57CF7478] (AR v2)
Copy OK

Track 7

Filename C:EAC7 Christ lag in Todes Banden.wav

Pre-gap length 0:00:02.00

Peak level 45.2 %
Extraction speed 5.0 X
Track quality 100.0 %
Test CRC 547C0DE0
Copy CRC 547C0DE0
Accurately ripped (confidence 2) [C4808A44] (AR v2)
Copy OK

Track 8

Filename C:EAC8 Jesus Christus, wahr’ Gottes Sohn.wav

Pre-gap length 0:00:02.00

Peak level 33.4 %
Extraction speed 4.4 X
Track quality 99.9 %
Test CRC 2E0C3434
Copy CRC 2E0C3434
Accurately ripped (confidence 2) [8FE37F93] (AR v2)
Copy OK

All tracks accurately ripped

No errors occurred

End of status report

–– CUETools DB Plugin V2.1.6

[CTDB TOCID: fvYuUYqV5NGUxSvBmGZPJYQPVzQ-] found
Submit result: fvYuUYqV5NGUxSvBmGZPJYQPVzQ- has been confirmed
Track | CTDB Status
1 | (4/4) Accurately ripped
2 | (4/4) Accurately ripped
3 | (4/4) Accurately ripped
4 | (4/4) Accurately ripped
5 | (4/4) Accurately ripped
6 | (4/4) Accurately ripped
7 | (4/4) Accurately ripped
8 | (4/4) Accurately ripped

==== Log checksum C459EEA90E106A6EAC2DF10C13A0E8C27AF29604C58EE363E0BFA53DBBBDD772 ====

Emanuele Cardi - Tunder: Complete Organ Music (2016)

TRACKLIST CD2

9 .Præludium in G Minor (III) 04:02

Jesus Christus, unser Heiland (Franz Tunder)
10. I. Primus versus 02:18
11. II. Secundus versus 01:33
12. III. Tertius versus 02:11
13. Was kann uns kommen an für Not (Vers.1) 14:17
14. Komm, Heiliger Geist, Herre Gott 07:21
15. Was kann uns kommen an für Not (Vers.2) 09:46
16. Præludium in G Minor (II) 03:33

EAC Log
Exact Audio Copy V1.1 from 23. June 2015

EAC extraction logfile from 17. December 2016, 18:23

Emanuele Cardi, Salerno / Tunder – Complete Organ Music [CD2]

Used drive : HL-DT-STDVDRAM GP57EB40 Adapter: 1 ID: 1

Read mode : Secure
Utilize accurate stream : Yes
Defeat audio cache : Yes
Make use of C2 pointers : No

Read offset correction : 6
Overread into Lead-In and Lead-Out : No
Fill up missing offset samples with silence : Yes
Delete leading and trailing silent blocks : No
Null samples used in CRC calculations : Yes
Used interface : Native Win32 interface for Win NT & 2000
Gap handling : Appended to previous track

Used output format : User Defined Encoder
Selected bitrate : 1024 kBit/s
Quality : High
Add ID3 tag : No
Command line compressor : C:Program Files (x86)Exact Audio CopyFLACFLAC.EXE
Additional command line options : -6 -V -T "ARTIST=%artist%" -T "TITLE=%title%" -T "ALBUM=%albumtitle%" -T "DATE=%year%" -T "TRACKNUMBER=%tracknr%" -T "GENRE=%genre%" -T "COMMENT=%comment%" -T "BAND=%albuminterpret%" -T "ALBUMARTIST=%albuminterpret%" -T "COMPOSER=%composer%" %haslyrics%–tag-from-file=LYRICS="%lyricsfile%"%haslyrics% -T "DISCNUMBER=%cdnumber%" -T "TOTALDISCS=%totalcds%" -T "TOTALTRACKS=%numtracks%" %hascover%–picture="%coverfile%"%hascover% %source% -o %dest%

TOC of the extracted CD

Track | Start | Length | Start sector | End sector
––––––––––––––––––––––––––––-
1 | 0:00.00 | 4:04.26 | 0 | 18325
2 | 4:04.26 | 2:19.66 | 18326 | 28816
3 | 6:24.17 | 1:34.61 | 28817 | 35927
4 | 7:59.03 | 2:13.32 | 35928 | 45934
5 | 10:12.35 | 14:19.23 | 45935 | 110382
6 | 24:31.58 | 7:22.42 | 110383 | 143574
7 | 31:54.25 | 9:48.04 | 143575 | 187678
8 | 41:42.29 | 3:33.35 | 187679 | 203688

Track 1

Filename C:EAC1 Praeludium III in g minor.wav

Pre-gap length 0:00:02.00

Peak level 31.4 %
Extraction speed 2.3 X
Track quality 99.9 %
Test CRC E3D32F82
Copy CRC E3D32F82
Accurately ripped (confidence 2) [4E959440] (AR v2)
Copy OK

Track 2

Filename C:EAC2 Jesus Christus, unser Heiland – Primus Versus.wav

Pre-gap length 0:00:02.00

Peak level 59.9 %
Extraction speed 2.6 X
Track quality 100.0 %
Test CRC 747F925D
Copy CRC 747F925D
Accurately ripped (confidence 2) [B899A000] (AR v2)
Copy OK

Track 3

Filename C:EAC3 Jesus Christus, unser Heiland – Secundus Versus.wav

Pre-gap length 0:00:02.00

Peak level 35.2 %
Extraction speed 2.5 X
Track quality 100.0 %
Test CRC D16D301A
Copy CRC D16D301A
Accurately ripped (confidence 2) [0A3D5B3C] (AR v2)
Copy OK

Track 4

Filename C:EAC4 Jesus Christus, unser Heiland – Tertius Versus.wav

Pre-gap length 0:00:02.00

Peak level 63.2 %
Extraction speed 2.2 X
Track quality 99.9 %
Test CRC CD5F5E06
Copy CRC CD5F5E06
Accurately ripped (confidence 2) [C8BAAE36] (AR v2)
Copy OK

Track 5

Filename C:EAC5 Was kann uns kommen… (vers I).wav

Pre-gap length 0:00:02.00

Peak level 34.0 %
Extraction speed 3.0 X
Track quality 99.9 %
Test CRC D23B482D
Copy CRC D23B482D
Accurately ripped (confidence 2) [5C31A4A2] (AR v2)
Copy OK

Track 6

Filename C:EAC6 Komm, Heiliger Geist….wav

Pre-gap length 0:00:02.00

Peak level 35.8 %
Extraction speed 3.5 X
Track quality 99.9 %
Test CRC 86B65000
Copy CRC 86B65000
Accurately ripped (confidence 2) [BC65A765] (AR v2)
Copy OK

Track 7

Filename C:EAC7 Was kann uns kommen… (vers II).wav

Pre-gap length 0:00:02.00

Peak level 33.1 %
Extraction speed 4.0 X
Track quality 100.0 %
Test CRC E58BE994
Copy CRC E58BE994
Accurately ripped (confidence 2) [EE575D41] (AR v2)
Copy OK

Track 8

Filename C:EAC8 Praeludium II in g minor.wav

Pre-gap length 0:00:02.00

Peak level 53.9 %
Extraction speed 2.9 X
Track quality 99.9 %
Test CRC F66C8C86
Copy CRC F66C8C86
Accurately ripped (confidence 2) [A914C33B] (AR v2)
Copy OK

All tracks accurately ripped

No errors occurred

End of status report

–– CUETools DB Plugin V2.1.6

[CTDB TOCID: 5bSnJHQT7nzKsxhNUySv1Rk1QTk-] found
Submit result: 5bSnJHQT7nzKsxhNUySv1Rk1QTk- has been confirmed
Track | CTDB Status
1 | (4/4) Accurately ripped
2 | (4/4) Accurately ripped
3 | (4/4) Accurately ripped
4 | (4/4) Accurately ripped
5 | (4/4) Accurately ripped
6 | (4/4) Accurately ripped
7 | (4/4) Accurately ripped
8 | (4/4) Accurately ripped

==== Log checksum DB649CC58377C0784A5725C8EE1BD888769D45732062F39F2BE8A35681DBE608 ====

Emanuele Cardi - Tunder: Complete Organ Music (2016)
Thanks to the Original customer.
My Blog mp3, flac & HDtracks

Emanuele Cardi – Tunder: Complete Organ Music (2016) Download, Warez, DDL, Free, Full Album, Torrent, Legal.

Download