EMA – Exile In The Outer Ring (2017)

Download
EMA - Exile In The Outer Ring (2017)

EMA – Exile In The Outer Ring
XLD Rip | FLAC (tracks)+cue, log, front cover | 41:04 min | 253 MB
Label: City Slang | Tracks: 11 | Rls.date: 2017
Indie, Experimental, Electronic

fter the success of 2011’s Past Life Martyred Saints and 2014’s prophetic The Future’s Void, EMA retreated to a basement in Portland, Oregon – a generic apartment complex in a non-trendy neighborhood, with beige carpeting and cheap slat blinds. Now, she returns, with a portrait of The Outer Ring: A pitch-black world of dark night highways, American flags hung over basement windows, jails and revival meetings and casinos and rage. In a year dominated by white working-class alienation and anger, EMA – a Midwesterner who never lost her thousand-yard stare – has delivered an album that renders Middle American poverty and resentment with frightening realism and deep empathy.

““I want to explain to outsiders that the people where I come from aren’t beyond hope and reason,” says EMA, “I want this record to bridge a divide.”
The album, co-produced with Jacob Portrait of Unknown Mortal Orchestra, is a return to EMA’s roots in the noise-folk outfit Gowns, whose 2007 album Red State prefigured many of Exile’s core themes, along with its mix of stripped-back folk (“Always Bleeds,” originally a Gowns song), spoken word (“Where the Darkness Began”) and noise epics (“Breathalyzer”).

The album is unique in its mingling of gender politics with American working-class anxiety. The voices we hear in these songs — druggy, surly societal outcasts; Byronic nihilists bringing down fire — speak to a kind of rebellion that’s typically reserved for men, and the archetype of the “dirtbag teenage boy” dominates the album. Yet EMA claims some of that same dirtbag alienation for women — “a woman who swallowed a scumbag teen boy whole,” as EMA puts it – and uses it to interrogate both her own vulnerability and how male violence shapes the world, as on the anthemic “Aryan Nation.”
The result is a deeply personal, confrontational, but ultimately redemptive album from a quintessentially American artist at the peak of her form.

TRACKLIST
1. 7 Years
2. Breathalyzer
3. I Wanna Destroy
4. Blood and Chalk
5. Down and Out
6. Fire Water Air LSD
7. Aryan Nation
8. 33 Nihilistic and Female
9. Receive Love
10. Always Bleeds
11. Where The Darkness Began

XLD Log
X Lossless Decoder version 20160920 (149.2)

XLD extraction logfile from 2017-07-05 19:34:51 -0400

EMA / Exile in the Outer Ring

Used drive : HL-DT-ST DVDRAM GP65NW60 (revision PF00)
Media type : Pressed CD

Ripper mode : XLD Secure Ripper
Disable audio cache : OK for the drive with a cache less than 1375KiB
Make use of C2 pointers : NO
Read offset correction : 102
Max retry count : 20
Gap status : Analyzed, Appended (except HTOA)

TOC of the extracted CD
Track | Start | Length | Start sector | End sector
––––––––––––––––––––––––––––-
1 | 00:00:00 | 04:07:24 | 0 | 18548
2 | 04:07:24 | 06:20:68 | 18549 | 47116
3 | 10:28:17 | 03:07:11 | 47117 | 61152
4 | 13:35:28 | 03:16:56 | 61153 | 75908
5 | 16:52:09 | 03:36:62 | 75909 | 92170
6 | 20:28:71 | 03:48:29 | 92171 | 109299
7 | 24:17:25 | 02:52:46 | 109300 | 122245
8 | 27:09:71 | 03:26:04 | 122246 | 137699
9 | 30:36:00 | 03:19:05 | 137700 | 152629
10 | 33:55:05 | 05:20:28 | 152630 | 176657
11 | 39:15:33 | 01:53:31 | 176658 | 185163

AccurateRip Summary
Disc not found in AccurateRip DB.

All Tracks
Album gain : -8.85 dB
Peak : 0.988525
Statistics
Read error : 0
Jitter error (maybe fixed) : 0
Retry sector count : 0
Damaged sector count : 0

Track 01
Filename : /Users/Shared/EMA – Exile in the Outer Ring (Unknown Year) [FLAC]/01 7 Years.flac
/Users/Shared/EMA – Exile in the Outer Ring (Unknown Year) [V0]/01 7 Years.mp3
Pre-gap length : 00:02:00

Track gain : -8.15 dB
Peak : 0.988525
CRC32 hash (test run) : F848E7FE
CRC32 hash : F848E7FE
CRC32 hash (skip zero) : 7B4C5370
AccurateRip v1 signature : DEAD662F
AccurateRip v2 signature : 0EF48A18
->Track not present in AccurateRip database.
Statistics
Read error : 0
Jitter error (maybe fixed) : 0
Retry sector count : 0
Damaged sector count : 0

Track 02
Filename : /Users/Shared/EMA – Exile in the Outer Ring (Unknown Year) [FLAC]/02 Breathalyzer.flac
/Users/Shared/EMA – Exile in the Outer Ring (Unknown Year) [V0]/02 Breathalyzer.mp3

Track gain : -8.11 dB
Peak : 0.966034
CRC32 hash (test run) : 8ADBE385
CRC32 hash : 8ADBE385
CRC32 hash (skip zero) : 6BBF1263
AccurateRip v1 signature : 4C973B54
AccurateRip v2 signature : F1627E4D
->Track not present in AccurateRip database.
Statistics
Read error : 0
Jitter error (maybe fixed) : 0
Retry sector count : 0
Damaged sector count : 0

Track 03
Filename : /Users/Shared/EMA – Exile in the Outer Ring (Unknown Year) [FLAC]/03 I Wanna Destroy.flac
/Users/Shared/EMA – Exile in the Outer Ring (Unknown Year) [V0]/03 I Wanna Destroy.mp3

Track gain : -8.13 dB
Peak : 0.988525
CRC32 hash (test run) : BC071E93
CRC32 hash : BC071E93
CRC32 hash (skip zero) : B287B2F4
AccurateRip v1 signature : 8721D1BE
AccurateRip v2 signature : 734132B2
->Track not present in AccurateRip database.
Statistics
Read error : 0
Jitter error (maybe fixed) : 0
Retry sector count : 0
Damaged sector count : 0

Track 04
Filename : /Users/Shared/EMA – Exile in the Outer Ring (Unknown Year) [FLAC]/04 Blood and Chalk.flac
/Users/Shared/EMA – Exile in the Outer Ring (Unknown Year) [V0]/04 Blood and Chalk.mp3

Track gain : -7.36 dB
Peak : 0.988525
CRC32 hash (test run) : E3E409A1
CRC32 hash : E3E409A1
CRC32 hash (skip zero) : 51C120E2
AccurateRip v1 signature : C284409C
AccurateRip v2 signature : 3EB7F742
->Track not present in AccurateRip database.
Statistics
Read error : 0
Jitter error (maybe fixed) : 0
Retry sector count : 0
Damaged sector count : 0

Track 05
Filename : /Users/Shared/EMA – Exile in the Outer Ring (Unknown Year) [FLAC]/05 Down and Out.flac
/Users/Shared/EMA – Exile in the Outer Ring (Unknown Year) [V0]/05 Down and Out.mp3

Track gain : -10.53 dB
Peak : 0.983368
CRC32 hash (test run) : AD808732
CRC32 hash : AD808732
CRC32 hash (skip zero) : 251EB760
AccurateRip v1 signature : 0B65E82F
AccurateRip v2 signature : 9B5DB3F6
->Track not present in AccurateRip database.
Statistics
Read error : 0
Jitter error (maybe fixed) : 0
Retry sector count : 0
Damaged sector count : 0

Track 06
Filename : /Users/Shared/EMA – Exile in the Outer Ring (Unknown Year) [FLAC]/06 Fire Water Air LSD.flac
/Users/Shared/EMA – Exile in the Outer Ring (Unknown Year) [V0]/06 Fire Water Air LSD.mp3

Track gain : -9.76 dB
Peak : 0.988525
CRC32 hash (test run) : 1EA4313E
CRC32 hash : 1EA4313E
CRC32 hash (skip zero) : 62475266
AccurateRip v1 signature : 1B325B43
AccurateRip v2 signature : 4460543D
->Track not present in AccurateRip database.
Statistics
Read error : 0
Jitter error (maybe fixed) : 0
Retry sector count : 0
Damaged sector count : 0

Track 07
Filename : /Users/Shared/EMA – Exile in the Outer Ring (Unknown Year) [FLAC]/07 Aryan Nation.flac
/Users/Shared/EMA – Exile in the Outer Ring (Unknown Year) [V0]/07 Aryan Nation.mp3

Track gain : -8.99 dB
Peak : 0.988525
CRC32 hash (test run) : 2B91EFBF
CRC32 hash : 2B91EFBF
CRC32 hash (skip zero) : 8CFDC5A7
AccurateRip v1 signature : 5D43ABA1
AccurateRip v2 signature : 8AEB1754
->Track not present in AccurateRip database.
Statistics
Read error : 0
Jitter error (maybe fixed) : 0
Retry sector count : 0
Damaged sector count : 0

Track 08
Filename : /Users/Shared/EMA – Exile in the Outer Ring (Unknown Year) [FLAC]/08 33 Nihilistic and Female.flac
/Users/Shared/EMA – Exile in the Outer Ring (Unknown Year) [V0]/08 33 Nihilistic and Female.mp3

Track gain : -9.37 dB
Peak : 0.988525
CRC32 hash (test run) : E98A7939
CRC32 hash : E98A7939
CRC32 hash (skip zero) : 1F1704F4
AccurateRip v1 signature : DB58896C
AccurateRip v2 signature : 88885D87
->Track not present in AccurateRip database.
Statistics
Read error : 0
Jitter error (maybe fixed) : 0
Retry sector count : 0
Damaged sector count : 0

Track 09
Filename : /Users/Shared/EMA – Exile in the Outer Ring (Unknown Year) [FLAC]/09 Receive Love.flac
/Users/Shared/EMA – Exile in the Outer Ring (Unknown Year) [V0]/09 Receive Love.mp3

Track gain : -6.62 dB
Peak : 0.988525
CRC32 hash (test run) : F8728997
CRC32 hash : F8728997
CRC32 hash (skip zero) : 9F56F29D
AccurateRip v1 signature : 7E9C16B0
AccurateRip v2 signature : 666AFD88
->Track not present in AccurateRip database.
Statistics
Read error : 0
Jitter error (maybe fixed) : 0
Retry sector count : 0
Damaged sector count : 0

Track 10
Filename : /Users/Shared/EMA – Exile in the Outer Ring (Unknown Year) [FLAC]/10 Always Bleeds.flac
/Users/Shared/EMA – Exile in the Outer Ring (Unknown Year) [V0]/10 Always Bleeds.mp3

Track gain : -8.85 dB
Peak : 0.966034
CRC32 hash (test run) : 29613022
CRC32 hash : 29613022
CRC32 hash (skip zero) : BB482281
AccurateRip v1 signature : 5EAAA520
AccurateRip v2 signature : 94374087
->Track not present in AccurateRip database.
Statistics
Read error : 0
Jitter error (maybe fixed) : 0
Retry sector count : 0
Damaged sector count : 0

Track 11
Filename : /Users/Shared/EMA – Exile in the Outer Ring (Unknown Year) [FLAC]/11 Where the Darkness Began.flac
/Users/Shared/EMA – Exile in the Outer Ring (Unknown Year) [V0]/11 Where the Darkness Began.mp3

Track gain : -5.79 dB
Peak : 0.988525
CRC32 hash (test run) : 2864FC45
CRC32 hash : 2864FC45
CRC32 hash (skip zero) : 379273C8
AccurateRip v1 signature : 2C6E6102
AccurateRip v2 signature : 759A72EA
->Track not present in AccurateRip database.
Statistics
Read error : 0
Jitter error (maybe fixed) : 0
Retry sector count : 0
Damaged sector count : 0

No errors occurred

End of status report

––-BEGIN XLD SIGNATURE––-
CYUFO9YcO8G96rO9PPQTPMDSfpGaC98L.LisaUG_I_i0DJ5SI8YYgyryCmHETZhmfvQqeGzpNjM3eJX5QhyGtHbsf2SWyzr6eyb.xY8
––-END XLD SIGNATURE––-

Thanks to the Original customer.

EMA – Exile In The Outer Ring (2017) Download, Warez, DDL, Free, Full Album, Torrent, Legal.

Download