Elvis Presley – If Every Day Was Like Christmas (1994) | ViralVideoPk

Daily Dose of Free Downloads

Elvis Presley – If Every Day Was Like Christmas (1994)

Download

Elvis Presley - If Every Day Was Like Christmas (1994)

Elvis Presley – If Every Day Was Like Christmas (1994)
Holiday | 1cd | EAC Rip | Ape + Cue + Log | covers
RCA 7863-66506-2 | rel: 1994 | 520Mb

All of Elvis Presley’s catalog Christmas material has been remastered and compiled on this single disc, If Every Day Was Like Christmas. RCA has taken the same masterful care with this 24-track collection as with the Presley box sets. Sound quality is exceptional, and the songs include three unreleased, alternate performances, solid liner notes, and a closing "Christmas Message from Elvis." ~Allmusic

Track listing
01. If Every Day Was Like Christmas (2:52)
02. Blue Christmas (2:06)
03. Here Comes Santa Claus (Right Down Santa Claus Lane) (1:54)
04. White Christmas (2:23)
05. Santa Bring My Baby Back (To Me) (1:52)
06. I’ll Be Home For Christmas (1:53)
07. O Little Town Of Bethlehem (2:35)
08. Santa Claus Is Back In Town (2:22)
09. It Won’t Seem Like Christmas (Without You) (2:41)
10. If I Get Home On Christmas Day (2:51)
11. Holly Leaves And Christmas Trees (2:12)
12. Merry Christmas Baby (5:43)
13. Silver Bells (2:26)
14. I’ll Be Home On Christmas Day (Alternate Version) (3:43)
15. On A Snowy Christmas Night (2:48)
16. Winter Wonderland (2:18)
17. The Wonderful World Of Christmas (1:57)
18. O Come All Ye Faithful (2:47)
19. The First Noel (2:10)
20. It Won’t Seem Like Christmas (Without You) (Unreleased Alternate – Take 6) (2:31)
21. Silver Bells (Alternate – Take 1) (2:30)
22. Holly Leaves And Christmas Trees (Unreleased Alternate – Take 8) (2:11)
23. I’ll Be Home On Christmas Day (3:48)
24. Christmas Message From Elvis / Silent Night (2:18)

eac log:
Exact Audio Copy V0.99 prebeta 5 from 4. May 2009

Отчёт EAC об извлечении, выполненном 20. февраля 2011, 22:24

Elvis Presley / If Every Day Was Like Christmas

Дисковод: MATSHITADVD-RAM UJ870QJ Adapter: 1 ID: 0

Режим чтения : Достоверность
Использование точного потока : Да
Отключение кэша аудио : Да
Использование указателей C2 : Нет

Коррекция смещения при чтении : 102
Способность читать области Lead-in и Lead-out : Нет
Заполнение пропущенных сэмплов тишиной : Да
Удаление блоков с тишиной в начале и конце : Нет
При вычислениях CRC использовались нулевые сэмплы : Да
Интерфейс : Встроенный Win32-интерфейс для Win NT/2000

Выходной формат : Внутренние WAV-операции
Формат сэмплов : 44.100 Гц; 16 бит; стерео

TOC извлечённого CD

Трек | Старт | Длительность | Начальный сектор | Конечный сектор
––––––––––––––––––––––––––––––––––-
1 | 0:00.00 | 2:54.12 | 0 | 13061
2 | 2:54.12 | 2:08.50 | 13062 | 22711
3 | 5:02.62 | 1:55.50 | 22712 | 31386
4 | 6:58.37 | 2:25.00 | 31387 | 42261
5 | 9:23.37 | 1:53.50 | 42262 | 50786
6 | 11:17.12 | 1:54.50 | 50787 | 59386
7 | 13:11.62 | 2:37.13 | 59387 | 71174
8 | 15:49.00 | 2:24.25 | 71175 | 81999
9 | 18:13.25 | 2:42.62 | 82000 | 94211
10 | 20:56.12 | 2:53.25 | 94212 | 107211
11 | 23:49.37 | 2:14.25 | 107212 | 117286
12 | 26:03.62 | 5:45.38 | 117287 | 143199
13 | 31:49.25 | 2:28.25 | 143200 | 154324
14 | 34:17.50 | 3:45.12 | 154325 | 171211
15 | 38:02.62 | 2:50.25 | 171212 | 183986
16 | 40:53.12 | 2:19.50 | 183987 | 194461
17 | 43:12.62 | 1:58.63 | 194462 | 203374
18 | 45:11.50 | 2:49.25 | 203375 | 216074
19 | 48:01.00 | 2:11.50 | 216075 | 225949
20 | 50:12.50 | 2:33.00 | 225950 | 237424
21 | 52:45.50 | 2:31.62 | 237425 | 248811
22 | 55:17.37 | 2:13.38 | 248812 | 258824
23 | 57:31.00 | 3:50.37 | 258825 | 276111
24 | 61:21.37 | 2:18.00 | 276112 | 286461

Характеристики диапазона извлечения и сообщения об ошибках

Выбранный диапазон

Имя файла C:Elvis Presley=1994=If Every Day Was Like Christmas.wav

Пиковый уровень 100.0 %
Качество диапазона 100.0 %
CRC теста D96080A2
CRC копии D96080A2
Копирование… OK

Ошибок не произошло

AccurateRip: сводка

Трек 1 точное извлечение (доверие 7) [B1DB7676]
Трек 2 точное извлечение (доверие 7) [969005B3]
Трек 3 точное извлечение (доверие 7) [646C8808]
Трек 4 точное извлечение (доверие 7) [F7FAF2B4]
Трек 5 точное извлечение (доверие 7) [229BDB0F]
Трек 6 точное извлечение (доверие 7) [A2311B7C]
Трек 7 точное извлечение (доверие 7) [66E40E30]
Трек 8 точное извлечение (доверие 7) [DEA13BB0]
Трек 9 точное извлечение (доверие 7) [0B59C26E]
Трек 10 точное извлечение (доверие 7) [55F60090]
Трек 11 точное извлечение (доверие 6) [F91B9A37]
Трек 12 точное извлечение (доверие 7) [9970DD45]
Трек 13 точное извлечение (доверие 7) [E5D6049D]
Трек 14 точное извлечение (доверие 7) [56260415]
Трек 15 точное извлечение (доверие 7) [02AD40EB]
Трек 16 точное извлечение (доверие 7) [18CA6BB4]
Трек 17 точное извлечение (доверие 7) [68A04079]
Трек 18 точное извлечение (доверие 7) [0FBF6438]
Трек 19 точное извлечение (доверие 7) [8BF10B08]
Трек 20 точное извлечение (доверие 7) [D61F7F5A]
Трек 21 точное извлечение (доверие 7) [86A5B97E]
Трек 22 точное извлечение (доверие 7) [AD8ADB85]
Трек 23 точное извлечение (доверие 7) [AC39D268]
Трек 24 точное извлечение (доверие 6) [AED7362B]

Все треки извлечены точно

Конец отчёта

cuetools report:
[CUETools log; Date: 2016. 12. 21. 22:22:18; Version: 2.1.6]
[CTDB TOCID: UG7AVZ2d13RUJyZeqZYZ4JBRGKY-] found.
Track | CTDB Status
1 | (13/13) Accurately ripped
2 | (13/13) Accurately ripped
3 | (13/13) Accurately ripped
4 | (13/13) Accurately ripped
5 | (13/13) Accurately ripped
6 | (13/13) Accurately ripped
7 | (13/13) Accurately ripped
8 | (13/13) Accurately ripped
9 | (13/13) Accurately ripped
10 | (13/13) Accurately ripped
11 | (13/13) Accurately ripped
12 | (13/13) Accurately ripped
13 | (13/13) Accurately ripped
14 | (12/13) Accurately ripped
15 | (13/13) Accurately ripped
16 | (13/13) Accurately ripped
17 | (13/13) Accurately ripped
18 | (13/13) Accurately ripped
19 | (13/13) Accurately ripped
20 | (13/13) Accurately ripped
21 | (13/13) Accurately ripped
22 | (13/13) Accurately ripped
23 | (12/13) Accurately ripped
24 | (13/13) Accurately ripped
[AccurateRip ID: 00354779-03a793cf-5d0eeb18] found.
Track [ CRC | V2 ] Status
01 [b1db7676|6dd54037] (08+08/16) Accurately ripped
02 [969005b3|e410dbf9] (08+08/16) Accurately ripped
03 [646c8808|c56a7ce6] (08+08/16) Accurately ripped
04 [f7faf2b4|0f43d5ea] (08+08/16) Accurately ripped
05 [229bdb0f|0a863270] (08+08/16) Accurately ripped
06 [a2311b7c|249a13bd] (08+08/16) Accurately ripped
07 [66e40e30|0c331aae] (08+08/16) Accurately ripped
08 [dea13bb0|f27127b3] (08+09/17) Accurately ripped
09 [0b59c26e|7e1e5148] (08+08/16) Accurately ripped
10 [55f60090|4a0167d3] (08+08/16) Accurately ripped
11 [f91b9a37|f58b674e] (07+08/15) Accurately ripped
12 [9970dd45|062e2095] (08+08/16) Accurately ripped
13 [e5d6049d|a62aa636] (08+08/16) Accurately ripped
14 [56260415|f576e5af] (08+08/16) Accurately ripped
15 [02ad40eb|d8f94122] (08+08/16) Accurately ripped
16 [18ca6bb4|e5db8b28] (08+08/16) Accurately ripped
17 [68a04079|6acecad0] (08+08/16) Accurately ripped
18 [0fbf6438|e82b4e2f] (08+08/16) Accurately ripped
19 [8bf10b08|29fc1b9f] (08+08/16) Accurately ripped
20 [d61f7f5a|020106eb] (08+07/15) Accurately ripped
21 [86a5b97e|7e133cc8] (08+07/15) Accurately ripped
22 [ad8adb85|7348876f] (08+07/15) Accurately ripped
23 [ac39d268|731a1c4c] (08+08/16) Accurately ripped
24 [aed7362b|15abc134] (07+09/16) Accurately ripped

Track Peak [ CRC32 ] [W/O NULL]
– 100,0 [D96080A2] [F428735B]
01 94,2 [6122A3F0] [D5CEDC9E]
02 91,5 [42CCDB3A] [38153416]
03 83,5 [D14C4CEA] [9A734F85]
04 99,9 [4799D944] [07773052]
05 90,0 [9B8C6986] [F43D63A0]
06 75,1 [90F7AC0B] [875595DA]
07 96,2 [4F89C5C9] [35415157]
08 94,4 [F1843AAB] [5085CA59]
09 92,7 [A981277F] [C4552631]
10 100,0 [E12E992F] [B5B6BD60]
11 84,7 [CE22C9E4] [6E57AAFB]
12 100,0 [C3F63C0F] [22C7BFA8]
13 73,5 [B25B3676] [43B406ED]
14 84,3 [65A55709] [196B3648]
15 92,0 [1EA32800] [08E1C812]
16 88,5 [DD82CCE0] [D5DD6A7B]
17 89,0 [8F7D4D70] [B4741B52]
18 98,8 [CB4CE89C] [2206BE13]
19 83,3 [16A810BF] [B6D74941]
20 94,2 [5466DDCA] [A15E6F7B]
21 97,7 [17E8387F] [A10801A7]
22 95,4 [06917B27] [19DE38D2]
23 75,8 [103FB281] [89969554]
24 91,0 [9E000E2F] [902AB456]

Thx to SMaiklS

Elvis Presley – If Every Day Was Like Christmas (1994) Download, Warez, DDL, Free, Full Album, Torrent, Legal.

Download


  • Recent Posts

  • Recent Tags