Elton John – Greatest Hits Volume II (1977)

Download
Elton John - Greatest Hits Volume II (1977)

Elton John – Greatest Hits Volume II (1977)
EAC | Flac(Image) + Cue + Log > 322 Mb | Mp3 CBR 320Kpbs > 123 Mb
Pop/Classic Rock | TT – 52:03 | Label: Polydor | Cat. # 314 512 533-2 | 1992
Scans (Jpg) > 52 Mb | NitroFlare, FileFactory

Greatest Hits, Vol. 2 rounds up the handful of singles that weren’t included on Elton John’s first Greatest Hits collection ("Levon," "Tiny Dancer") and adds the highlights from Caribou, Captain Fantastic and the Brown Dirt Cowboy, and Rock of the Westies ("The Bitch Is Back," "Someone Saved My Life Tonight," "Island Girl," "Grow Some Funk of Your Own," "I Feel Like a Bullet [In the Gun of Robert Ford]"), plus two non-LP hit singles ("Lucy in the Sky with Diamonds," "Philadelphia Freedom") and John’s version of "Pinball Wizard," taken from the soundtrack to Tommy. In short, it’s an excellent continuation of the first collection, and taken together, they function as an ideal singles retrospective of the most successful singles artist of the early ’70s.

by Stephen Thomas Erlewine, allmusic.com
Elton John - Greatest Hits Volume II (1977)

Elton John at wiki | Elton John at discogs | Elton John official website

*********
Elton John – Greatest Hits Volume II at discogs

Elton John - Greatest Hits Volume II (1977)

Tracklist:

01. The Bitch Is Back 3:38
02. Lucy In The Sky With Diamonds 5:58
03. Tiny Dancer 6:16
04. I Feel Like A Bullet (In The Gun Of Robert Ford) 5:29
05. Someone Saved My Life Tonight 6:45
06. Philadelphia Freedom 5:23
07. Island Girl 3:44
08. Grow Some Funk Of Your Own 4:19
09. Levon 5:22
10. Pinball Wizard 5:11

EAC
Exact Audio Copy V1.3 from 2. September 2016

EAC extraction logfile from 19. December 2016, 10:10

Elton John / Greatest Hits Volume II (314 512 533-2)

Used drive : hp DVDRAM GT80N Adapter: 1 ID: 0

Read mode : Secure
Utilize accurate stream : Yes
Defeat audio cache : Yes
Make use of C2 pointers : No

Read offset correction : 102
Overread into Lead-In and Lead-Out : No
Fill up missing offset samples with silence : Yes
Delete leading and trailing silent blocks : No
Null samples used in CRC calculations : Yes
Used interface : Native Win32 interface for Win NT & 2000

Used output format : User Defined Encoder
Selected bitrate : 1024 kBit/s
Quality : High
Add ID3 tag : No
Command line compressor : C:Program Files (x86)Exact Audio CopyFlacflac.exe
Additional command line options : -V -8 -T "Date=%year%" -T "Genre=%genre%" %source%

TOC of the extracted CD

Track | Start | Length | Start sector | End sector
––––––––––––––––––––––––––––-
1 | 0:00.32 | 3:37.53 | 32 | 16359
2 | 3:38.10 | 5:57.47 | 16360 | 43181
3 | 9:35.57 | 6:16.05 | 43182 | 71386
4 | 15:51.62 | 5:28.73 | 71387 | 96059
5 | 21:20.60 | 6:44.72 | 96060 | 126431
6 | 28:05.57 | 5:23.23 | 126432 | 150679
7 | 33:29.05 | 3:43.40 | 150680 | 167444
8 | 37:12.45 | 4:18.45 | 167445 | 186839
9 | 41:31.15 | 5:22.00 | 186840 | 210989
10 | 46:53.15 | 5:10.40 | 210990 | 234279

Range status and errors

Selected range

Filename H:Elton John – Greatest Hits Volume IIElton John – Greatest Hits Volume II (314 512 533-2).wav

Peak level 100.0 %
Extraction speed 2.1 X
Range quality 100.0 %
Test CRC ADD8AEF8
Copy CRC ADD8AEF8
Copy OK

No errors occurred

AccurateRip summary

Track 1 accurately ripped (confidence 56) [9A972A68] (AR v2)
Track 2 accurately ripped (confidence 54) [6E9C9D23] (AR v2)
Track 3 accurately ripped (confidence 55) [0CDDE3FF] (AR v2)
Track 4 accurately ripped (confidence 53) [9B38ED99] (AR v2)
Track 5 accurately ripped (confidence 46) [60E36907] (AR v2)
Track 6 accurately ripped (confidence 56) [78607BC8] (AR v2)
Track 7 accurately ripped (confidence 54) [B008FFA8] (AR v2)
Track 8 accurately ripped (confidence 55) [44497ED2] (AR v2)
Track 9 accurately ripped (confidence 54) [674A3077] (AR v2)
Track 10 accurately ripped (confidence 55) [F8222953] (AR v2)

All tracks accurately ripped

End of status report

–– CUETools DB Plugin V2.1.6

[CTDB TOCID: _gYPEJkT2Yg2PB0dYTuUxMJ.HcY-] found
Submit result: already submitted
Track | CTDB Status
1 | (111/145) Accurately ripped
2 | (108/145) Accurately ripped
3 | (111/145) Accurately ripped
4 | (110/145) Accurately ripped
5 | (111/145) Accurately ripped
6 | ( 95/145) Accurately ripped, or (2/145) differs in 3 samples @00:00:13, or (4/145) differs in 1 samples @00:00:13, or (4/145) differs in 1 samples @00:00:13, or (2/145) differs in 2 samples @00:00:13
7 | (111/145) Accurately ripped
8 | (107/145) Accurately ripped
9 | (110/145) Accurately ripped
10 | (109/145) Accurately ripped

==== Log checksum 7259ABCB4F5B41AC566A8161CA60303AE12CA348D523F4678CDB7ED208583BE3 ====

Dynamic Range
foobar2000 1.2.9 / Dynamic Range Meter 1.1.1
log date: 2016-12-20 14:22:33

––––––––––––––––––––––––––––––––––––––––
Analyzed: Elton John / Greatest Hits Volume II (314 512 533-2)
––––––––––––––––––––––––––––––––––––––––

DR Peak RMS Duration Track
––––––––––––––––––––––––––––––––––––––––
DR14 -1.87 dB -17.39 dB 3:38 01-The Bitch Is Back
DR15 -0.48 dB -18.25 dB 5:58 02-Lucy In The Sky With Diamonds
DR12 -0.18 dB -16.07 dB 6:16 03-Tiny Dancer
DR13 -1.59 dB -17.65 dB 5:29 04-I Feel Like A Bullet (In The Gun Of Robert Ford)
DR15 -1.25 dB -19.67 dB 6:45 05-Someone Saved My Life Tonight
DR16 -0.23 dB -18.06 dB 5:23 06-Philadelphia Freedom
DR14 -1.26 dB -17.19 dB 3:44 07-Island Girl
DR13 -1.08 dB -16.53 dB 4:19 08-Grow Some Funk Of Your Own
DR13 0.00 dB -15.37 dB 5:22 09-Levon
DR12 -1.48 dB -16.12 dB 5:11 10-Pinball Wizard
––––––––––––––––––––––––––––––––––––––––

Number of tracks: 10
Official DR value: DR14

Samplerate: 44100 Hz
Channels: 2
Bits per sample: 16
Bitrate: 802 kbps
Codec: FLAC

CUETools
[CUETools log; Date: 20.12.2016 11:49:01; Version: 2.1.4]
Pregap length 00:00:32.
[CTDB TOCID: _gYPEJkT2Yg2PB0dYTuUxMJ.HcY-] found.
Track | CTDB Status
1 | (111/145) Accurately ripped
2 | (108/145) Accurately ripped
3 | (111/145) Accurately ripped
4 | (110/145) Accurately ripped
5 | (111/145) Accurately ripped
6 | ( 95/145) Accurately ripped, or (2/145) differs in 3 samples @00:00:13, or (4/145) differs in 1 samples @00:00:13, or (4/145) differs in 1 samples @00:00:13, or (2/145) differs in 2 samples @00:00:13
7 | (111/145) Accurately ripped
8 | (107/145) Accurately ripped
9 | (110/145) Accurately ripped
10 | (109/145) Accurately ripped
[AccurateRip ID: 0013e488-009f72be-7e0c330a] found.
Track [ CRC | V2 ] Status
01 [55014584|9a972a68] (061+056/294) Accurately ripped
02 [a1d05011|6e9c9d23] (061+054/286) Accurately ripped
03 [1b340ec5|0cdde3ff] (062+055/291) Accurately ripped
04 [4f7e23d2|9b38ed99] (059+053/284) Accurately ripped
05 [d38e0657|60e36907] (058+046/283) Accurately ripped
06 [ba3e3dc6|78607bc8] (061+056/294) Accurately ripped
07 [5d84fbd9|b008ffa8] (061+054/293) Accurately ripped
08 [c18772cc|44497ed2] (058+055/286) Accurately ripped
09 [014b607f|674a3077] (059+054/286) Accurately ripped
10 [e20b0ca7|f8222953] (057+055/283) Accurately ripped
Offsetted by -2507:
01 [5f53dd8b] (065/294) Accurately ripped
02 [aa2451b6] (062/286) Accurately ripped
03 [81707de5] (065/291) Accurately ripped
04 [9b17d536] (065/284) Accurately ripped
05 [2f836e2d] (066/283) Accurately ripped
06 [7bcf9855] (067/294) Accurately ripped
07 [36ffad15] (065/293) Accurately ripped
08 [317c676e] (064/286) Accurately ripped
09 [33daab01] (067/286) Accurately ripped
10 [22efb541] (064/283) Accurately ripped
Offsetted by -1224:
01 [7c39a5d7] (010/294) Accurately ripped
02 [c9e92e78] (010/286) Accurately ripped
03 [10bc2673] (010/291) Accurately ripped
04 [a2b424e6] (010/284) Accurately ripped
05 [c259393c] (010/283) Accurately ripped
06 [6e0f9e5c] (010/294) Accurately ripped
07 [1154cf26] (010/293) Accurately ripped
08 [65e4144a] (010/286) Accurately ripped
09 [8f140797] (010/286) Accurately ripped
10 [4a0f339a] (009/283) Accurately ripped
Offsetted by -509:
01 [8fc5a57b] (005/294) Accurately ripped
02 [5838be1d] (005/286) Accurately ripped
03 [cf51a8a6] (004/291) Accurately ripped
04 [d0d4da92] (004/284) Accurately ripped
05 [36b248aa] (004/283) Accurately ripped
06 [cb606005] (004/294) Accurately ripped
07 [118117d4] (004/293) Accurately ripped
08 [7704e5bb] (004/286) Accurately ripped
09 [0ea3503b] (004/286) Accurately ripped
10 [6047eacf] (004/283) Accurately ripped
Offsetted by -132:
01 [7c7a9b8d] (009/294) Accurately ripped
02 [993b7fcd] (009/286) Accurately ripped
03 [a39bf60f] (009/291) Accurately ripped
04 [53c60be3] (009/284) Accurately ripped
05 [f7d3c813] (008/283) Accurately ripped
06 [3870c7ae] (009/294) Accurately ripped
07 [058d6502] (009/293) Accurately ripped
08 [5d0857c1] (008/286) Accurately ripped
09 [c4a6efc8] (009/286) Accurately ripped
10 [d991deb7] (010/283) Accurately ripped
Offsetted by -1888:
01 [58481f50] (000/294) No match (V2 was not tested)
02 [0d65dc2f] (000/286) No match (V2 was not tested)
03 [519bd78a] (000/291) No match (V2 was not tested)
04 [71b40167] (000/284) No match (V2 was not tested)
05 [1718bf08] (000/283) No match (V2 was not tested)
06 [af0057aa] (000/294) No match (V2 was not tested)
07 [095e4e8e] (000/293) No match (V2 was not tested)
08 [b995a1fa] (000/286) No match (V2 was not tested)
09 [e62d86fc] (000/286) No match (V2 was not tested)
10 [2b83e841] (000/283) No match (V2 was not tested)

Track Peak [ CRC32 ] [W/O NULL] [ LOG ]
– 100,0 [ADD8AEF8] [2D2C5D88] CRC32
01 80,6 [188C3122] [1E0795A3]
02 94,6 [2080A1C1] [E531F62F]
03 97,9 [5A654F84] [2BC98329]
04 83,2 [6DD5B1D5] [8BA0E68B]
05 86,5 [E518A90A] [8B94267B]
06 97,3 [B32F0B6D] [61FE8AA3]
07 86,4 [97F1849D] [0CC518CA]
08 88,3 [DF4E8D8E] [2A14F524]
09 100,0 [B47A1C78] [BA569E51]
10 84,2 [90DA3A11] [7F418A71]

Elton John - Greatest Hits Volume II (1977)

All thanks go to original releaser dafnaplus

Elton John – Greatest Hits Volume II (1977) Download, Warez, DDL, Free, Full Album, Torrent, Legal.

Download