Elmore James – The Sky Is Crying: The History of Elmore James (1993)

Download
Elmore James - The Sky Is Crying: The History of Elmore James (1993)

Elmore James – The Sky Is Crying: The History of Elmore James (1993)
EAC | FLAC | Tracks (Cue&Log) ~ 212 Mb (incl 5%) | Mp3 (CBR320) ~ 162 Mb (incl 5%) | Scans included
Genre: Chicago Blues, Slide Guitar Blues | Label: Rhino | # R2 71190 | Time: 01:01:15

With the confusing plethora of Elmore James discs out on the market, this is truly the place to start, featuring the best of his work culled from several labels. Highlights include James’ original recording of "Dust My Broom," "It Hurts Me Too," "T.V. Mama" (with Elmore backing Big Joe Turner), and the title track, one of the best slow blues ever created. Slide guitar doesn’t get much better than this, making this particular compilation not only a perfect introduction to Elmore’s music, but an essential piece for any blues collection.

Review by Cub Koda, Allmusic.com

Elmore James - The Sky Is Crying: The History of Elmore James (1993)

Elmore James at Allmusic
Elmore James at Wiki

Tracklist:

01. Dust My Broom (02:45)
02. The Sun Is Shining (02:44)
03. Hawaiian Boogie (02:19)
04. Sho’ Nuff I Do (02:54)
05. Please Find My Baby (03:07)
06. T.V. Mama – with Joe Turner & His Blues Kings (02:48)
07. My Best Friend (03:21)
08. Madison Blues (02:24)
09. Cry For Me Baby (02:46)
10. The Sky Is Crying (02:48)
11. Sunny Land (03:16)
12. I Can’t Hold Out (02:15)
13. Look On Yonder Wall (02:27)
14. I Need You (03:32)
15. Done Somebody Wrong (02:21)
16. Shake Your Moneymaker (02:33)
17. The 12 Year Old Boy (03:05)
18. It Hurts Me Too (03:04)
19. Rollin and Tumblin (02:34)
20. Something Inside Me (05:03)
21. Standing At The Crossroads (02:59)

EAC log
Exact Audio Copy V1.3 from 2. September 2016

EAC extraction logfile from 3. February 2017, 11:51

Elmore James / The Sky Is Crying: The History of Elmore James

Used drive : HL-DT-STDVDRAM GSA-T50N Adapter: 1 ID: 0

Read mode : Secure
Utilize accurate stream : Yes
Defeat audio cache : Yes
Make use of C2 pointers : No

Read offset correction : 667
Overread into Lead-In and Lead-Out : No
Fill up missing offset samples with silence : Yes
Delete leading and trailing silent blocks : No
Null samples used in CRC calculations : Yes
Used interface : Native Win32 interface for Win NT & 2000
Gap handling : Appended to previous track

Used output format : User Defined Encoder
Selected bitrate : 1024 kBit/s
Quality : High
Add ID3 tag : No
Command line compressor : C:Program FilesExact Audio CopyFlacflac.exe
Additional command line options : -V -8 -T "Genre=%genre%" -T "Artist=%artist%" -T "Title=%title%" -T "Album=%albumtitle%" -T "Date=%year%" -T "Tracknumber=%tracknr%" %source% -o %dest%

TOC of the extracted CD

Track | Start | Length | Start sector | End sector
––––––––––––––––––––––––––––-
1 | 0:00.32 | 2:45.10 | 32 | 12416
2 | 2:45.42 | 2:44.73 | 12417 | 24789
3 | 5:30.40 | 2:19.42 | 24790 | 35256
4 | 7:50.07 | 2:54.48 | 35257 | 48354
5 | 10:44.55 | 3:07.15 | 48355 | 62394
6 | 13:51.70 | 2:48.05 | 62395 | 74999
7 | 16:40.00 | 3:21.15 | 75000 | 90089
8 | 20:01.15 | 2:24.47 | 90090 | 100936
9 | 22:25.62 | 2:46.48 | 100937 | 113434
10 | 25:12.35 | 2:48.20 | 113435 | 126054
11 | 28:00.55 | 3:16.70 | 126055 | 140824
12 | 31:17.50 | 2:15.60 | 140825 | 151009
13 | 33:33.35 | 2:27.47 | 151010 | 162081
14 | 36:01.07 | 3:32.60 | 162082 | 178041
15 | 39:33.67 | 2:21.48 | 178042 | 188664
16 | 41:55.40 | 2:33.67 | 188665 | 200206
17 | 44:29.32 | 3:05.68 | 200207 | 214149
18 | 47:35.25 | 3:04.22 | 214150 | 227971
19 | 50:39.47 | 2:34.18 | 227972 | 239539
20 | 53:13.65 | 5:03.12 | 239540 | 262276
21 | 58:17.02 | 2:59.08 | 262277 | 275709

Track 1

Filename C:Musicgate’s ripsElmore James – The Sky Is Crying – The History of Elmore James – 1993 (Rhino)1 – Dust My Broom.wav

Pre-gap length 0:00:02.32

Peak level 99.9 %
Extraction speed 2.2 X
Track quality 100.0 %
Test CRC CF425B83
Copy CRC CF425B83
Accurately ripped (confidence 31) [C609DCFD] (AR v2)
Copy OK

Track 2

Filename C:Musicgate’s ripsElmore James – The Sky Is Crying – The History of Elmore James – 1993 (Rhino)2 – The Sun Is Shining.wav

Pre-gap length 0:00:01.47

Peak level 90.3 %
Extraction speed 2.0 X
Track quality 99.9 %
Test CRC D003B92A
Copy CRC D003B92A
Accurately ripped (confidence 32) [83E10F97] (AR v2)
Copy OK

Track 3

Filename C:Musicgate’s ripsElmore James – The Sky Is Crying – The History of Elmore James – 1993 (Rhino)3 – Hawaiian Boogie.wav

Pre-gap length 0:00:01.53

Peak level 99.9 %
Extraction speed 2.5 X
Track quality 100.0 %
Test CRC 2A4D2FB0
Copy CRC 2A4D2FB0
Accurately ripped (confidence 32) [E7129609] (AR v2)
Copy OK

Track 4

Filename C:Musicgate’s ripsElmore James – The Sky Is Crying – The History of Elmore James – 1993 (Rhino)4 – Sho’ Nuff I Do.wav

Pre-gap length 0:00:01.50

Peak level 100.0 %
Extraction speed 2.3 X
Track quality 99.9 %
Test CRC 8A1F39BB
Copy CRC 8A1F39BB
Accurately ripped (confidence 33) [8D7D0F2D] (AR v2)
Copy OK

Track 5

Filename C:Musicgate’s ripsElmore James – The Sky Is Crying – The History of Elmore James – 1993 (Rhino)5 – Please Find My Baby.wav

Pre-gap length 0:00:01.48

Peak level 99.9 %
Extraction speed 2.4 X
Track quality 99.9 %
Test CRC F39B9EA2
Copy CRC F39B9EA2
Accurately ripped (confidence 32) [8AFC8BAC] (AR v2)
Copy OK

Track 6

Filename C:Musicgate’s ripsElmore James – The Sky Is Crying – The History of Elmore James – 1993 (Rhino)6 – T.V. Mama – with Joe Turner & His Blues Kings.wav

Pre-gap length 0:00:01.48

Peak level 100.0 %
Extraction speed 3.0 X
Track quality 100.0 %
Test CRC 9DB3A86B
Copy CRC 9DB3A86B
Accurately ripped (confidence 33) [F4390D79] (AR v2)
Copy OK

Track 7

Filename C:Musicgate’s ripsElmore James – The Sky Is Crying – The History of Elmore James – 1993 (Rhino)7 – My Best Friend.wav

Pre-gap length 0:00:01.50

Peak level 96.8 %
Extraction speed 2.8 X
Track quality 99.9 %
Test CRC B656DFDD
Copy CRC B656DFDD
Accurately ripped (confidence 33) [13D6FB2D] (AR v2)
Copy OK

Track 8

Filename C:Musicgate’s ripsElmore James – The Sky Is Crying – The History of Elmore James – 1993 (Rhino)8 – Madison Blues.wav

Pre-gap length 0:00:01.48

Peak level 99.9 %
Extraction speed 3.1 X
Track quality 100.0 %
Test CRC 5E5D2044
Copy CRC 5E5D2044
Accurately ripped (confidence 33) [46214C40] (AR v2)
Copy OK

Track 9

Filename C:Musicgate’s ripsElmore James – The Sky Is Crying – The History of Elmore James – 1993 (Rhino)9 – Cry For Me Baby.wav

Pre-gap length 0:00:01.50

Peak level 99.9 %
Extraction speed 2.8 X
Track quality 99.9 %
Test CRC F898569F
Copy CRC F898569F
Accurately ripped (confidence 32) [02078EFB] (AR v2)
Copy OK

Track 10

Filename C:Musicgate’s ripsElmore James – The Sky Is Crying – The History of Elmore James – 1993 (Rhino)10 – The Sky Is Crying.wav

Pre-gap length 0:00:01.48

Peak level 100.0 %
Extraction speed 3.4 X
Track quality 100.0 %
Test CRC C9400E3F
Copy CRC C9400E3F
Accurately ripped (confidence 33) [460C4E32] (AR v2)
Copy OK

Track 11

Filename C:Musicgate’s ripsElmore James – The Sky Is Crying – The History of Elmore James – 1993 (Rhino)11 – Sunny Land.wav

Pre-gap length 0:00:01.50

Peak level 100.0 %
Extraction speed 3.7 X
Track quality 100.0 %
Test CRC B99EC925
Copy CRC B99EC925
Accurately ripped (confidence 32) [F7BC597B] (AR v2)
Copy OK

Track 12

Filename C:Musicgate’s ripsElmore James – The Sky Is Crying – The History of Elmore James – 1993 (Rhino)12 – I Can’t Hold Out.wav

Pre-gap length 0:00:01.48

Peak level 100.0 %
Extraction speed 2.8 X
Track quality 99.9 %
Test CRC 3B9B34B0
Copy CRC 3B9B34B0
Accurately ripped (confidence 32) [94538CCA] (AR v2)
Copy OK

Track 13

Filename C:Musicgate’s ripsElmore James – The Sky Is Crying – The History of Elmore James – 1993 (Rhino)13 – Look On Yonder Wall.wav

Pre-gap length 0:00:01.43

Peak level 99.9 %
Extraction speed 3.6 X
Track quality 100.0 %
Test CRC CB7D34E5
Copy CRC CB7D34E5
Accurately ripped (confidence 33) [E0A794AE] (AR v2)
Copy OK

Track 14

Filename C:Musicgate’s ripsElmore James – The Sky Is Crying – The History of Elmore James – 1993 (Rhino)14 – I Need You.wav

Pre-gap length 0:00:01.50

Peak level 99.9 %
Extraction speed 3.5 X
Track quality 99.9 %
Test CRC 2D91A0D9
Copy CRC 2D91A0D9
Accurately ripped (confidence 32) [D690D2DE] (AR v2)
Copy OK

Track 15

Filename C:Musicgate’s ripsElmore James – The Sky Is Crying – The History of Elmore James – 1993 (Rhino)15 – Done Somebody Wrong.wav

Pre-gap length 0:00:01.47

Peak level 100.0 %
Extraction speed 3.7 X
Track quality 100.0 %
Test CRC E792ECF5
Copy CRC E792ECF5
Accurately ripped (confidence 33) [D3C2540B] (AR v2)
Copy OK

Track 16

Filename C:Musicgate’s ripsElmore James – The Sky Is Crying – The History of Elmore James – 1993 (Rhino)16 – Shake Your Moneymaker.wav

Pre-gap length 0:00:01.50

Peak level 100.0 %
Extraction speed 3.9 X
Track quality 100.0 %
Test CRC 858F676F
Copy CRC 858F676F
Accurately ripped (confidence 32) [D4D5B63E] (AR v2)
Copy OK

Track 17

Filename C:Musicgate’s ripsElmore James – The Sky Is Crying – The History of Elmore James – 1993 (Rhino)17 – The 12 Year Old Boy.wav

Pre-gap length 0:00:01.50

Peak level 100.0 %
Extraction speed 3.6 X
Track quality 99.9 %
Test CRC 8DA956A9
Copy CRC 8DA956A9
Accurately ripped (confidence 33) [8C609998] (AR v2)
Copy OK

Track 18

Filename C:Musicgate’s ripsElmore James – The Sky Is Crying – The History of Elmore James – 1993 (Rhino)18 – It Hurts Me Too.wav

Pre-gap length 0:00:01.48

Peak level 100.0 %
Extraction speed 4.3 X
Track quality 100.0 %
Test CRC 109BCAF1
Copy CRC 109BCAF1
Accurately ripped (confidence 32) [68C90599] (AR v2)
Copy OK

Track 19

Filename C:Musicgate’s ripsElmore James – The Sky Is Crying – The History of Elmore James – 1993 (Rhino)19 – Rollin and Tumblin.wav

Pre-gap length 0:00:01.50

Peak level 100.0 %
Extraction speed 4.1 X
Track quality 100.0 %
Test CRC 0C4187AE
Copy CRC 0C4187AE
Accurately ripped (confidence 33) [8CDF1B80] (AR v2)
Copy OK

Track 20

Filename C:Musicgate’s ripsElmore James – The Sky Is Crying – The History of Elmore James – 1993 (Rhino)20 – Something Inside Me.wav

Pre-gap length 0:00:01.50

Peak level 99.9 %
Extraction speed 4.8 X
Track quality 100.0 %
Test CRC C63084C0
Copy CRC C63084C0
Accurately ripped (confidence 32) [A5D0BBF3] (AR v2)
Copy OK

Track 21

Filename C:Musicgate’s ripsElmore James – The Sky Is Crying – The History of Elmore James – 1993 (Rhino)21 – Standing At The Crossroads.wav

Pre-gap length 0:00:01.50

Peak level 99.9 %
Extraction speed 4.6 X
Track quality 100.0 %
Test CRC 012A633E
Copy CRC 012A633E
Accurately ripped (confidence 33) [20C8DA04] (AR v2)
Copy OK

All tracks accurately ripped

No errors occurred

End of status report

==== Log checksum E6F91AF8A29C72719898F7797EB4E4194C1C65974BC609C581A592E1AD14F10A ====

DR log
foobar2000 1.2 / Dynamic Range Meter 1.1.1
log date: 2017-02-13 16:14:14

––––––––––––––––––––––––––––––––––––––––
Analyzed: Elmore James / The Sky Is Crying: The History of Elmore James
––––––––––––––––––––––––––––––––––––––––

DR Peak RMS Duration Track
––––––––––––––––––––––––––––––––––––––––
DR10 0.00 dB -11.50 dB 2:45 01-Dust My Broom
DR11 -0.89 dB -13.41 dB 2:45 02-The Sun Is Shining
DR12 0.00 dB -14.09 dB 2:20 03-Hawaiian Boogie
DR9 0.00 dB -11.24 dB 2:55 04-Sho’ Nuff I Do
DR11 0.00 dB -12.40 dB 3:07 05-Please Find My Baby
DR11 0.00 dB -12.82 dB 2:48 06-T.V. Mama – with Joe Turner & His Blues Kings
DR13 -0.28 dB -16.38 dB 3:21 07-My Best Friend
DR12 0.00 dB -14.37 dB 2:25 08-Madison Blues
DR12 0.00 dB -14.17 dB 2:47 09-Cry For Me Baby
DR13 0.00 dB -14.69 dB 2:48 10-The Sky Is Crying
DR14 0.00 dB -16.24 dB 3:17 11-Sunny Land
DR13 0.00 dB -13.88 dB 2:16 12-I Can’t Hold Out
DR11 0.00 dB -11.98 dB 2:28 13-Look On Yonder Wall
DR13 0.00 dB -15.25 dB 3:33 14-I Need You
DR12 0.00 dB -13.16 dB 2:22 15-Done Somebody Wrong
DR11 0.00 dB -12.59 dB 2:34 16-Shake Your Moneymaker
DR10 0.00 dB -11.21 dB 3:06 17-The 12 Year Old Boy
DR9 0.00 dB -10.90 dB 3:04 18-It Hurts Me Too
DR13 0.00 dB -14.24 dB 2:34 19-Rollin and Tumblin
DR12 0.00 dB -13.91 dB 5:03 20-Something Inside Me
DR12 0.00 dB -13.27 dB 2:59 21-Standing At The Crossroads
––––––––––––––––––––––––––––––––––––––––

Number of tracks: 21
Official DR value: DR12

Samplerate: 44100 Hz
Channels: 2
Bits per sample: 16
Bitrate: 463 kbps
Codec: FLAC
================================================================================

Elmore James - The Sky Is Crying: The History of Elmore James (1993)

Elmore James - The Sky Is Crying: The History of Elmore James (1993)

All thanks to original releaser – Musicgate

More interesting music in My Blog

Elmore James – The Master Of Slide Guitar (1990)

Elmore James – Shake Your Moneymaker: The Best of the Fire Sessions (2001)

Elmore James – The Best Of The Modern Years (2005)

Elmore James – The Sky Is Crying: The History of Elmore James (1993) Download, Warez, DDL, Free, Full Album, Torrent, Legal.

Download