Ella Fitzgerald & Louis Armstrong – Ella and Louis Again (1957) [Analogue Productions, Remastered 2012] Audio CD Layer

Download
Ella Fitzgerald & Louis Armstrong - Ella and Louis Again (1957) [Analogue Productions, Remastered 2012] Audio CD Layer

Ella Fitzgerald & Louis Armstrong – Ella and Louis Again (1957) [Remastered 2012]
EAC | FLAC | Tracks (Cue&Log) ~ 216 Mb | Mp3 (CBR320) ~ 106 Mb | Scans included | 00:44:18
Vocal Jazz, Standarts, Vocal Pop | Label: Analogue Productions, Verve | # CVRJ 4017 SA

Mastered by George Marino at Sterling Sound from the original master tapes to vinyl and PCM. The DSD was sourced from the PCM. George listened to all of the different A/D converters he had before he chose which to use, and he felt the George Massenburg GML 20 bit A/D produced the best and most synergistic sound for the project.

There isn’t much one can say about an album whose title is Ella And Louis Again. The "again" obviously means they’ve already done one album together and beyond that, what can you say about two people like Ella and Louis? I doubt that there’s anyone today who loves music, who doesn’t know Ella Fitzgerald and Louis Armstrong. The backing, with the Oscar Peterson Trio and Louis Bellson substituting for Buddy Rich, remains, as in the first album, quiet, discreet, swinging.

Recorded in 1957, Ella & Louis Again re-teams Ella Fitzgerald and Louis Armstrong after the success of their first album and a popular series of concerts at the Hollywood Bowl the previous year. Stylistically, Fitzgerald and Armstrong had very different histories; he started out in Dixieland before branching out into classic jazz and swing, whereas Fitzgerald started out as a swing-oriented big-band vocalist before becoming an expert bebopper. But the two of them have no problem finding common ground on Ella & Louis Again, which is primarily a collection of vocal duets (with the backing of a solid rhythm section led by pianist Oscar Peterson). One could nitpick about the fact that Satchmo doesn’t take more trumpet solos, but the artists have such a strong rapport as vocalists that the trumpet shortage is only a minor point. Seven selections find either Fitzgerald or Armstrong singing without the other, although they’re together more often than not on this fine set.

Review by Alex Henderson, Allmusic.com

Ella Fitzgerald & Louis Armstrong - Ella and Louis Again (1957) [Analogue Productions, Remastered 2012] Audio CD Layer

Ella Fitzgerald & Louis Armstrong - Ella and Louis Again (1957) [Analogue Productions, Remastered 2012] Audio CD Layer

Ella Fitzgerald at Allmusic
Ella Fitzgerald Website
Ella Fitzgerald at Wiki

Louis Armstrong at Allmusic
Louis Armstrong at Wiki

Ella Fitzgerald – vocals
Louis Armstrong – vocals, trumpet
Oscar Peterson – piano
Herb Ellis – guitar
Ray Brown – bass
Louie Bellson – drums

Recorded in Los Angeles, CA on July 23 – August 13, 1957.

Tracklist:

01. Don’t Be That Way (5:01)
02. Makin’ Whoopee (3:58)
03. They All Laughed (3:50)
04. Comes Love (2:30)
05. Autumn in New York (6:00)
06. Let’s Do It (Let’s Fall in Love) (8:43)
07. Stompin’ at the Savoy (5:16)
08. I Won’t Dance (4:49)
09. Gee, Baby, Ain’t I Good to You (4:11)

EAC log
Exact Audio Copy V1.3 from 2. September 2016

EAC extraction logfile from 22. July 2017, 0:28

Ella Fitzgerald & Louis Armstrong / Ella And Louis Again (2012 AP)

Used drive : PLEXTOR CD-R PREMIUM Adapter: 1 ID: 1

Read mode : Secure
Utilize accurate stream : Yes
Defeat audio cache : Yes
Make use of C2 pointers : No

Read offset correction : 30
Overread into Lead-In and Lead-Out : No
Fill up missing offset samples with silence : Yes
Delete leading and trailing silent blocks : No
Null samples used in CRC calculations : Yes
Used interface : Native Win32 interface for Win NT & 2000
Gap handling : Appended to previous track

Used output format : User Defined Encoder
Selected bitrate : 768 kBit/s
Quality : High
Add ID3 tag : No
Command line compressor : C:Program Files (x86)Exact Audio CopyFLACFLAC.EXE
Additional command line options : -6 -e -p -V -T "ARTIST=%artist%" -T "TITLE=%title%" -T "ALBUM=%albumtitle%" -T "DATE=%year%" -T "TRACKNUMBER=%tracknr%" -T "GENRE=%genre%" -T "PERFORMER=%albuminterpret%" -T "COMPOSER=%composer%" %haslyrics%–tag-from-file=LYRICS="%lyricsfile%"%haslyrics% -T "ALBUMARTIST=%albumartist%" -T "DISCNUMBER=%cdnumber%" -T "TOTALDISCS=%totalcds%" -T "TOTALTRACKS=%numtracks%" -T "COMMENT=%comment%" %source% -o %dest%

TOC of the extracted CD

Track | Start | Length | Start sector | End sector
––––––––––––––––––––––––––––-
1 | 0:00.00 | 5:00.50 | 0 | 22549
2 | 5:00.50 | 3:58.34 | 22550 | 40433
3 | 8:59.09 | 3:49.41 | 40434 | 57649
4 | 12:48.50 | 2:29.57 | 57650 | 68881
5 | 15:18.32 | 5:59.58 | 68882 | 95864
6 | 21:18.15 | 8:43.11 | 95865 | 135100
7 | 30:01.26 | 5:16.24 | 135101 | 158824
8 | 35:17.50 | 4:48.74 | 158825 | 180498
9 | 40:06.49 | 4:11.05 | 180499 | 199328

Track 1

Filename C:tmp0_RIPS1 – Don’t Be That Way.wav

Pre-gap length 0:00:02.00

Peak level 96.9 %
Extraction speed 8.9 X
Track quality 100.0 %
Test CRC DE7702F3
Copy CRC DE7702F3
Accurately ripped (confidence 19) [2954C6C6] (AR v2)
Copy OK

Track 2

Filename C:tmp0_RIPS2 – Makin’ Whoopee.wav

Pre-gap length 0:00:03.92

Peak level 91.9 %
Extraction speed 9.7 X
Track quality 100.0 %
Test CRC 7D8B4AF1
Copy CRC 7D8B4AF1
Accurately ripped (confidence 19) [BD8BAE54] (AR v2)
Copy OK

Track 3

Filename C:tmp0_RIPS3 – They All Laughed.wav

Pre-gap length 0:00:03.77

Peak level 78.1 %
Extraction speed 10.4 X
Track quality 100.0 %
Test CRC 261AF957
Copy CRC 261AF957
Accurately ripped (confidence 19) [2103CC26] (AR v2)
Copy OK

Track 4

Filename C:tmp0_RIPS4 – Comes Love.wav

Pre-gap length 0:00:03.41

Peak level 89.6 %
Extraction speed 10.5 X
Track quality 100.0 %
Test CRC 26D0D654
Copy CRC 26D0D654
Accurately ripped (confidence 19) [761228F9] (AR v2)
Copy OK

Track 5

Filename C:tmp0_RIPS5 – Autumn in New York.wav

Pre-gap length 0:00:03.49

Peak level 70.1 %
Extraction speed 11.9 X
Track quality 100.0 %
Test CRC 1BFD1592
Copy CRC 1BFD1592
Accurately ripped (confidence 19) [670E12A5] (AR v2)
Copy OK

Track 6

Filename C:tmp0_RIPS6 – Let’s Do It (Let’s Fall in Love).wav

Pre-gap length 0:00:03.12

Peak level 66.4 %
Extraction speed 13.2 X
Track quality 100.0 %
Test CRC 5EA96E8B
Copy CRC 5EA96E8B
Accurately ripped (confidence 19) [388DE390] (AR v2)
Copy OK

Track 7

Filename C:tmp0_RIPS7 – Stompin’ at the Savoy.wav

Pre-gap length 0:00:02.88

Peak level 89.5 %
Extraction speed 13.9 X
Track quality 100.0 %
Test CRC A6F705C9
Copy CRC A6F705C9
Accurately ripped (confidence 19) [2B94C506] (AR v2)
Copy OK

Track 8

Filename C:tmp0_RIPS8 – I Won’t Dance.wav

Pre-gap length 0:00:03.69

Peak level 76.7 %
Extraction speed 14.5 X
Track quality 100.0 %
Test CRC 60690B04
Copy CRC 60690B04
Accurately ripped (confidence 19) [BFBF52CF] (AR v2)
Copy OK

Track 9

Filename C:tmp0_RIPS9 – Gee, Baby, Ain’t I Good to You.wav

Pre-gap length 0:00:04.04

Peak level 95.4 %
Extraction speed 14.6 X
Track quality 100.0 %
Test CRC 04E9E409
Copy CRC 04E9E409
Accurately ripped (confidence 19) [A577FFDF] (AR v2)
Copy OK

All tracks accurately ripped

No errors occurred

End of status report

–– CUETools DB Plugin V2.1.6

[CTDB TOCID: 8KmBXQiukfqTgzlGsZ2RQCCXuQ8-] found
Submit result: 8KmBXQiukfqTgzlGsZ2RQCCXuQ8- has been confirmed
Track | CTDB Status
1 | (5/5) Accurately ripped
2 | (5/5) Accurately ripped
3 | (5/5) Accurately ripped
4 | (5/5) Accurately ripped
5 | (5/5) Accurately ripped
6 | (5/5) Accurately ripped
7 | (5/5) Accurately ripped
8 | (5/5) Accurately ripped
9 | (5/5) Accurately ripped

==== Log checksum 9DA1D8D39139EFEC9BA069719A39E670D835DA3D8AB7FEFA47DF85EEA2310927 ====

DR log
foobar2000 1.2 / Dynamic Range Meter 1.1.1
log date: 2017-07-25 17:13:22

––––––––––––––––––––––––––––––––––––––––
Analyzed: Ella Fitzgerald & Louis Armstrong / Ella and Louis Again
––––––––––––––––––––––––––––––––––––––––

DR Peak RMS Duration Track
––––––––––––––––––––––––––––––––––––––––
DR12 -0.27 dB -15.99 dB 5:01 01-Don’t Be That Way
DR12 -0.73 dB -17.00 dB 3:58 02-Makin’ Whoopee
DR12 -2.14 dB -17.23 dB 3:50 03-They All Laughed
DR12 -0.95 dB -14.92 dB 2:30 04-Comes Love
DR13 -3.08 dB -19.46 dB 6:00 05-Autumn in New York
DR12 -3.55 dB -18.52 dB 8:43 06-Let’s Do It (Let’s Fall in Love)
DR13 -0.96 dB -16.40 dB 5:16 07-Stompin’ at the Savoy
DR12 -2.30 dB -16.46 dB 4:49 08-I Won’t Dance
DR13 -0.40 dB -16.31 dB 4:11 09-Gee, Baby, Ain’t I Good to You
––––––––––––––––––––––––––––––––––––––––

Number of tracks: 9
Official DR value: DR12

Samplerate: 44100 Hz
Channels: 2
Bits per sample: 16
Bitrate: 726 kbps
Codec: FLAC
================================================================================

Ella Fitzgerald & Louis Armstrong - Ella and Louis Again (1957) [Analogue Productions, Remastered 2012] Audio CD Layer

Ella Fitzgerald & Louis Armstrong - Ella and Louis Again (1957) [Analogue Productions, Remastered 2012] Audio CD Layer

All thanks to original releaser – mclarenspy

More interesting music in My Blog

Ella Fitzgerald & Louis Armstrong – Ella and Louis (1956)
[Analogue Productions Remastered 2011]

Ella Fitzgerald & Louis Armstrong – Ella & Louis: The Complete Anthology (2015) 6 CD Box Set

Ella Fitzgerald & Louis Armstrong – Ella and Louis Again (1957) [Analogue Productions, Remastered 2012] Audio CD Layer Download, Warez, DDL, Free, Full Album, Torrent, Legal.

Download