Eliane Elias – Solos And Duets (1995) {Blue Note}

Download
Eliane Elias - Solos And Duets (1995) {Blue Note}

Eliane Elias – Solos And Duets (1995) {Blue Note}
EAC 0.95b3 | FLAC Image | Cue+Log | Full Scans 300dpi | 183MB + 5% Recovery
MP3 CBR 320 Kbps | 134MB + 5% Recovery
Genre: Jazz, Post-Bop

This release is a change of pace for Eliane Elias. Instead of interpreting Brazilian songs, fusion, or modern bop, Elias shows off her classical technique on a set of acoustic solos plus six duets with Herbie Hancock. She really digs into the standards (sometimes sounding a little like Keith Jarrett) and creates some fairly free and unexpected ideas while putting the accent on lyricism. Some of the music is introspective, and there are wandering sections, but the net results are logical and enjoyable. As for the duets, Elias and Hancock mostly stay out of each other’s way, which is an accomplishment when one considers that the four-part "Messages" is a series of free improvisations. There are playful spots (particularly on the adventurous ten-minute rendition of "The Way You Look Tonight") and, since Elias knows Hancock’s style well (and was clearly thrilled to have him on the date), their collaborations work quite well.

Track List
01. Autumn Leaves (Kosma-Mercer-Prevert) – 4:50
02. The Masquerade Is Over (Wrubel-Magidson) – 5:12
03. The Way You Look Tonight (Fields-Kern) – 10:05
04. All the Things You Are (Kern-Hammerstein) – 3:21
05. Joy Spring (Brown)/Have You Met Miss Jones (Rodgers-Hart) – 4:54
06. Just Enough (Hancock) – 5:43
07. Asa Branca (Gonzaga) – 6:06
08. Messages (Elias-Hancock) – 3:36
09. Messages Part 2 (Elias-Hancock) – 2:36
10. Messages Part 3 (Elias-Hancock) – 5:58
11. Messages Part 4 (Elias-Hancock) – 1:41

musicians
Eliane Elias – piano
Herbie Hancock – piano on 3, 6, 8-11

Produced by Eliane Elias

EAC
EAC extraction logfile from 30. November 2004, 15:32 for CD
Eliane Elias / Solos and Duets

Used drive : PLEXTOR CD-R PX-W5224A Adapter: 1 ID: 1
Read mode : Secure with NO C2, accurate stream, disable cache
Read offset correction : 0
Overread into Lead-In and Lead-Out : No

Used output format : Internal WAV Routines
44.100 Hz; 16 Bit; Stereo

Other options :
Fill up missing offset samples with silence : Yes
Delete leading and trailing silent blocks : No
Installed external ASPI interface

Range status and errors
Selected range
Filename J:EmuleEACCDImage.wav

Peak level 98.6 %
Range quality 100.0 %
CRC 86DEB1CA
Copy OK

No errors occured

End of status report

Dynamic
––––––––––––––––––––––––––––––––––––––––
Analyzed: Eliane Elias / Solos and Duets
––––––––––––––––––––––––––––––––––––––––

DR Peak RMS Duration Track
––––––––––––––––––––––––––––––––––––––––
DR14 -5.66 dB -24.73 dB 4:50 01-Autumn Leaves
DR13 -4.83 dB -22.78 dB 5:12 02-The Masquerade Is Over
DR16 -1.18 dB -22.62 dB 10:05 03-The Way You Look Tonight
DR11 -7.38 dB -24.96 dB 3:21 04-All the Things You Are
DR13 -7.32 dB -23.84 dB 4:54 05-Joy Spring/Have You Met Miss Jones
DR14 -0.88 dB -20.38 dB 5:43 06-Just Enough
DR15 -0.68 dB -22.38 dB 6:06 07-Asa Branca
DR14 -4.89 dB -26.83 dB 3:36 08-Messages
DR15 -0.12 dB -20.20 dB 2:36 09-Messages Part 2
DR14 -0.75 dB -20.35 dB 5:58 10-Messages Part 3
DR15 -8.88 dB -32.32 dB 1:41 11-Messages Part 4
––––––––––––––––––––––––––––––––––––––––

Number of tracks: 11
Official DR value: DR14

Samplerate: 44100 Hz
Channels: 2
Bits per sample: 16
Bitrate: 446 kbps
Codec: FLAC
================================================================================

Eliane Elias - Solos And Duets (1995) {Blue Note}
Eliane Elias - Solos And Duets (1995) {Blue Note}
Thanks to the original ripper

Eliane Elias – Solos And Duets (1995) {Blue Note} Download, Warez, DDL, Free, Full Album, Torrent, Legal.

Download