Eleni Karaindrou – Elegy Of The Uprooting (2008) {2CD + DVD9 NTSC ECM New Series 5506 & 1952/53}

Download
Eleni Karaindrou - Elegy Of The Uprooting (2008) {2CD + DVD9 NTSC ECM New Series 5506 & 1952/53}

Eleni Karaindrou – Elegy Of The Uprooting (2008) {2CD + DVD9 NTSC ECM New Series 5506 & 1952/53}
EAC rip (secure mode) | FLAC (tracks)+CUE+LOG -> 395 Mb | MP3 @320 -> 219 Mb
DVD9 -> 6.09 Gb | All Regions | NTSC 16:9 | LPCM, 2 ch | ~ 103 min | ISO Image
Full Artwork @ 600 dpi (jpg) -> 60 Mb | 5% repair rar
© 2006, 2008 ECM Records | ECM New Series 5506 & 1952/53
Classical / Orchestral / Contemporary Classics / Choral / Stage & Screen

In March 2005 Eleni Karaindrou presented what she called “a scenic cantata” at the Megaron in Athens, a tour through her music for film and theatre, with musical themes newly combined and contrasted. A live audio recording, “Elegy of the Uprooting”, was issued in 2006: “The two-CD set interweaves excerpts of her music from 13 different scores spanning more than two decades, although the irresistible congruence of the music is such that newcomers to Karaindrou’s oeuvre would be forgiven for thinking this is newly composed. The music seduces by its profound beauty, tenderness and candour.”. – International Record Review. Here is the video and audio document of the event.

Eleni Karaindrou - Elegy Of The Uprooting (2008) {2CD + DVD9 NTSC ECM New Series 5506 & 1952/53}

On Elegy of the Uprooting, composer extraordinaire Eleni Karaindrou has produced music of sublime beauty, peace and introspection. Supported by an enormous ensemble of 110 musicians—including an orchestra, choir, traditional music ensemble, and various soloists, including singer Maria Farantouri—she combines lush voice-like textures and patient soaring melodies to create timeless compositions that are both soothing and haunting.

Just like many well-known film directors who have associated with certain composers (eg. Krzysztof Kieslowski and Zbigniew Preisner, Sergio Leone and Ennio Morriconne), Greek director Theo Angelopolous has worked closely with composer Eleni Karaindrou on the soundtracks for his films for more than twenty years. For many years as they have worked together, Karaindrou has proven herself to be succesful at capturing the essense of Angelopolous’ movies, thus rendering her music unseparable from the moving pictures. Her moving, sweeping soundtracks are unobtrusive but absolutely central to the f ilms—and importantly, they can be enjoyed regardless whether or not you have seen or not the films. It is rare to find film music that is as important as the acting in the film.

Even though this is a live recording, Karaindrou’s characteristic highly textural sound is prominent throughout. The orchestra goes performing themes from works for films such as Ulysees’ Gaze, The Weeping Meadow, The Suspended Step of the Stork, Eternety and A Day, Landscape in a Mist, The Beekeper, Voyage to Cythera (films by Theo Angelopolous), Happy Homecoming, Comrade (by Lefteris Xanthopoulos), Rosa (by Christoforos Christofis), and lesser-known works such as music from The Price of Love by Tonia Marketaki and the music for Chekhov’s play The Seagull. Karaindrou’s music is never ostentatious or melodramatic. Instead, it is minimal and suffused with a fragile beauty. She brings forth slow patient washes of melodic warmth, drifting spacy ambience, and wave after wave of audio bliss.

For a long time her music has been associated with Greek folk music, but for the wrong reasons. It is not simple the usage of folk instruments in her scores, but the melodicity and the contrasting emotions that prevail and are typical in Greek and Balkan folk music. The music is as uplifting and joyful as it is sad, at the same time exalting and melancholic. But, whatever approach taken or whatever are the influences, Eleni shows that she knows her craft well and that she is a master at allowing her music to unfurl in very imaginable ways.

Elegy of the Uprooting is a culmination of Karaindrou’s career as a composer, since it sums the best of her works, performed by an exceptional orchestra. The music can be enjoyed on many different levels. This fresh, unique, and daring dreamscape of rich music can blow you away with its diversity and melancholy beauty.

Eleni Karaindrou - Elegy Of The Uprooting (2008) {2CD + DVD9 NTSC ECM New Series 5506 & 1952/53}

ECM audio cd review
ECM dvd review
ECM combined review

Musicians:
Maria Farantouri Vocals
Eleni Karaindrou Piano
Antonis Kontogeorgiou
Choir Director
Camerata Orchestra
Alexandros Myrat
Conductor

Eleni Karaindrou - Elegy Of The Uprooting (2008) {2CD + DVD9 NTSC ECM New Series 5506 & 1952/53}

tracklist:
CD1

01 – The Weeping Meadow – Prayer
02 – The Suspended Step of the Stork – Refugee’s Theme
03 – The Weeping Meadow – The Weeping Meadow
04 – Ulysses’ Gaze – Dance
05 – Trojan Women, First Stasimon – An ode of tears
06 – Trojan Women, First Stasimon – For the Phrygian land a vast mourning
07 – Eternity and a Day – By the Sea
08 – Eternity and a Day – Depart and Eternity Theme
09 – Rosa – Rosa’s Aria
10 – The Weeping Meadow – Memories
11 – Trojan Women, Second Stasimon – Hecuba’s Lament , Hecuba’s Theme II
12 – Trojan Women, Second Stasimon – Telamon, you came to conquer our town
13 – Trojan Women, Second Stasimon – The city that gave Birth to You was Consumed by Fire
14 – Trojan Women, Second Stasimon – An ode of tears
15 – The Weeping Meadow – Theme of the Uprooting I
16 – The Weeping Meadow – The Weeping Meadow II
17 – Voyage to Cythera – Voyage
18 – Voyage to Cythera – Voyage to Cythera
19 – The Weeping Meadow – On the Road

Eleni Karaindrou - Elegy Of The Uprooting (2008) {2CD + DVD9 NTSC ECM New Series 5506 & 1952/53}

CD2
01 – Happy Homecoming – Parade
02 – Happy Homecoming – Return
03 – Trojan Women, Parodos – Andromache’s Theme
04 – Trojan Women, Parodos – The land I call home
05 – Trojan Women, Parodos – Home of my forefathers
06 – Trojan Women, Parodos – I wish I’m given there
07 – The Suspended Step of the Stork – Refugee’s Theme
08 – The Seagull – The Seagull
09 – The Seagull – Song of the Lake
10 – Landscape in the Mist – Adagio – Father’s Theme
11 – Trojan Women, Third Stasimon – In vain the sacrifices
12 – Trojan Women, Third Stasimon – My beloved, your soul is wandering
13 – The Prince of Love – Decision
14 – The Beekeeper – Farewell Theme
15 – The Weeping Meadow – Theme of the Lake
16 – Trojan Women, Exodos – Hecuba’s Theme II
17 – Trojan Women, Exodos – Lament for Astyanax
18 – Trojan Women, Exodos – Exodos
19 – The Weeping Meadow – The Weeping Meadow

Eleni Karaindrou - Elegy Of The Uprooting (2008) {2CD + DVD9 NTSC ECM New Series 5506 & 1952/53}

DVD
Prayer
Refugee’s Theme
The Weeping Meadow
Dance
An ode of tears
For the Phrygian land vast mourning
By the Sea
Depart and Eternity Theme
Rosa’s Aria
Memories
Hecuba’s Lament / Hecuba’s Theme II
Telamon, you came to conquer our town
The city that gave birth to you
was consumed by fire
An ode of tears
Theme of the Uprooting I
The Weeping Meadow II
Voyage
Voyage to Cythera
On the Road
Parade
Return
Andromache’s Theme
The land I call home
Home of my forefathers
I wish I’m given There
Refugee’s Theme
The Seagull
Song of the Lake
Adagio – Father’s Theme
In vain the sacrifices
My beloved, your soul is wandering
Decision
Farewell Theme
Theme of the Lake
Hecuba’s Theme II
Lament for Astyanax
Exodos
Hecuba’s Theme II
The Weeping Meadow
Song of the Lake

Eleni Karaindrou - Elegy Of The Uprooting (2008) {2CD + DVD9 NTSC ECM New Series 5506 & 1952/53}
EAC log CD1
Exact Audio Copy V1.1 from 23. June 2015

EAC extraction logfile from 13. May 2016, 14:37

Eleni Karaindrou / Elegy of the Uprooting CD1

Used drive : TSSTcorpCDDVDW SH-224FB Adapter: 1 ID: 0

Read mode : Secure
Utilize accurate stream : Yes
Defeat audio cache : Yes
Make use of C2 pointers : No

Read offset correction : 6
Overread into Lead-In and Lead-Out : No
Fill up missing offset samples with silence : Yes
Delete leading and trailing silent blocks : No
Null samples used in CRC calculations : Yes
Used interface : Native Win32 interface for Win NT & 2000
Gap handling : Appended to previous track

Used output format : User Defined Encoder
Selected bitrate : 128 kBit/s
Quality : High
Add ID3 tag : No
Command line compressor : C:Program Files (x86)Exact Audio CopyFlacflac.exe
Additional command line options : -8 -V -T "ARTIST=%artist%" -T "TITLE=%title%" -T "ALBUM=%albumtitle%" -T "DATE=%year%" -T "TRACKNUMBER=%tracknr%" -T "TOTALTRACKS=%numtracks%" -T "GENRE=%genre%" -T "ALBUMARTIST=%albumartist%" -T "ALBUM ARTIST=%albumartist%" -T "COMMENT=EAC Secure Mode, Test & Copy, AccurateRip, FLAC -8" %source%

TOC of the extracted CD

Track | Start | Length | Start sector | End sector
––––––––––––––––––––––––––––-
1 | 0:00.00 | 3:59.16 | 0 | 17940
2 | 3:59.16 | 1:42.19 | 17941 | 25609
3 | 5:41.35 | 3:28.28 | 25610 | 41237
4 | 9:09.63 | 3:30.35 | 41238 | 57022
5 | 12:40.23 | 4:07.11 | 57023 | 75558
6 | 16:47.34 | 2:08.55 | 75559 | 85213
7 | 18:56.14 | 1:25.72 | 85214 | 91660
8 | 20:22.11 | 6:21.71 | 91661 | 120306
9 | 26:44.07 | 3:52.73 | 120307 | 137779
10 | 30:37.05 | 2:43.72 | 137780 | 150076
11 | 33:21.02 | 1:39.00 | 150077 | 157501
12 | 35:00.02 | 1:41.14 | 157502 | 165090
13 | 36:41.16 | 2:02.09 | 165091 | 174249
14 | 38:43.25 | 0:36.24 | 174250 | 176973
15 | 39:19.49 | 0:42.24 | 176974 | 180147
16 | 40:01.73 | 2:08.36 | 180148 | 189783
17 | 42:10.34 | 1:57.61 | 189784 | 198619
18 | 44:08.20 | 2:17.18 | 198620 | 208912
19 | 46:25.38 | 3:10.33 | 208913 | 223195

Track 1

Filename H:MY RIPS1 – The Weeping Meadow – Prayer.wav

Pre-gap length 0:00:02.00

Peak level 30.0 %
Extraction speed 1.7 X
Track quality 100.0 %
Test CRC 64506AA6
Copy CRC 64506AA6
Accurately ripped (confidence 33) [2E77F66C] (AR v2)
Copy OK

Track 2

Filename H:MY RIPS2 – The Suspended Step of the Stork – Refugee’s Theme.wav

Peak level 22.3 %
Extraction speed 1.2 X
Track quality 99.8 %
Test CRC 76B7A99E
Copy CRC 76B7A99E
Accurately ripped (confidence 33) [DF9DAC46] (AR v2)
Copy OK

Track 3

Filename H:MY RIPS3 – The Weeping Meadow – The Weeping Meadow.wav

Peak level 46.1 %
Extraction speed 1.9 X
Track quality 100.0 %
Test CRC 0EECB8CF
Copy CRC 0EECB8CF
Accurately ripped (confidence 32) [50EA12EB] (AR v2)
Copy OK

Track 4

Filename H:MY RIPS4 – Ulysses’ Gaze – Dance.wav

Peak level 51.5 %
Extraction speed 1.8 X
Track quality 99.9 %
Test CRC 81F67625
Copy CRC 81F67625
Accurately ripped (confidence 33) [72A4DCE2] (AR v2)
Copy OK

Track 5

Filename H:MY RIPS5 – Trojan Women, First Stasimon – An ode of tears.wav

Peak level 61.8 %
Extraction speed 2.3 X
Track quality 100.0 %
Test CRC CE196E4D
Copy CRC CE196E4D
Accurately ripped (confidence 31) [60C099B1] (AR v2)
Copy OK

Track 6

Filename H:MY RIPS6 – Trojan Women, First Stasimon – For the Phrygian land a vast mourning.wav

Peak level 48.3 %
Extraction speed 2.1 X
Track quality 100.0 %
Test CRC 29BA76A5
Copy CRC 29BA76A5
Accurately ripped (confidence 32) [4DB5222B] (AR v2)
Copy OK

Track 7

Filename H:MY RIPS7 – Eternity and a Day – By the Sea.wav

Peak level 21.2 %
Extraction speed 1.4 X
Track quality 99.8 %
Test CRC 234759A9
Copy CRC 234759A9
Accurately ripped (confidence 33) [B138A6CF] (AR v2)
Copy OK

Track 8

Filename H:MY RIPS8 – Eternity and a Day – Depart and Eternity Theme.wav

Peak level 39.9 %
Extraction speed 2.7 X
Track quality 100.0 %
Test CRC 59E282B5
Copy CRC 59E282B5
Accurately ripped (confidence 33) [85814A48] (AR v2)
Copy OK

Track 9

Filename H:MY RIPS9 – Rosa – Rosa’s Aria.wav

Peak level 75.2 %
Extraction speed 2.7 X
Track quality 100.0 %
Test CRC BE82A9D3
Copy CRC BE82A9D3
Accurately ripped (confidence 33) [0AD6239F] (AR v2)
Copy OK

Track 10

Filename H:MY RIPS10 – The Weeping Meadow – Memories.wav

Peak level 30.8 %
Extraction speed 2.7 X
Track quality 100.0 %
Test CRC 964BB3E5
Copy CRC 964BB3E5
Accurately ripped (confidence 33) [3DCBDB3D] (AR v2)
Copy OK

Track 11

Filename H:MY RIPS11 – Trojan Women, Second Stasimon – Hecuba’s Lament , Hecuba’s Theme II.wav

Peak level 27.4 %
Extraction speed 2.4 X
Track quality 100.0 %
Test CRC 11CCFF14
Copy CRC 11CCFF14
Accurately ripped (confidence 33) [AD33562F] (AR v2)
Copy OK

Track 12

Filename H:MY RIPS12 – Trojan Women, Second Stasimon – Telamon, you came to conquer our town.wav

Peak level 51.0 %
Extraction speed 2.5 X
Track quality 100.0 %
Test CRC 8834B253
Copy CRC 8834B253
Accurately ripped (confidence 33) [684F8B99] (AR v2)
Copy OK

Track 13

Filename H:MY RIPS13 – Trojan Women, Second Stasimon – The city that gave Birth to You was Consumed by Fire.wav

Peak level 47.9 %
Extraction speed 2.6 X
Track quality 100.0 %
Test CRC 1DCFC1E8
Copy CRC 1DCFC1E8
Accurately ripped (confidence 33) [16FB3476] (AR v2)
Copy OK

Track 14

Filename H:MY RIPS14 – Trojan Women, Second Stasimon – An ode of tears.wav

Peak level 11.6 %
Extraction speed 1.7 X
Track quality 100.0 %
Test CRC 59E531EC
Copy CRC 59E531EC
Accurately ripped (confidence 33) [F45227F4] (AR v2)
Copy OK

Track 15

Filename H:MY RIPS15 – The Weeping Meadow – Theme of the Uprooting I.wav

Peak level 20.4 %
Extraction speed 1.8 X
Track quality 100.0 %
Test CRC AA8680F2
Copy CRC AA8680F2
Accurately ripped (confidence 33) [0398C138] (AR v2)
Copy OK

Track 16

Filename H:MY RIPS16 – The Weeping Meadow – The Weeping Meadow II.wav

Peak level 16.1 %
Extraction speed 1.9 X
Track quality 99.9 %
Test CRC 540F4F8D
Copy CRC 540F4F8D
Accurately ripped (confidence 33) [3A2625B8] (AR v2)
Copy OK

Track 17

Filename H:MY RIPS17 – Voyage to Cythera – Voyage.wav

Peak level 53.4 %
Extraction speed 2.8 X
Track quality 100.0 %
Test CRC 23A77598
Copy CRC 23A77598
Accurately ripped (confidence 33) [949A17A1] (AR v2)
Copy OK

Track 18

Filename H:MY RIPS18 – Voyage to Cythera – Voyage to Cythera.wav

Peak level 31.0 %
Extraction speed 2.9 X
Track quality 100.0 %
Test CRC 5424AAD6
Copy CRC 5424AAD6
Accurately ripped (confidence 33) [91DC834A] (AR v2)
Copy OK

Track 19

Filename H:MY RIPS19 – The Weeping Meadow – On the Road.wav

Peak level 20.7 %
Extraction speed 3.2 X
Track quality 100.0 %
Test CRC 6FED370C
Copy CRC 6FED370C
Accurately ripped (confidence 33) [EC9E9E52] (AR v2)
Copy OK

All tracks accurately ripped

No errors occurred

End of status report

–– CUETools DB Plugin V2.1.6

[CTDB TOCID: JN1IGOvHZ23bt.VXf4EWryOIn7I-] found
Submit result: JN1IGOvHZ23bt.VXf4EWryOIn7I- has been confirmed
Track | CTDB Status
1 | (32/32) Accurately ripped
2 | (32/32) Accurately ripped
3 | (32/32) Accurately ripped
4 | (32/32) Accurately ripped
5 | (31/32) Accurately ripped
6 | (31/32) Accurately ripped
7 | (32/32) Accurately ripped
8 | (32/32) Accurately ripped
9 | (32/32) Accurately ripped
10 | (32/32) Accurately ripped
11 | (32/32) Accurately ripped
12 | (32/32) Accurately ripped
13 | (32/32) Accurately ripped
14 | (32/32) Accurately ripped
15 | (32/32) Accurately ripped
16 | (32/32) Accurately ripped
17 | (32/32) Accurately ripped
18 | (32/32) Accurately ripped
19 | (32/32) Accurately ripped

==== Log checksum 4DD0C5836C612D689B0155B0086B4FC4E45E5CCA62D3060243CE3B101158B0DD ====

EAC log CD2
Exact Audio Copy V1.1 from 23. June 2015

EAC extraction logfile from 13. May 2016, 17:27

Eleni Karaindrou / Elegy of the Uprooting CD2

Used drive : TSSTcorpCDDVDW SH-224FB Adapter: 1 ID: 0

Read mode : Secure
Utilize accurate stream : Yes
Defeat audio cache : Yes
Make use of C2 pointers : No

Read offset correction : 6
Overread into Lead-In and Lead-Out : No
Fill up missing offset samples with silence : Yes
Delete leading and trailing silent blocks : No
Null samples used in CRC calculations : Yes
Used interface : Native Win32 interface for Win NT & 2000
Gap handling : Appended to previous track

Used output format : User Defined Encoder
Selected bitrate : 128 kBit/s
Quality : High
Add ID3 tag : No
Command line compressor : C:Program Files (x86)Exact Audio CopyFlacflac.exe
Additional command line options : -8 -V -T "ARTIST=%artist%" -T "TITLE=%title%" -T "ALBUM=%albumtitle%" -T "DATE=%year%" -T "TRACKNUMBER=%tracknr%" -T "TOTALTRACKS=%numtracks%" -T "GENRE=%genre%" -T "ALBUMARTIST=%albumartist%" -T "ALBUM ARTIST=%albumartist%" -T "COMMENT=EAC Secure Mode, Test & Copy, AccurateRip, FLAC -8" %source%

TOC of the extracted CD

Track | Start | Length | Start sector | End sector
––––––––––––––––––––––––––––-
1 | 0:00.00 | 2:56.28 | 0 | 13227
2 | 2:56.28 | 2:25.65 | 13228 | 24167
3 | 5:22.18 | 0:53.68 | 24168 | 28210
4 | 6:16.11 | 1:46.57 | 28211 | 36217
5 | 8:02.68 | 1:46.61 | 36218 | 44228
6 | 9:49.54 | 1:21.13 | 44229 | 50316
7 | 11:10.67 | 2:01.45 | 50317 | 59436
8 | 13:12.37 | 1:26.48 | 59437 | 65934
9 | 14:39.10 | 2:26.00 | 65935 | 76884
10 | 17:05.10 | 2:56.44 | 76885 | 90128
11 | 20:01.54 | 2:13.20 | 90129 | 100123
12 | 22:14.74 | 2:58.13 | 100124 | 113486
13 | 25:13.12 | 2:40.56 | 113487 | 125542
14 | 27:53.68 | 4:25.55 | 125543 | 145472
15 | 32:19.48 | 2:32.15 | 145473 | 156887
16 | 34:51.63 | 1:03.08 | 156888 | 161620
17 | 35:54.71 | 2:11.10 | 161621 | 171455
18 | 38:06.06 | 2:48.60 | 171456 | 184115
19 | 40:54.66 | 2:53.05 | 184116 | 197095

Track 1

Filename H:MY RIPS1 – Happy Homecoming – Parade.wav

Pre-gap length 0:00:02.00

Peak level 34.9 %
Extraction speed 1.6 X
Track quality 100.0 %
Test CRC DFFE522B
Copy CRC DFFE522B
Accurately ripped (confidence 30) [2CB44465] (AR v2)
Copy OK

Track 2

Filename H:MY RIPS2 – Happy Homecoming – Return.wav

Peak level 30.9 %
Extraction speed 1.7 X
Track quality 100.0 %
Test CRC 0FB853F4
Copy CRC 0FB853F4
Accurately ripped (confidence 30) [9506F4A8] (AR v2)
Copy OK

Track 3

Filename H:MY RIPS3 – Trojan Women, Parodos – Andromache’s Theme.wav

Peak level 17.9 %
Extraction speed 1.3 X
Track quality 100.0 %
Test CRC D431FCE9
Copy CRC D431FCE9
Accurately ripped (confidence 30) [2DED58DC] (AR v2)
Copy OK

Track 4

Filename H:MY RIPS4 – Trojan Women, Parodos – The land I call home.wav

Peak level 54.8 %
Extraction speed 1.7 X
Track quality 100.0 %
Test CRC B0427119
Copy CRC B0427119
Accurately ripped (confidence 29) [60101330] (AR v2)
Copy OK

Track 5

Filename H:MY RIPS5 – Trojan Women, Parodos – Home of my forefathers.wav

Peak level 59.3 %
Extraction speed 1.7 X
Track quality 100.0 %
Test CRC EE5F8491
Copy CRC EE5F8491
Accurately ripped (confidence 29) [B6876044] (AR v2)
Copy OK

Track 6

Filename H:MY RIPS6 – Trojan Women, Parodos – I wish I’m given there.wav

Peak level 49.3 %
Extraction speed 1.6 X
Track quality 100.0 %
Test CRC 23A2E315
Copy CRC 23A2E315
Accurately ripped (confidence 30) [5D5F9F0E] (AR v2)
Copy OK

Track 7

Filename H:MY RIPS7 – The Suspended Step of the Stork – Refugee’s Theme.wav

Peak level 51.0 %
Extraction speed 1.9 X
Track quality 100.0 %
Test CRC 8A16E87C
Copy CRC 8A16E87C
Accurately ripped (confidence 30) [A1E90F30] (AR v2)
Copy OK

Track 8

Filename H:MY RIPS8 – The Seagull – The Seagull.wav

Peak level 19.7 %
Extraction speed 1.3 X
Track quality 99.8 %
Test CRC 36E8C887
Copy CRC 36E8C887
Accurately ripped (confidence 30) [3D790D20] (AR v2)
Copy OK

Track 9

Filename H:MY RIPS9 – The Seagull – Song of the Lake.wav

Peak level 67.4 %
Extraction speed 2.1 X
Track quality 100.0 %
Test CRC 3F450B04
Copy CRC 3F450B04
Accurately ripped (confidence 30) [13DCAD14] (AR v2)
Copy OK

Track 10

Filename H:MY RIPS10 – Landscape in the Mist – Adagio – Father’s Theme.wav

Peak level 58.6 %
Extraction speed 1.8 X
Track quality 99.9 %
Test CRC 0251C4B3
Copy CRC 0251C4B3
Accurately ripped (confidence 30) [2B9CD076] (AR v2)
Copy OK

Track 11

Filename H:MY RIPS11 – Trojan Women, Third Stasimon – In vain the sacrifices.wav

Peak level 30.4 %
Extraction speed 2.2 X
Track quality 100.0 %
Test CRC E668E184
Copy CRC E668E184
Accurately ripped (confidence 30) [80EA0A36] (AR v2)
Copy OK

Track 12

Filename H:MY RIPS12 – Trojan Women, Third Stasimon – My beloved, your soul is wandering.wav

Peak level 28.0 %
Extraction speed 2.5 X
Track quality 100.0 %
Test CRC 9E56BD8F
Copy CRC 9E56BD8F
Accurately ripped (confidence 30) [ED507DE4] (AR v2)
Copy OK

Track 13

Filename H:MY RIPS13 – The Prince of Love – Decision.wav

Peak level 41.7 %
Extraction speed 2.5 X
Track quality 100.0 %
Test CRC 0B180B54
Copy CRC 0B180B54
Accurately ripped (confidence 30) [01082655] (AR v2)
Copy OK

Track 14

Filename H:MY RIPS14 – The Beekeeper – Farewell Theme.wav

Peak level 36.0 %
Extraction speed 2.9 X
Track quality 100.0 %
Test CRC 981FDB54
Copy CRC 981FDB54
Accurately ripped (confidence 30) [2B263079] (AR v2)
Copy OK

Track 15

Filename H:MY RIPS15 – The Weeping Meadow – Theme of the Lake.wav

Peak level 21.0 %
Extraction speed 2.7 X
Track quality 100.0 %
Test CRC 59A8965A
Copy CRC 59A8965A
Accurately ripped (confidence 30) [2E87807E] (AR v2)
Copy OK

Track 16

Filename H:MY RIPS16 – Trojan Women, Exodos – Hecuba’s Theme II.wav

Peak level 28.3 %
Extraction speed 2.0 X
Track quality 100.0 %
Test CRC 714175C7
Copy CRC 714175C7
Accurately ripped (confidence 30) [F50588DD] (AR v2)
Copy OK

Track 17

Filename H:MY RIPS17 – Trojan Women, Exodos – Lament for Astyanax.wav

Peak level 35.3 %
Extraction speed 1.9 X
Track quality 99.9 %
Test CRC CC22FA00
Copy CRC CC22FA00
Accurately ripped (confidence 30) [36ECEF1F] (AR v2)
Copy OK

Track 18

Filename H:MY RIPS18 – Trojan Women, Exodos – Exodos.wav

Peak level 46.8 %
Extraction speed 2.9 X
Track quality 100.0 %
Test CRC 4C6E9714
Copy CRC 4C6E9714
Accurately ripped (confidence 30) [3EA42F03] (AR v2)
Copy OK

Track 19

Filename H:MY RIPS19 – The Weeping Meadow – The Weeping Meadow.wav

Peak level 43.4 %
Extraction speed 3.0 X
Track quality 100.0 %
Test CRC E8A5AA9B
Copy CRC E8A5AA9B
Accurately ripped (confidence 30) [091F052D] (AR v2)
Copy OK

All tracks accurately ripped

No errors occurred

End of status report

–– CUETools DB Plugin V2.1.6

[CTDB TOCID: _4xcpaqK0BIsW6RYpJnzZ8K6xrw-] found
Submit result: _4xcpaqK0BIsW6RYpJnzZ8K6xrw- has been confirmed
Track | CTDB Status
1 | (27/27) Accurately ripped
2 | (27/27) Accurately ripped
3 | (27/27) Accurately ripped
4 | (27/27) Accurately ripped
5 | (27/27) Accurately ripped
6 | (27/27) Accurately ripped
7 | (27/27) Accurately ripped
8 | (27/27) Accurately ripped
9 | (27/27) Accurately ripped
10 | (27/27) Accurately ripped
11 | (27/27) Accurately ripped
12 | (27/27) Accurately ripped
13 | (27/27) Accurately ripped
14 | (27/27) Accurately ripped
15 | (26/27) Accurately ripped
16 | (27/27) Accurately ripped
17 | (27/27) Accurately ripped
18 | (27/27) Accurately ripped
19 | (27/27) Accurately ripped

==== Log checksum 453F785AC2B01F22A4483F2A1F034062471B1308454B24159461716858A1FB72 ====

DVDDecrypter log
I 22:37:31 DVD Decrypter Version 3.5.4.0 started!
I 22:37:31 Microsoft Windows XP Home Edition (5.1, Build 2600 : Service Pack 3)
I 22:37:31 Initialising SPTI…
I 22:37:31 Searching for SCSI / ATAPI devices…
I 22:37:31 Found 1 CD-RW, 1 DVD-ROM and 1 DVD±RW!
I 22:38:09 Operation Started!
I 22:38:09 Source Device: [1:0:0] SONY DVD RW DW-D22A BFS1 (E:) (ATA)
I 22:38:09 Source Media Type: DVD-ROM
I 22:38:09 Source Media Region Code: 1; 2; 3; 4; 5; 6; 7; 8
I 22:38:09 Source Media Copyright Protection System Type: None
I 22:38:09 Source Media Implementation Identifier: Sonic Scenarist 3.1
I 22:38:10 Destination File: R:ImageECM Eleni Karaindrou.ISO
I 22:38:10 File Splitting: None
I 22:38:10 Hardware Read Error Retries: 20
I 22:38:10 Detect Mastering Errors: No
I 22:38:10 Remove Macrovision Protection: Yes
I 22:38:10 Extracting Sectors… (LBA: 0 – 3286741)
I 22:38:10 Found IFO File: VIDEO_TS.IFO – (LBA: 293 – 298)
I 22:38:10 Found VOB File: VIDEO_TS.VOB – (LBA: 299 – 9210) – KEY: N/A
I 22:38:15 Found BUP File: VIDEO_TS.BUP – (LBA: 9227 – 9232)
I 22:38:15 Found IFO File: VTS_01_0.IFO – (LBA: 9233 – 9265)
I 22:38:15 Found VOB File: VTS_01_1.VOB – (LBA: 9266 – 533410) – KEY: N/A
I 22:41:16 Found VOB File: VTS_01_2.VOB – (LBA: 533411 – 1057656) – KEY: N/A
I 22:43:31 Found VOB File: VTS_01_3.VOB – (LBA: 1057657 – 1581796) – KEY: N/A
I 22:45:24 Found VOB File: VTS_01_4.VOB – (LBA: 1581797 – 2106042) – KEY: N/A
I 22:47:59 Found VOB File: VTS_01_5.VOB – (LBA: 2106043 – 2630276) – KEY: N/A
I 22:50:31 Found VOB File: VTS_01_6.VOB – (LBA: 2630277 – 3154436) – KEY: N/A
I 22:52:32 Found VOB File: VTS_01_7.VOB – (LBA: 3154437 – 3286643) – KEY: N/A
I 22:53:00 Found BUP File: VTS_01_0.BUP – (LBA: 3286708 – 3286740)
I 22:53:00 Operation Successfully Completed! – Duration: 00:14:50
I 22:53:00 Average Read Rate: 7.385 KB/s (5.3x) – Maximum Read Rate: 10.789 KB/s (7.8x)
I 22:53:05 Close Request Acknowledged
I 22:53:05 Closing Down…
I 22:53:05 Shutting down SPTI…
I 22:53:05 DVD Decrypter closed!

Eleni Karaindrou - Elegy Of The Uprooting (2008) {2CD + DVD9 NTSC ECM New Series 5506 & 1952/53}

Eleni Karaindrou - Elegy Of The Uprooting (2008) {2CD + DVD9 NTSC ECM New Series 5506 & 1952/53}

Eleni Karaindrou - Elegy Of The Uprooting (2008) {2CD + DVD9 NTSC ECM New Series 5506 & 1952/53}

Eleni Karaindrou - Elegy Of The Uprooting (2008) {2CD + DVD9 NTSC ECM New Series 5506 & 1952/53}

Eleni Karaindrou - Elegy Of The Uprooting (2008) {2CD + DVD9 NTSC ECM New Series 5506 & 1952/53}

Eleni Karaindrou - Elegy Of The Uprooting (2008) {2CD + DVD9 NTSC ECM New Series 5506 & 1952/53}

see more Eleni Karaindrou…

All thanks goes to the original releaser!

===

Eleni Karaindrou – Elegy Of The Uprooting (2008) {2CD + DVD9 NTSC ECM New Series 5506 & 1952/53} Download, Warez, DDL, Free, Full Album, Torrent, Legal.

Download