Elastica – Elastica (1995) [Tour Edition]

Download
Elastica - Elastica (1995) [Tour Edition]

Elastica – Elastica (1995) [Tour Edition]
EAC | FLAC | Tracks (Cue&Log) ~ 376 Mb (incl 5%) | Mp3 (CBR320) ~ 145 Mb (incl 5%) | Scans included
Genre: Alternative Rock, Post Punk, BritPop | Label: Geffen | # GEFD-24728 | Time: 00:51:22

Elastica’s debut album may cop a riff here and there from Wire or the Stranglers, yet no more than Led Zeppelin did with Willie Dixon or the Beach Boys with Chuck Berry. The key is context. Elastica can make the rigid artiness of Wire into a rocking, sexy single with more hooks than anything on Pink Flag ("Connection") or rework the Stranglers’ "No More Heroes" into a more universal anthem that loses none of its punkiness ("Waking Up"). But what makes Elastica such an intoxicating record is not only the way the 16 songs speed by in 40 minutes, but that they’re nearly all classics. The riffs are angular like early Adam & the Ants, the melodies tease like Blondie, and the entire band is as tough as the Clash, yet they never seem anything less than contemporary. Justine Frischmann’s detached sexuality adds an extra edge to her brief, spiky songs – "Stutter" roars about a boyfriend’s impotence, "Car Song" makes sex in a car actually sound sexy, "Line Up" slags off groupies, and "Vaseline" speaks for itself. Even if the occasional riff sounds like an old wave group, the simple fact is that hardly any new wave band made records this consistently rocking and melodic.

Review by Stephen Thomas Erlewine, Allmusic.com

Elastica - Elastica (1995) [Tour Edition]

Elastica at Allmusic
Elastica at Wiki

Tracklist:

CD1:

01. Line Up (03:15)
02. Annie (01:13)
03. Connection (02:20)
04. Car Song (02:24)
05. Smile (01:40)
06. Hold Me Now (02:32)
07. S.O.F.T. (03:57)
08. Indian Song (02:46)
09. Blue (02:21)
10. All-Nighter (01:33)
11. Waking Up (03:15)
12. 2:1 (02:31)
13. See That Animal (02:21)
14. Stutter (02:22)
15. Never Here (04:26)
16. Vaseline (01:23)

CD2:

01. Car Song (LP Version) (02:26)
02. Car Song (Recorded Live in Tokyo, 11th July 1995) (02:21)
03. Bar Bar Bar (Demo) (02:30)
04. Jam (II) (Recorded Live in Tokyo, 11th July 1995) (00:40)
05. Gloria (Live) (Recorded Live in Tokyo, 11th July 1995) (02:56)

EAC log CD1
Exact Audio Copy V0.99 prebeta 4 from 23. January 2008

EAC extraction logfile from 3. March 2009, 23:47

Elastica / Elastica

Used drive : PLEXTOR CD-R PREMIUM Adapter: 3 ID: 1

Read mode : Secure
Utilize accurate stream : Yes
Defeat audio cache : Yes
Make use of C2 pointers : No

Read offset correction : 30
Overread into Lead-In and Lead-Out : Yes
Fill up missing offset samples with silence : Yes
Delete leading and trailing silent blocks : No
Null samples used in CRC calculations : Yes
Used interface : Installed external ASPI interface
Gap handling : Appended to previous track

Used output format : User Defined Encoder
Selected bitrate : 768 kBit/s
Quality : High
Add ID3 tag : No
Command line compressor : E:Program FilesExact Audio CopyFLACFLAC.EXE
Additional command line options : -8 -V -T "ARTIST=%a" -T "TITLE=%t" -T "ALBUM=%g" -T "DATE=%y" -T "TRACKNUMBER=%n" -T "TOTALTRACKS=%x" -T "GENRE=%m" -T "ALBUMARTIST=%v" -T "ALBUM ARTIST=%v" -T "COMMENT=EAC V0.99 prebeta 4, Secure Mode, Test & Copy, Accurat

TOC of the extracted CD

Track | Start | Length | Start sector | End sector
––––––––––––––––––––––––––––-
1 | 0:00.00 | 3:15.52 | 0 | 14676
2 | 3:15.52 | 1:13.45 | 14677 | 20196
3 | 4:29.22 | 2:20.40 | 20197 | 30736
4 | 6:49.62 | 2:24.28 | 30737 | 41564
5 | 9:14.15 | 1:40.37 | 41565 | 49101
6 | 10:54.52 | 2:32.35 | 49102 | 60536
7 | 13:27.12 | 3:57.65 | 60537 | 78376
8 | 17:25.02 | 2:46.20 | 78377 | 90846
9 | 20:11.22 | 2:21.68 | 90847 | 101489
10 | 22:33.15 | 1:33.35 | 101490 | 108499
11 | 24:06.50 | 3:15.50 | 108500 | 123174
12 | 27:22.25 | 2:31.00 | 123175 | 134499
13 | 29:53.25 | 2:21.45 | 134500 | 145119
14 | 32:14.70 | 2:22.17 | 145120 | 155786
15 | 34:37.12 | 4:26.38 | 155787 | 175774
16 | 39:03.50 | 1:23.67 | 175775 | 182066

Track 1

Filename R:EAC Rips1 – Line Up.wav

Pre-gap length 0:00:02.00

Peak level 97.8 %
Track quality 100.0 %
Test CRC 74DA1754
Copy CRC 74DA1754
Accurately ripped (confidence 4) [96CE20BE]
Copy OK

Track 2

Filename R:EAC Rips2 – Annie.wav

Peak level 97.9 %
Track quality 100.0 %
Test CRC 7E0A1A45
Copy CRC 7E0A1A45
Accurately ripped (confidence 4) [761F6D9B]
Copy OK

Track 3

Filename R:EAC Rips3 – Connection.wav

Peak level 97.7 %
Track quality 100.0 %
Test CRC A40F86FE
Copy CRC A40F86FE
Accurately ripped (confidence 4) [0A1E4943]
Copy OK

Track 4

Filename R:EAC Rips4 – Car Song.wav

Pre-gap length 0:00:00.16

Peak level 98.0 %
Track quality 100.0 %
Test CRC F502A54F
Copy CRC F502A54F
Accurately ripped (confidence 4) [5269FC7C]
Copy OK

Track 5

Filename R:EAC Rips5 – Smile.wav

Peak level 97.7 %
Track quality 100.0 %
Test CRC BAD20D0F
Copy CRC BAD20D0F
Accurately ripped (confidence 4) [8E9A13AF]
Copy OK

Track 6

Filename R:EAC Rips6 – Hold Me Now.wav

Pre-gap length 0:00:00.53

Peak level 97.9 %
Track quality 100.0 %
Test CRC D6CACA3F
Copy CRC D6CACA3F
Accurately ripped (confidence 4) [3714DAE6]
Copy OK

Track 7

Filename R:EAC Rips7 – S.O.F.T..wav

Peak level 98.1 %
Track quality 100.0 %
Test CRC 67BC4E43
Copy CRC 67BC4E43
Accurately ripped (confidence 4) [AEAFF4D7]
Copy OK

Track 8

Filename R:EAC Rips8 – Indian Song.wav

Pre-gap length 0:00:00.13

Peak level 97.6 %
Track quality 100.0 %
Test CRC 8A1F66E1
Copy CRC 8A1F66E1
Accurately ripped (confidence 4) [9870AE8A]
Copy OK

Track 9

Filename R:EAC Rips9 – Blue.wav

Peak level 98.2 %
Track quality 100.0 %
Test CRC 5BDC176B
Copy CRC 5BDC176B
Accurately ripped (confidence 4) [AEDCE138]
Copy OK

Track 10

Filename R:EAC Rips10 – All-Nighter.wav

Peak level 97.8 %
Track quality 100.0 %
Test CRC 6EC41874
Copy CRC 6EC41874
Accurately ripped (confidence 4) [EBB504D3]
Copy OK

Track 11

Filename R:EAC Rips11 – Waking Up.wav

Pre-gap length 0:00:00.17

Peak level 98.1 %
Track quality 100.0 %
Test CRC 8BD122B6
Copy CRC 8BD122B6
Accurately ripped (confidence 4) [ED47A9E6]
Copy OK

Track 12

Filename R:EAC Rips12 – 2-1.wav

Pre-gap length 0:00:00.17

Peak level 98.2 %
Track quality 100.0 %
Test CRC BC296CFF
Copy CRC BC296CFF
Accurately ripped (confidence 4) [E8C7BB4E]
Copy OK

Track 13

Filename R:EAC Rips13 – See That Animal.wav

Peak level 98.1 %
Track quality 100.0 %
Test CRC 25EED53D
Copy CRC 25EED53D
Accurately ripped (confidence 4) [7496615F]
Copy OK

Track 14

Filename R:EAC Rips14 – Stutter.wav

Peak level 97.8 %
Track quality 100.0 %
Test CRC A40A4C5E
Copy CRC A40A4C5E
Accurately ripped (confidence 4) [804A26D7]
Copy OK

Track 15

Filename R:EAC Rips15 – Never Here.wav

Peak level 98.0 %
Track quality 100.0 %
Test CRC 31C4CEE9
Copy CRC 31C4CEE9
Accurately ripped (confidence 4) [D24933B7]
Copy OK

Track 16

Filename R:EAC Rips16 – Vaseline.wav

Peak level 98.0 %
Track quality 100.0 %
Test CRC B80E208D
Copy CRC B80E208D
Accurately ripped (confidence 4) [4D1B94F3]
Copy OK

All tracks accurately ripped

No errors occurred

End of status report

DR log CD1
foobar2000 1.2 / Dynamic Range Meter 1.1.1
log date: 2014-05-12 14:40:08

––––––––––––––––––––––––––––––––––––––––
Analyzed: Elastica / Elastica
––––––––––––––––––––––––––––––––––––––––

DR Peak RMS Duration Track
––––––––––––––––––––––––––––––––––––––––
DR8 -0.19 dB -9.21 dB 3:16 01-Line Up
DR8 -0.18 dB -8.96 dB 1:14 02-Annie
DR8 -0.19 dB -10.36 dB 2:21 03-Connection
DR8 -0.17 dB -9.93 dB 2:24 04-Car Song
DR7 -0.20 dB -8.70 dB 1:40 05-Smile
DR7 -0.18 dB -9.99 dB 2:32 06-Hold Me Now
DR8 -0.17 dB -10.42 dB 3:58 07-S.O.F.T.
DR8 -0.21 dB -10.44 dB 2:46 08-Indian Song
DR6 -0.15 dB -8.94 dB 2:22 09-Blue
DR7 -0.19 dB -9.04 dB 1:33 10-All-Nighter
DR6 -0.17 dB -8.11 dB 3:16 11-Waking Up
DR10 -0.16 dB -11.04 dB 2:31 12-2:1
DR8 -0.17 dB -9.06 dB 2:22 13-See That Animal
DR6 -0.19 dB -7.81 dB 2:22 14-Stutter
DR7 -0.17 dB -8.20 dB 4:27 15-Never Here
DR7 -0.18 dB -9.51 dB 1:24 16-Vaseline
––––––––––––––––––––––––––––––––––––––––

Number of tracks: 16
Official DR value: DR7

Samplerate: 44100 Hz
Channels: 2
Bits per sample: 16
Bitrate: 875 kbps
Codec: FLAC
================================================================================

EAC log CD2
Exact Audio Copy V0.99 prebeta 4 from 23. January 2008

EAC extraction logfile from 4. March 2009, 0:02

Elastica / Car Song

Used drive : PLEXTOR CD-R PREMIUM Adapter: 3 ID: 1

Read mode : Secure
Utilize accurate stream : Yes
Defeat audio cache : Yes
Make use of C2 pointers : No

Read offset correction : 30
Overread into Lead-In and Lead-Out : Yes
Fill up missing offset samples with silence : Yes
Delete leading and trailing silent blocks : No
Null samples used in CRC calculations : Yes
Used interface : Installed external ASPI interface
Gap handling : Appended to previous track

Used output format : User Defined Encoder
Selected bitrate : 768 kBit/s
Quality : High
Add ID3 tag : No
Command line compressor : E:Program FilesExact Audio CopyFLACFLAC.EXE
Additional command line options : -8 -V -T "ARTIST=%a" -T "TITLE=%t" -T "ALBUM=%g" -T "DATE=%y" -T "TRACKNUMBER=%n" -T "TOTALTRACKS=%x" -T "GENRE=%m" -T "ALBUMARTIST=%v" -T "ALBUM ARTIST=%v" -T "COMMENT=EAC V0.99 prebeta 4, Secure Mode, Test & Copy, Accurat

TOC of the extracted CD

Track | Start | Length | Start sector | End sector
––––––––––––––––––––––––––––-
1 | 0:00.00 | 2:26.00 | 0 | 10949
2 | 2:26.00 | 2:21.30 | 10950 | 21554
3 | 4:47.30 | 2:30.30 | 21555 | 32834
4 | 7:17.60 | 0:40.27 | 32835 | 35861
5 | 7:58.12 | 2:56.40 | 35862 | 49101

Track 1

Filename R:EAC Rips1 – Car Song (LP Version).wav

Pre-gap length 0:00:02.00

Peak level 97.6 %
Track quality 100.0 %
Test CRC 58D4423C
Copy CRC 58D4423C
Track not present in AccurateRip database
Copy OK

Track 2

Filename R:EAC Rips2 – Car Song (Recorded Live in Tokyo, 11th July 1995).wav

Peak level 93.9 %
Track quality 100.0 %
Test CRC 44712A6F
Copy CRC 44712A6F
Track not present in AccurateRip database
Copy OK

Track 3

Filename R:EAC Rips3 – Bar Bar Bar (Demo).wav

Pre-gap length 0:00:01.48

Peak level 92.3 %
Track quality 99.9 %
Test CRC 66B8DBDA
Copy CRC 66B8DBDA
Track not present in AccurateRip database
Copy OK

Track 4

Filename R:EAC Rips4 – Jam (II) (Recorded Live in Tokyo, 11th July 1995).wav

Pre-gap length 0:00:01.24

Peak level 98.0 %
Track quality 100.0 %
Test CRC A33A5060
Copy CRC A33A5060
Track not present in AccurateRip database
Copy OK

Track 5

Filename R:EAC Rips5 – Gloria (Live) (Recorded Live in Tokyo, 11th July 1995).wav

Peak level 98.4 %
Track quality 100.0 %
Test CRC 37C0C984
Copy CRC 37C0C984
Track not present in AccurateRip database
Copy OK

None of the tracks are present in the AccurateRip database

No errors occurred

End of status report

DR log CD2
foobar2000 1.2 / Dynamic Range Meter 1.1.1
log date: 2014-05-12 14:40:11

––––––––––––––––––––––––––––––––––––––––
Analyzed: Elastica / Car Song
––––––––––––––––––––––––––––––––––––––––

DR Peak RMS Duration Track
––––––––––––––––––––––––––––––––––––––––
DR9 -0.21 dB -10.51 dB 2:26 01-Car Song (LP Version)
DR8 -0.54 dB -10.56 dB 2:21 02-Car Song (Recorded Live in Tokyo, 11th July 1995)
DR8 -0.69 dB -9.27 dB 2:30 03-Bar Bar Bar (Demo)
DR10 -0.17 dB -12.69 dB 0:40 04-Jam (II) (Recorded Live in Tokyo, 11th July 1995)
DR9 -0.14 dB -11.09 dB 2:57 05-Gloria (Live) (Recorded Live in Tokyo, 11th July 1995)
––––––––––––––––––––––––––––––––––––––––

Number of tracks: 5
Official DR value: DR9

Samplerate: 44100 Hz
Channels: 2
Bits per sample: 16
Bitrate: 761 kbps
Codec: FLAC
================================================================================

Elastica - Elastica (1995) [Tour Edition]

Elastica - Elastica (1995) [Tour Edition]

All thanks to original releaser

More interesting music in My Blog

Elastica – Elastica (1995) [Tour Edition] Download, Warez, DDL, Free, Full Album, Torrent, Legal.

Download