El Camaron de la Isla & Paco de Lucia – Son tus Ojos dos Estrellas (1971) {2011 Nueva Integral Box Set CD 03of21}

Download
El Camaron de la Isla & Paco de Lucia - Son tus Ojos dos Estrellas (1971) {2011 Nueva Integral Box Set CD 03of21}

El Camaron de la Isla & Paco de Lucia – Son tus Ojos dos Estrellas (1971) {2011 Nueva Integral Box Set CD 03of21}
EAC rip (secure mode) | FLAC (tracks)+CUE+LOG -> 213 Mb | MP3 @320 -> 89 Mb
Full Artwork @ 600 dpi (jpg) -> 17 Mb | 5% repair rar
© 1971, 2011 Universal Music Spain | 0602498715826
Flamenco / World Music / Vocal / Guitar / Latin / Western European Traditions

A limited edition of the Camaron de la Isla ‘Integral’ box-set. It represents a veritable journey through his life and singing. It includes 21 original albums. The first 17 of them were made in recording studios by Camaron from 1969 to 1992 while he was alive. The third LP of Camaron and Paco was released in 1971, and featured a cover similar to the previous ones. Perez de Leon positions them in a polychromatic sea landscape (which looks like plastic from afar), dressed in formal suit and tie (among his peers Camaron was the first to introduce the suit and tie). Antonio Sanchez and Paco de Lucia appear as authors in the credits -the latter for his guitar variations.

El Camaron de la Isla & Paco de Lucia - Son tus Ojos dos Estrellas (1971) {2011 Nueva Integral Box Set CD 03of21}

It also presents a wide range of «cantes», wich demonstrates the interest and inquisitiveness of Jose to learn and widen his knowledge, without prejuice nor an inferiority complex of any type. Everything good was acceptable. Thus he gives us the difficult short and long «petenera», which supposedly brings bad luck to the gypsies. He sings a «malagueсa» of Chacon, a splendid «solea apola» – «El espejo donde te miras" -and another of Alcala- an unorthodox «polo» that merged with the «caсa» results in a rich musical effect. In the fandango «Sin motivo ni razon» he recovers the style of Gabriel Macandy. In the section of Levante styles, he offers us a fandango «minero» (from «minera»; «cante» that has as theme the mines, its men and their vicissitudes) accompanied by Paco de Lucia in the tone of a «minera» recorded by Ramon Montoya, which few knew how to use in those times. Using «seguirioas» he gathers the «trianero» sensations of Cagancho. With tangos he returns to the «lolailo», accomplishing the feat of combining commercial music with quality flamenco (4). And in the «bulerias» he makes it clear that he has no rival.

With this album Camaron clears away any possible doubts that may have existed concerning his person, and annoys the most stubborn flamencologists, who could raise few objections against him. It is an impetuous piece of work, full of nuances and power. Camaron and Paco have chosen a path and know where they want to reach. By the end of summer Camaron de la Isla receives the first prize in the Antonio Mairena Flamenco Singing Competition.

El Camaron de la Isla & Paco de Lucia - Son tus Ojos dos Estrellas (1971) {2011 Nueva Integral Box Set CD 03of21}

Contents of the Box Set:
CD 1: Al verte las flores lloran (1969)
CD 2: Cada vez que nos miramos (1970)
CD 3: Son tus ojos dos estrellas (1971)
CD 4: Canastera (1972)
CD 5: Caminito de Totana (1973)
CD 6: Soy caminante (1974)
CD 7: Arte y majestad (1975)
CD 8: Rosa María (1976)
CD 9: Castillo de arena (1977)
CD 10: La leyenda del tiempo (1979)
CD 11: Como el agua (1981)
CD 12: Calle Real (1983)
CD 13: Viviré (1984)
CD 14: Te lo dice Camarón (1986)
CD 15: Flamenco vivo (1987)
CD 16: Soy gitano (1989)
CD 17: Potro de rabia y miel (1992)
CD 18: París, 1987 (1987)
CD 19: Antología inédita (2000)
CD 20: En la Venta de Vargas (2004)
CD 21: Reencuentro (2008)

Personnel:
Camarón de la Isla: Singer
Paco de Lucía: Guitar

tracklist:
01 – Son tus ojos dos estrellas (Bulerias)
02 – La mujer con ser mujer (Malaguena de Chacon)
03 – Por la mala lengua que tienes (Solea de Alcala)
04 – Sin motivos ni razon (Fandangos de Gabriel Macande)
05 – En la provincia de Cadiz (Petenera corta y larga)
06 – De una mina de la Union (Fandango minero)
07 – El espejo en que te miras (Solea apola)
08 – Me la tienes controla (Fandango del nino de Barbate)
09 – Al Padre Santo de Roma (Tangos)
10 – Estoy cumpliendo condena (Polo)
11 – En la Provincia de Cadiz (Seguiriyas de Triana)
12 – Me voy por la calle abajo (Bulerias)

EAC log
Exact Audio Copy V1.0 beta 3 from 29. August 2011

EAC extraction logfile from 21. February 2012, 8:01

El Camaron de la Isla & Paco de Lucia / Son tus Ojos dos Estrellas

Used drive : HL-DT-STDVDRAM GH22NS50 Adapter: 0 ID: 0

Read mode : Secure
Utilize accurate stream : Yes
Defeat audio cache : Yes
Make use of C2 pointers : No

Read offset correction : 667
Overread into Lead-In and Lead-Out : No
Fill up missing offset samples with silence : Yes
Delete leading and trailing silent blocks : No
Null samples used in CRC calculations : Yes
Used interface : Installed external ASPI interface
Gap handling : Appended to previous track

Used output format : User Defined Encoder
Selected bitrate : 1024 kBit/s
Quality : High
Add ID3 tag : No
Command line compressor : C:Program FilesExact Audio CopyFlacflac.exe
Additional command line options : -8 -V -T "ARTIST=%artist%" -T "TITLE=%title%" -T "ALBUM=%albumtitle%" -T "DATE=%year%" -T "TRACKNUMBER=%tracknr%" -T "TOTALTRACKS=%numtracks%" -T "GENRE=%genre%" -T "ALBUMARTIST=%albumartist%" -T "ALBUM ARTIST=%albumartist%" -T "COMMENT=EAC Secure Mode, Test & Copy, AccurateRip, FLAC -8" %source%

TOC of the extracted CD

Track | Start | Length | Start sector | End sector
––––––––––––––––––––––––––––-
1 | 0:00.00 | 3:33.38 | 0 | 16012
2 | 3:33.38 | 2:02.07 | 16013 | 25169
3 | 5:35.45 | 4:13.56 | 25170 | 44200
4 | 9:49.26 | 3:21.27 | 44201 | 59302
5 | 13:10.53 | 3:04.21 | 59303 | 73123
6 | 16:14.74 | 2:36.35 | 73124 | 84858
7 | 18:51.34 | 3:07.21 | 84859 | 98904
8 | 21:58.55 | 2:40.09 | 98905 | 110913
9 | 24:38.64 | 2:45.36 | 110914 | 123324
10 | 27:24.25 | 4:28.65 | 123325 | 143489
11 | 31:53.15 | 3:13.08 | 143490 | 157972
12 | 35:06.23 | 2:32.74 | 157973 | 169446

Track 1

Filename C:UsersuserDocumentsEl Camaron de la Isla & Paco de Lucia – Son tus Ojos dos Estrellas (1971) [FLAC] {New Integral Cd 3 of 21}1 – Son tus ojos dos estrellas (Bulerias).wav

Pre-gap length 0:00:02.00

Peak level 99.8 %
Extraction speed 1.0 X
Track quality 100.0 %
Test CRC B765D59E
Copy CRC B765D59E
Track not present in AccurateRip database
Copy OK

Track 2

Filename C:UsersuserDocumentsEl Camaron de la Isla & Paco de Lucia – Son tus Ojos dos Estrellas (1971) [FLAC] {New Integral Cd 3 of 21}2 – La mujer con ser mujer (Malaguena de Chacon).wav

Pre-gap length 0:00:02.22

Peak level 99.8 %
Extraction speed 1.0 X
Track quality 100.0 %
Test CRC 8E51B051
Copy CRC 8E51B051
Track not present in AccurateRip database
Copy OK

Track 3

Filename C:UsersuserDocumentsEl Camaron de la Isla & Paco de Lucia – Son tus Ojos dos Estrellas (1971) [FLAC] {New Integral Cd 3 of 21}3 – Por la mala lengua que tienes (Solea de Alcala).wav

Pre-gap length 0:00:01.59

Peak level 99.8 %
Extraction speed 1.2 X
Track quality 100.0 %
Test CRC 847DCC54
Copy CRC 847DCC54
Track not present in AccurateRip database
Copy OK

Track 4

Filename C:UsersuserDocumentsEl Camaron de la Isla & Paco de Lucia – Son tus Ojos dos Estrellas (1971) [FLAC] {New Integral Cd 3 of 21}4 – Sin motivos ni razon (Fandangos de Gabriel Macande).wav

Pre-gap length 0:00:01.06

Peak level 99.8 %
Extraction speed 1.3 X
Track quality 100.0 %
Test CRC D6573916
Copy CRC D6573916
Track not present in AccurateRip database
Copy OK

Track 5

Filename C:UsersuserDocumentsEl Camaron de la Isla & Paco de Lucia – Son tus Ojos dos Estrellas (1971) [FLAC] {New Integral Cd 3 of 21}5 – En la provincia de Cadiz (Petenera corta y larga).wav

Pre-gap length 0:00:01.34

Peak level 99.8 %
Extraction speed 1.1 X
Track quality 99.9 %
Test CRC 71829A4E
Copy CRC 71829A4E
Track not present in AccurateRip database
Copy OK

Track 6

Filename C:UsersuserDocumentsEl Camaron de la Isla & Paco de Lucia – Son tus Ojos dos Estrellas (1971) [FLAC] {New Integral Cd 3 of 21}6 – De una mina de la Union (Fandango minero).wav

Pre-gap length 0:00:01.66

Peak level 99.8 %
Extraction speed 1.4 X
Track quality 100.0 %
Test CRC 082C1142
Copy CRC 082C1142
Track not present in AccurateRip database
Copy OK

Track 7

Filename C:UsersuserDocumentsEl Camaron de la Isla & Paco de Lucia – Son tus Ojos dos Estrellas (1971) [FLAC] {New Integral Cd 3 of 21}7 – El espejo en que te miras (Solea apola).wav

Pre-gap length 0:00:01.74

Peak level 99.8 %
Extraction speed 1.5 X
Track quality 100.0 %
Test CRC 54C68415
Copy CRC 54C68415
Track not present in AccurateRip database
Copy OK

Track 8

Filename C:UsersuserDocumentsEl Camaron de la Isla & Paco de Lucia – Son tus Ojos dos Estrellas (1971) [FLAC] {New Integral Cd 3 of 21}8 – Me la tienes controla (Fandango del nino de Barbate).wav

Pre-gap length 0:00:01.52

Peak level 99.8 %
Extraction speed 1.5 X
Track quality 100.0 %
Test CRC F7A9C2A2
Copy CRC F7A9C2A2
Track not present in AccurateRip database
Copy OK

Track 9

Filename C:UsersuserDocumentsEl Camaron de la Isla & Paco de Lucia – Son tus Ojos dos Estrellas (1971) [FLAC] {New Integral Cd 3 of 21}9 – Al Padre Santo de Roma (Tangos).wav

Pre-gap length 0:00:01.55

Peak level 99.8 %
Extraction speed 1.6 X
Track quality 100.0 %
Test CRC 21131D51
Copy CRC 21131D51
Track not present in AccurateRip database
Copy OK

Track 10

Filename C:UsersuserDocumentsEl Camaron de la Isla & Paco de Lucia – Son tus Ojos dos Estrellas (1971) [FLAC] {New Integral Cd 3 of 21}10 – Estoy cumpliendo condena (Polo).wav

Pre-gap length 0:00:01.69

Peak level 99.8 %
Extraction speed 1.7 X
Track quality 100.0 %
Test CRC 4F679205
Copy CRC 4F679205
Track not present in AccurateRip database
Copy OK

Track 11

Filename C:UsersuserDocumentsEl Camaron de la Isla & Paco de Lucia – Son tus Ojos dos Estrellas (1971) [FLAC] {New Integral Cd 3 of 21}11 – En la Provincia de Cadiz (Seguiriyas de Triana).wav

Pre-gap length 0:00:01.72

Peak level 99.8 %
Extraction speed 1.7 X
Track quality 100.0 %
Test CRC 9BCCB2A8
Copy CRC 9BCCB2A8
Track not present in AccurateRip database
Copy OK

Track 12

Filename C:UsersuserDocumentsEl Camaron de la Isla & Paco de Lucia – Son tus Ojos dos Estrellas (1971) [FLAC] {New Integral Cd 3 of 21}12 – Me voy por la calle abajo (Bulerias).wav

Pre-gap length 0:00:00.74

Peak level 99.8 %
Extraction speed 1.7 X
Track quality 100.0 %
Test CRC 097F0289
Copy CRC 097F0289
Track not present in AccurateRip database
Copy OK

None of the tracks are present in the AccurateRip database

No errors occurred

End of status report

==== Log checksum 10CC856F05BF4994958C446213FC32E356D70A5871B6D3F18B5F8CE842BEFA3E ====

El Camaron de la Isla & Paco de Lucia - Son tus Ojos dos Estrellas (1971) {2011 Nueva Integral Box Set CD 03of21}

El Camaron de la Isla & Paco de Lucia - Son tus Ojos dos Estrellas (1971) {2011 Nueva Integral Box Set CD 03of21}

All thanks goes to the original releaser!

NEXT -> El Camaron de la Isla & Paco de Lucia – Canastera (1972) {2011 Nueva Integral Box Set CD 04of21}

See Also:
Paco de Lucia & Ricardo Modrego – Dos Guitarras Flamencas en Stereo (1965) {2010 Nueva Integral Box Set CD 01of27}
Paco de Lucia & Ricardo Modrego – 12 Canciones de Garcia Lorca para Guitarra (1965) {2010 Nueva Integral Box Set CD 02of27}
Paco de Lucia & Ricardo Modrego – 12 Exitos para 2 Guitarras Flamencas (1965) {2010 Nueva Integral Box Set CD 03of27}
Paco de Lucia – La Fabulosa Guitarra de Paco de Lucia (1967) {2010 Nueva Integral Box Set CD 04of27}
Paco de Lucia & Ramon de Algeciras – Canciones Andaluzas para 2 Guitarras (1967) {2010 Nueva Integral Box Set CD 05of27}

Paco de Lucia & Ramon de Algeciras – Dos Guitarras Flamencas en America Latina (1967) {2010 Nueva Integral Box Set CD 06of27}
Paco de Lucia – Fantasia Flamenca de Paco de Lucia (1969) {2010 Nueva Integral Box Set CD 07of27}
Paco de Lucia & Ramon de Algeciras – 12 hits para 2 guitarras flamencas y orquesta de cuerda (1969) {2010 Nueva Integral Box Set CD 08of27}
Paco de Lucia & Ramon de Algeciras – En Hispanoamerica (1969) {2010 Nueva Integral Box Set CD 09of27}
Paco de Lucia – El mundo del Flamenco (1971) {2010 Nueva Integral Box Set CD 10of27}

Paco de Lucia – Recital de Guitarra de Paco de Lucia (1971) {2010 Nueva Integral Box Set CD 11of27}
Paco de Lucia – El Duende Flamenco de Paco de Lucia (1972) {2010 Nueva Integral Box Set CD 12of27}
Paco de Lucia – Fuente y Caudal (1973) {2010 Nueva Integral Box Set CD 13of27}
Paco de Lucia – En vivo desde el Teatro Real (1975) {2010 Nueva Integral Box Set CD 14 of 27}
Paco de Lucia – Almoraima (1976) {2010 Nueva Integral Box Set CD 15 of 27}

Paco de Lucia – Interpreta a Manuel de Falla (1978) {2010 Nueva Integral Box Set CD 16 of 27}
Paco de Lucia – Castro Marin (1981) {2010 Nueva Integral Box Set CD 17 of 27}
Paco de Lucia – Solo Quiero Caminar (1981) {2010 Nueva Integral Box Set CD 18 of 27}
Paco de Lucia & Sextet – Live… One Summer Night (1984) {2010 Nueva Integral Box Set CD 19 of 27}
Paco de Lucia – Siroco (1987) {2010 Nueva Integral Box Set CD 20 of 27}

Paco de Lucia – Zyryab (1990) {2010 Nueva Integral Box Set CD 21 of 27}
Paco de Lucia – Concierto de Aranjuez & Iberia (1991) {2010 Nueva Integral Box Set CD 22 of 27}
Paco de Lucia & Sextet – Live in America (1993) {2010 Nueva Integral Box Set CD 23 of 27}
Paco de Lucia , Al Di Meola & John McLaughlin – The Guitar Trio (1996) {2010 Nueva Integral Box Set CD 24 of 27}
Paco de Lucia – Luzia (1998) {2010 Nueva Integral Box Set CD 25 of 27}

Paco de Lucia – Por Descubrir (2003) {2010 Nueva Integral Box Set CD 26 of 27}
Paco de Lucia – Cositas Buenas (2003) {2010 Nueva Integral Box Set CD 27 of 27}

== Camaron – La Leyenda Del Tiempo (1979) {2013 CD+DVD5 PAL 35th Anniversary Remastered Edition} ==

Paco de Lucia – En Vivo Conciertos Espana 2010 (2011) {2CD with DVD5 PAL – Universal Music Spain}

Paco de Lucia – Francisco Sanchez (2003) [2DVD5 PAL] {Universal Music Spain}

Paco de Lucia & John McLaughlin – Paco And John Live At Montreux 1987 (2016) {2CD+Bonus DVD9}

El Camaron de la Isla & Paco de Lucia – Al verte las flores lloran (1969) {2011 Nueva Integral Box Set CD 01of21}
El Camaron de la Isla & Paco de Lucia – Cada vez que nos miramos (1970) {2011 Nueva Integral Box Set CD 02of21}

===

El Camaron de la Isla & Paco de Lucia – Son tus Ojos dos Estrellas (1971) {2011 Nueva Integral Box Set CD 03of21} Download, Warez, DDL, Free, Full Album, Torrent, Legal.

Download