El Camaron de la Isla & Paco de Lucia – Al verte las flores lloran (1969) {2011 Nueva Integral Box Set CD 01of21}

Download
El Camaron de la Isla & Paco de Lucia - Al verte las flores lloran (1969) {2011 Nueva Integral Box Set CD 01of21}

El Camaron de la Isla & Paco de Lucia – Al verte las flores lloran (1969) {2011 Nueva Integral Box Set CD 01of21}
EAC rip (secure mode) | FLAC (tracks)+CUE+LOG -> 263 Mb | MP3 @320 -> 104 Mb
Full Artwork @ 600 dpi (jpg) -> 20 Mb | 5% repair rar
© 1969, 2011 Universal Music Spain | 0602498714720
Flamenco / World Music / Vocal / Guitar / Latin / Western European Traditions

A limited edition of the Camarуn de la Isla ‘Integral’ box-set. It represents a veritable journey through his life and singing. It includes 21 original albums. The first 17 of them were made in recording studios by Camarуn from 1969 to 1992 while he was alive. The classic album originally released in 1969 by the late, great Flamenco singer, one of ten he recorded in collaboration with guitarist Paco de Lucia. This is regarded as one of the diamond recordings in both of the artist’s respective discographies and is treasured by many a Flamenco music fan.

El Camaron de la Isla & Paco de Lucia - Al verte las flores lloran (1969) {2011 Nueva Integral Box Set CD 01of21}

The first reviewer’s overview of the entire output of Camarón de la Isla and Paco de Lucia is excellent and I have little to add. This early recording was when the artists were young (look at the photograph on the album!) and still rooted in the traditions. de Lucia’s radical jazzy and popular innovations would come later. Even so, these recordings were regarded at the time as evolutionary. They already were taking flamenco into modernity. The remastering makes the album sound newly minted. As for the performances, few would contest their greatness. This is powerful stuff. Brilliant guitar work, passionate vocals. It is any wonder why in all the traditional restaurants and flamenco clubs I visited in Andalusia there is a photograph or painting of Camarón in place of honor? It is a pity that the album is so short in duration. A double album or a multi-disc set would make better sense. Instead, we must set our player for "replay" so that we can listen further and deeper and enjoy some of the best flamenco you can find. It is brujo, magic.

El Camaron de la Isla & Paco de Lucia - Al verte las flores lloran (1969) {2011 Nueva Integral Box Set CD 01of21}

Contents of the Box Set:
CD 1: Al verte las flores lloran (1969)
CD 2: Cada vez que nos miramos (1970)
CD 3: Son tus ojos dos estrellas (1971)
CD 4: Canastera (1972)
CD 5: Caminito de Totana (1973)
CD 6: Soy caminante (1974)
CD 7: Arte y majestad (1975)
CD 8: Rosa María (1976)
CD 9: Castillo de arena (1977)
CD 10: La leyenda del tiempo (1979)
CD 11: Como el agua (1981)
CD 12: Calle Real (1983)
CD 13: Viviré (1984)
CD 14: Te lo dice Camarón (1986)
CD 15: Flamenco vivo (1987)
CD 16: Soy gitano (1989)
CD 17: Potro de rabia y miel (1992)
CD 18: París, 1987 (1987)
CD 19: Antología inédita (2000)
CD 20: En la Venta de Vargas (2004)
CD 21: Reencuentro (2008)

Personnel:
Camarón de la Isla: Singer
Paco de Lucía: Guitar
Ramon de Algeciras: Second guitar

tracklist:
01 – Al verte las flores lloran (Bulerias)
02 – Que un toro bravo en su muerte (Tientos)
03 – Si acaso muero (Seguiriyas)
04 – En una piedra me acoste (Fandangos)
05 – Anda y no presumas mas (Bulerias Por Solea)
06 – Camina y dime (Tarantos)
07 – Detras del tuyo se va (Tangos)
08 – Y tu no me respondias (Soleares)
09 – Llorando me lo pedia (Fandangos de Huelva)
10 – Una estrella chiquitita (Bulerias)
11 – Con la varita en la mano (Fandangos)
12 – Barrio de Santa Maria (Alegrias)

EAC log
Exact Audio Copy V1.0 beta 3 from 29. August 2011

EAC extraction logfile from 18. February 2012, 20:02

Camaron De La Isla / Al verte las Flores Llloran

Used drive : HL-DT-STDVDRAM GH22NS50 Adapter: 0 ID: 0

Read mode : Secure
Utilize accurate stream : Yes
Defeat audio cache : Yes
Make use of C2 pointers : No

Read offset correction : 667
Overread into Lead-In and Lead-Out : No
Fill up missing offset samples with silence : Yes
Delete leading and trailing silent blocks : No
Null samples used in CRC calculations : Yes
Used interface : Installed external ASPI interface
Gap handling : Appended to previous track

Used output format : User Defined Encoder
Selected bitrate : 1024 kBit/s
Quality : High
Add ID3 tag : No
Command line compressor : C:Program FilesExact Audio CopyFlacflac.exe
Additional command line options : -8 -V -T "ARTIST=%artist%" -T "TITLE=%title%" -T "ALBUM=%albumtitle%" -T "DATE=%year%" -T "TRACKNUMBER=%tracknr%" -T "TOTALTRACKS=%numtracks%" -T "GENRE=%genre%" -T "ALBUMARTIST=%albumartist%" -T "ALBUM ARTIST=%albumartist%" -T "COMMENT=EAC Secure Mode, Test & Copy, AccurateRip, FLAC -8" %source%

TOC of the extracted CD

Track | Start | Length | Start sector | End sector
––––––––––––––––––––––––––––-
1 | 0:00.00 | 2:43.31 | 0 | 12255
2 | 2:43.31 | 3:49.25 | 12256 | 29455
3 | 6:32.56 | 4:10.39 | 29456 | 48244
4 | 10:43.20 | 3:29.68 | 48245 | 63987
5 | 14:13.13 | 3:32.04 | 63988 | 79891
6 | 17:45.17 | 4:55.14 | 79892 | 102030
7 | 22:40.31 | 4:23.16 | 102031 | 121771
8 | 27:03.47 | 4:00.52 | 121772 | 139823
9 | 31:04.24 | 2:58.42 | 139824 | 153215
10 | 34:02.66 | 4:20.33 | 153216 | 172748
11 | 38:23.24 | 3:32.49 | 172749 | 188697
12 | 41:55.73 | 2:33.68 | 188698 | 200240

Track 1

Filename C:UsersuserDocumentsEl Camaron de la Isla & Paco de Lucia – Al verte las flores lloran (1969) [FLAC] {New Integral Cd 1 of 21}1 – Al verte las flores lloran (Bulerias).wav

Pre-gap length 0:00:02.00

Peak level 99.8 %
Extraction speed 1.0 X
Track quality 100.0 %
Test CRC DDE6CA39
Copy CRC DDE6CA39
Cannot be verified as accurate (confidence 4) [4865343E], AccurateRip returned [5F6BF56E] (AR v2)
Copy OK

Track 2

Filename C:UsersuserDocumentsEl Camaron de la Isla & Paco de Lucia – Al verte las flores lloran (1969) [FLAC] {New Integral Cd 1 of 21}2 – Que un toro bravo en su muerte (Tientos).wav

Pre-gap length 0:00:01.32

Peak level 99.8 %
Extraction speed 1.1 X
Track quality 100.0 %
Test CRC 5AAFDDAF
Copy CRC 5AAFDDAF
Cannot be verified as accurate (confidence 4) [BB7B53C0], AccurateRip returned [BB615A45] (AR v2)
Copy OK

Track 3

Filename C:UsersuserDocumentsEl Camaron de la Isla & Paco de Lucia – Al verte las flores lloran (1969) [FLAC] {New Integral Cd 1 of 21}3 – Si acaso muero (Seguiriyas).wav

Pre-gap length 0:00:01.48

Peak level 99.8 %
Extraction speed 1.2 X
Track quality 100.0 %
Test CRC 2705C6D6
Copy CRC 2705C6D6
Cannot be verified as accurate (confidence 4) [65C98FBB], AccurateRip returned [182F3C6B] (AR v2)
Copy OK

Track 4

Filename C:UsersuserDocumentsEl Camaron de la Isla & Paco de Lucia – Al verte las flores lloran (1969) [FLAC] {New Integral Cd 1 of 21}4 – En una piedra me acoste (Fandangos).wav

Pre-gap length 0:00:02.13

Peak level 99.8 %
Extraction speed 1.3 X
Track quality 100.0 %
Test CRC 54CC9C0C
Copy CRC 54CC9C0C
Cannot be verified as accurate (confidence 4) [B70DF7C1], AccurateRip returned [0BC09EB6] (AR v2)
Copy OK

Track 5

Filename C:UsersuserDocumentsEl Camaron de la Isla & Paco de Lucia – Al verte las flores lloran (1969) [FLAC] {New Integral Cd 1 of 21}5 – Anda y no presumas mas (Bulerias Por Solea).wav

Pre-gap length 0:00:00.71

Peak level 99.8 %
Extraction speed 1.4 X
Track quality 100.0 %
Test CRC A0C25CC7
Copy CRC A0C25CC7
Cannot be verified as accurate (confidence 4) [EEA6C6F3], AccurateRip returned [604AE8EB] (AR v2)
Copy OK

Track 6

Filename C:UsersuserDocumentsEl Camaron de la Isla & Paco de Lucia – Al verte las flores lloran (1969) [FLAC] {New Integral Cd 1 of 21}6 – Camina y dime (Tarantos).wav

Pre-gap length 0:00:01.69

Peak level 99.8 %
Extraction speed 1.6 X
Track quality 100.0 %
Test CRC C2CE635C
Copy CRC C2CE635C
Cannot be verified as accurate (confidence 4) [3A7C640B], AccurateRip returned [62BAAE9B] (AR v2)
Copy OK

Track 7

Filename C:UsersuserDocumentsEl Camaron de la Isla & Paco de Lucia – Al verte las flores lloran (1969) [FLAC] {New Integral Cd 1 of 21}7 – Detras del tuyo se va (Tangos).wav

Pre-gap length 0:00:02.23

Peak level 99.8 %
Extraction speed 1.6 X
Track quality 100.0 %
Test CRC D92536E9
Copy CRC D92536E9
Cannot be verified as accurate (confidence 4) [8FADEF65], AccurateRip returned [A30D9729] (AR v2)
Copy OK

Track 8

Filename C:UsersuserDocumentsEl Camaron de la Isla & Paco de Lucia – Al verte las flores lloran (1969) [FLAC] {New Integral Cd 1 of 21}8 – Y tu no me respondias (Soleares).wav

Pre-gap length 0:00:02.33

Peak level 99.8 %
Extraction speed 1.5 X
Track quality 99.9 %
Test CRC 500A9ADB
Copy CRC 500A9ADB
Cannot be verified as accurate (confidence 4) [B3ADBC39], AccurateRip returned [70E8F9D0] (AR v2)
Copy OK

Track 9

Filename C:UsersuserDocumentsEl Camaron de la Isla & Paco de Lucia – Al verte las flores lloran (1969) [FLAC] {New Integral Cd 1 of 21}9 – Llorando me lo pedia (Fandangos de Huelva).wav

Pre-gap length 0:00:02.08

Peak level 99.8 %
Extraction speed 1.7 X
Track quality 100.0 %
Test CRC 320202B7
Copy CRC 320202B7
Cannot be verified as accurate (confidence 4) [96477F7B], AccurateRip returned [01D6A535] (AR v2)
Copy OK

Track 10

Filename C:UsersuserDocumentsEl Camaron de la Isla & Paco de Lucia – Al verte las flores lloran (1969) [FLAC] {New Integral Cd 1 of 21}10 – Una estrella chiquitita (Bulerias).wav

Pre-gap length 0:00:02.05

Peak level 99.8 %
Extraction speed 1.9 X
Track quality 100.0 %
Test CRC E82514B1
Copy CRC E82514B1
Cannot be verified as accurate (confidence 4) [83387DBA], AccurateRip returned [4F5CDAC2] (AR v2)
Copy OK

Track 11

Filename C:UsersuserDocumentsEl Camaron de la Isla & Paco de Lucia – Al verte las flores lloran (1969) [FLAC] {New Integral Cd 1 of 21}11 – Con la varita en la mano (Fandangos).wav

Pre-gap length 0:00:01.34

Peak level 99.8 %
Extraction speed 1.9 X
Track quality 100.0 %
Test CRC CB9C321F
Copy CRC CB9C321F
Cannot be verified as accurate (confidence 4) [EF78C5FC], AccurateRip returned [EAD6E91D] (AR v2)
Copy OK

Track 12

Filename C:UsersuserDocumentsEl Camaron de la Isla & Paco de Lucia – Al verte las flores lloran (1969) [FLAC] {New Integral Cd 1 of 21}12 – Barrio de Santa Maria (Alegrias).wav

Pre-gap length 0:00:01.07

Peak level 99.8 %
Extraction speed 1.8 X
Track quality 100.0 %
Test CRC A2B274C0
Copy CRC A2B274C0
Cannot be verified as accurate (confidence 4) [F2AB60E2], AccurateRip returned [9939DE45] (AR v2)
Copy OK

No tracks could be verified as accurate
You may have a different pressing from the one(s) in the database

No errors occurred

End of status report

==== Log checksum B5CB0BCB88FAD1184E3D271FB73B45AAC0C14985FF3C677B5B77F46678F2B3CA ====

El Camaron de la Isla & Paco de Lucia - Al verte las flores lloran (1969) {2011 Nueva Integral Box Set CD 01of21}

El Camaron de la Isla & Paco de Lucia - Al verte las flores lloran (1969) {2011 Nueva Integral Box Set CD 01of21}

All thanks goes to the original releaser!

NEXT -> El Camaron de la Isla & Paco de Lucia – Cada vez que nos miramos (1970) {2011 Nueva Integral Box Set CD 02of21}

See Also:
Paco de Lucia & Ricardo Modrego – Dos Guitarras Flamencas en Stereo (1965) {2010 Nueva Integral Box Set CD 01of27}
Paco de Lucia & Ricardo Modrego – 12 Canciones de Garcia Lorca para Guitarra (1965) {2010 Nueva Integral Box Set CD 02of27}
Paco de Lucia & Ricardo Modrego – 12 Exitos para 2 Guitarras Flamencas (1965) {2010 Nueva Integral Box Set CD 03of27}
Paco de Lucia – La Fabulosa Guitarra de Paco de Lucia (1967) {2010 Nueva Integral Box Set CD 04of27}
Paco de Lucia & Ramon de Algeciras – Canciones Andaluzas para 2 Guitarras (1967) {2010 Nueva Integral Box Set CD 05of27}

Paco de Lucia & Ramon de Algeciras – Dos Guitarras Flamencas en America Latina (1967) {2010 Nueva Integral Box Set CD 06of27}
Paco de Lucia – Fantasia Flamenca de Paco de Lucia (1969) {2010 Nueva Integral Box Set CD 07of27}
Paco de Lucia & Ramon de Algeciras – 12 hits para 2 guitarras flamencas y orquesta de cuerda (1969) {2010 Nueva Integral Box Set CD 08of27}
Paco de Lucia & Ramon de Algeciras – En Hispanoamerica (1969) {2010 Nueva Integral Box Set CD 09of27}
Paco de Lucia – El mundo del Flamenco (1971) {2010 Nueva Integral Box Set CD 10of27}

Paco de Lucia – Recital de Guitarra de Paco de Lucia (1971) {2010 Nueva Integral Box Set CD 11of27}
Paco de Lucia – El Duende Flamenco de Paco de Lucia (1972) {2010 Nueva Integral Box Set CD 12of27}
Paco de Lucia – Fuente y Caudal (1973) {2010 Nueva Integral Box Set CD 13of27}
Paco de Lucia – En vivo desde el Teatro Real (1975) {2010 Nueva Integral Box Set CD 14 of 27}
Paco de Lucia – Almoraima (1976) {2010 Nueva Integral Box Set CD 15 of 27}

Paco de Lucia – Interpreta a Manuel de Falla (1978) {2010 Nueva Integral Box Set CD 16 of 27}
Paco de Lucia – Castro Marin (1981) {2010 Nueva Integral Box Set CD 17 of 27}
Paco de Lucia – Solo Quiero Caminar (1981) {2010 Nueva Integral Box Set CD 18 of 27}
Paco de Lucia & Sextet – Live… One Summer Night (1984) {2010 Nueva Integral Box Set CD 19 of 27}
Paco de Lucia – Siroco (1987) {2010 Nueva Integral Box Set CD 20 of 27}

Paco de Lucia – Zyryab (1990) {2010 Nueva Integral Box Set CD 21 of 27}
Paco de Lucia – Concierto de Aranjuez & Iberia (1991) {2010 Nueva Integral Box Set CD 22 of 27}
Paco de Lucia & Sextet – Live in America (1993) {2010 Nueva Integral Box Set CD 23 of 27}
Paco de Lucia , Al Di Meola & John McLaughlin – The Guitar Trio (1996) {2010 Nueva Integral Box Set CD 24 of 27}
Paco de Lucia – Luzia (1998) {2010 Nueva Integral Box Set CD 25 of 27}

Paco de Lucia – Por Descubrir (2003) {2010 Nueva Integral Box Set CD 26 of 27}
Paco de Lucia – Cositas Buenas (2003) {2010 Nueva Integral Box Set CD 27 of 27}

== Camaron – La Leyenda Del Tiempo (1979) {2013 CD+DVD5 PAL 35th Anniversary Remastered Edition} ==

Paco de Lucia – En Vivo Conciertos Espana 2010 (2011) {2CD with DVD5 PAL – Universal Music Spain}

Paco de Lucia – Francisco Sanchez (2003) [2DVD5 PAL] {Universal Music Spain}

Paco de Lucia & John McLaughlin – Paco And John Live At Montreux 1987 (2016) {2CD+Bonus DVD9}

===

El Camaron de la Isla & Paco de Lucia – Al verte las flores lloran (1969) {2011 Nueva Integral Box Set CD 01of21} Download, Warez, DDL, Free, Full Album, Torrent, Legal.

Download