Eivind Aarset – I.E. (2015)

Download
Eivind Aarset - I.E. (2015)

Eivind Aarset – I.E. (2015)
EAC Rip | FLAC (tracks+.cue, log) ~ 386.51 Mb | 71:34 | Scans included
Fusion, Experimental | Country: Norway | Label: Jazzland Recordings (0602547307248)

Eivind Aarset is a musician who has succeeded in the difficult task of creating an immediately identifiable sound and marrying it to a will to investigate as many musical possibilities as he can find or imagine. I.E. is his latest and arguably most accomplished album embodying these traits.

The nine tracks that comprise the album are often diptychs or triptychs, structured with clear movements, shifting in tone, colour and mood. Some are divided and set as way markers. And none of this is new to Aarset, yet never has it been so clearly defined.

Aarset’s soundworld has always been one that could be mapped by those willing to explore it (and there are many who have, with a near-obsessive enthusiasm). Where "Dream Logic" was something of an unexpected side-step out of the kind of sound Aarset fans had grown accustomed to, this album is equally so, yet – as usual – feels organically connected to everything he has done.

All the nuances, textures, gestures and signs that appeared on the aforementioned "Dream Logic" remain intact here, but now nestle amid beds of the "traditional" Aarset band sound. This fusion creates a completely new set of surprises, not only in terms of their juxtaposition, but also in terms of their sheer audacity. The result is an album that features a greater variety of sonics than any Aarset has so far released and a greater will to explore his self-creating world even further than before.

The album’s recording methods and locations have been varied in numerous ways, but the majority of the album was recorded live in the studio with the basic quartet (Aarset / Erlien / Holt / Dahlen), then receiving additional overdubs (mainly from Aarset and the brass section, this latter having its arrangements created after the initial recordings). The effect upon the sound is energising, allowing a rawness to remain untouched. This decision was one that was not made based upon some whimsical fleeting notion, but rather was a well-informed choice: the groups’ performances have steadily evolved a cohesiveness that can only come from extremely compatible musicians developing a full understanding and empathy with each other’s playing. Aarset’s Sonic Codex Quartet have ably demonstrated over and over again that they are capable of producing music that sounds equal in scale to a big band. Yet, because they are only a quartet, they are equally capable of branching the music in entirely new directions in a truly fearless and experimental manner. The addition of I.E. to their repertoire options should open entirely new ground for them to explore, giving new fans something to shout about and presenting old fans with a brand new experience they won’t want to miss.

Aarset’s Sonic Codex Orchestra is an organism capable of transformation, camouflage, symbiosis, and adaptation within any musical environment. It is truly multifaceted, and whether careering along a riff like an open-throttle diesel engine or gliding along gentle air currents through an ambient sky, the personality of every musician finds a place to make its mark. Of particular note are Audun Erlien’s keyboard work (something for which he rarely receives enough credit, overshadowed as it is by his marvellous double-jointed grooving bass work), Wetle Holt, and Erland Dahlen’s menagerie of struck instruments, particularly the dulcimers and glockenspiels that create many highlight moments here. The appearance of the full brass section, the sampling genius of Jan Bang, and the vocal stylings, hyper-elastic acrobatics and pyrotechnics of Lorenzo Esposito Fornasari, also enrich the sound deeply, creating an utterly new dimension for Aarset’s sound.

Aarset’s guitar remains the dominant force throughout, but never overpowers the music as a whole. His endless skill in finding the right notes to play, whether in a sparse ambient environment or a chaotic crescendo of polyphonic revelry, is a marvel to behold. I.E. marks yet another move upward in Aarset’s ascent towards the summit of his powers: long may he climb!

Track List:
1. Rask. 5:51
2. Sakte. 7:48
3. Hidden / Feral. 9:35
4. One and the Same. 8:48
5. Wanderlust. 12:32
i: The City Awake
ii: Overgrown
iii: View from Above
6. They’ll be Asked Nothing. 8:43
7. One and the Same Again. 3:00
8. Through clogged Streets, Passed Rotten Buildings. 12:17
9. Return to Her Home. 3:00

Eivind Aarset - I.E. (2015)

EAC log
Exact Audio Copy V1.0 beta 3 from 29. August 2011

EAC extraction logfile from 21. December 2015, 22:17

Eivind Aarset / I.E.

Used drive : ATAPI iHAS124 E Adapter: 0 ID: 0

Read mode : Secure
Utilize accurate stream : Yes
Defeat audio cache : Yes
Make use of C2 pointers : No

Read offset correction : 6
Overread into Lead-In and Lead-Out : No
Fill up missing offset samples with silence : Yes
Delete leading and trailing silent blocks : No
Null samples used in CRC calculations : Yes
Used interface : Native Win32 interface for Win NT & 2000
Gap handling : Appended to previous track

Used output format : Internal WAV Routines
Sample format : 44.100 Hz; 16 Bit; Stereo

TOC of the extracted CD

Track | Start | Length | Start sector | End sector
––––––––––––––––––––––––––––-
1 | 0:00.00 | 5:51.05 | 0 | 26329
2 | 5:51.05 | 7:48.37 | 26330 | 61466
3 | 13:39.42 | 9:35.09 | 61467 | 104600
4 | 23:14.51 | 8:47.50 | 104601 | 144175
5 | 32:02.26 | 12:32.27 | 144176 | 200602
6 | 44:34.53 | 8:42.44 | 200603 | 239796
7 | 53:17.22 | 2:59.65 | 239797 | 253286
8 | 56:17.12 | 12:17.14 | 253287 | 308575
9 | 68:34.26 | 2:59.54 | 308576 | 322054

Track 1

Filename C:_EAC1. Rask.wav

Pre-gap length 0:00:02.00

Peak level 75.7 %
Extraction speed 1.2 X
Track quality 100.0 %
Test CRC CE285F73
Copy CRC CE285F73
Accurately ripped (confidence 5) [F1333263] (AR v2)
Copy OK

Track 2

Filename C:_EAC2. Sakte.wav

Peak level 92.8 %
Extraction speed 1.4 X
Track quality 100.0 %
Test CRC 7F6ED6C4
Copy CRC 7F6ED6C4
Accurately ripped (confidence 5) [62099700] (AR v2)
Copy OK

Track 3

Filename C:_EAC3. Hidden_Feral.wav

Peak level 95.7 %
Extraction speed 1.6 X
Track quality 100.0 %
Test CRC 77E92349
Copy CRC 77E92349
Accurately ripped (confidence 5) [7F25C902] (AR v2)
Copy OK

Track 4

Filename C:_EAC4. One and the Same.wav

Peak level 96.6 %
Extraction speed 1.8 X
Track quality 100.0 %
Test CRC AAE76647
Copy CRC AAE76647
Accurately ripped (confidence 5) [4023B521] (AR v2)
Copy OK

Track 5

Filename C:_EAC5. Wanderlust.wav

Peak level 98.9 %
Extraction speed 2.1 X
Track quality 100.0 %
Test CRC 076BF3AC
Copy CRC 076BF3AC
Accurately ripped (confidence 5) [3D108006] (AR v2)
Copy OK

Track 6

Filename C:_EAC6. They’ll be asked nothing.wav

Peak level 95.9 %
Extraction speed 2.1 X
Track quality 99.9 %
Test CRC F4C89737
Copy CRC F4C89737
Accurately ripped (confidence 5) [5265DF6A] (AR v2)
Copy OK

Track 7

Filename C:_EAC7. One and the Same Again.wav

Peak level 26.7 %
Extraction speed 2.1 X
Track quality 100.0 %
Test CRC B174A344
Copy CRC B174A344
Accurately ripped (confidence 5) [96FBF3E5] (AR v2)
Copy OK

Track 8

Filename C:_EAC8. Through clogged streets, passed rotten, buldings….wav

Peak level 98.4 %
Extraction speed 2.5 X
Track quality 100.0 %
Test CRC D533A429
Copy CRC D533A429
Accurately ripped (confidence 5) [4859A697] (AR v2)
Copy OK

Track 9

Filename C:_EAC9. Return to Her Home.wav

Peak level 25.0 %
Extraction speed 2.3 X
Track quality 100.0 %
Test CRC 6822F5D3
Copy CRC 6822F5D3
Accurately ripped (confidence 5) [5F105F36] (AR v2)
Copy OK

All tracks accurately ripped

No errors occurred

End of status report

==== Log checksum 603C29B4CDF93569D3E5FC9D3BAAA41A22122A8C67DF7360965245253C914E3E ====

All thanks go to the vp_sunset

More Music in My Blog
Follow My RSS Channel

Eivind Aarset – I.E. (2015) Download, Warez, DDL, Free, Full Album, Torrent, Legal.

Download