Edith – Dreams (1993)

Download
Edith - Dreams (1993)

Edith – Dreams (1993)
EAC Rip | FLAC (Img) + Cue + Log ~ 364 Mb | MP3 CBR320 ~ 161 Mb
Scans Included (JPG, 300 dpi) | RAR 5% Recovery
Neo Progressive Rock | Mellow Records #MMP 183

"dreams" is a very stylish and accessible album of elegant jazzy pop neo-prog music with just a tad of punchy attitude. It sometimes seems too conventional to be a part of a progressive music collection but the more you listen the less you will care. It’s very pleasant ear candy combining the catchiness of The Police with the sound of Joni Mitchell’s instrumentations during her late 70s and 80s jazzy period. The players are very talented but for the most part everyone is committed to the overall sound rather than flashy solos.

Edith - Dreams (1993)

Mellow Records seems to be a focal point for Italian Neo bands of the ’90s. This is especially true if they are of the obscure nature. EDITH is a prime example of this. They may not be completely unknown, but concerning the band itself, there isn’t much information to be found.

Drummer Biagio Bisignani, singer Mario Gulisano, guitarist Antonio Moschetto, and bass player Giovanni Scaccianoce got together, and recorded "…A Space Between Ever and Never…" with help on keyboards from Salvo Fiorentino, in 1989. The debut was a rough start. It fell into the Neo realm, but was very reliant on AOR. At this point, they hadn’t truly found their sound. The second album, 1991’s "Ice," saw a vast improvement. The band was now also comfortable in its Neo-prog shoes.

By 1993, there were shakeups in the band. Franco Baressi replaced Biagio Bisignani on drums, and keyboard player Tony Brundo was added. The third album, "Dreams," became their most solid effort, and was released by Mellow Records. Giovanni Scaccianoce also used this opportunity to utilize a Chapman Stick. Aside from a 1995 live release, "Dreams" was the band’s last effort.

As I said before, there is not much information out there concerning EDITH. However, Mario Gulisano has been quite active. Since EDITH, he has worked in the ambient bands Blue and Atmo, a folk band called Sarabanda, and is currently involved in an ethno-world project called Nirmegh. He is also the founder and manager of Darshan, a non-profit organization that produces music festivals in Sicily. Gulisano is much inspired by his Sicilian roots, and says that has always been part of his music.

H.T. Riekels (bhikkhu)

Prog Archives | Discogs

***************

Edith - Dreams (1993)

Edith - Dreams (1993)

Track List:

01. Balance of Love [5:54]
02. In the Darkness [4:39]
03. Silent Whispers [5:27]
04. I Dream of You [7:18]
05. The World Can’t See the Stars [2:47]
06. Africa [5:15]
07. Endless Times [5:57]
08. Friends [4:23]
09. Out [5:17]
10. Dreamland [6:09]

Personnel:
Franco Barresi – acoustic & electronic drums, backing vocals
Tony Brundo – piano, synthesizers, programming, backing vocals
Mario Gulisano – vocals, guitars
Antonio Moschetto – guitars
Giovanni Scaccianoce – 5-string bass, Chapman Stick

EAC Log
Exact Audio Copy V1.3 from 2. September 2016

EAC extraction logfile from 29. November 2016, 0:56

Edith / Dreams

Used drive : TEAC CD-W516EB Adapter: 1 ID: 1

Read mode : Secure
Utilize accurate stream : Yes
Defeat audio cache : Yes
Make use of C2 pointers : No

Read offset correction : 685
Overread into Lead-In and Lead-Out : No
Fill up missing offset samples with silence : Yes
Delete leading and trailing silent blocks : No
Null samples used in CRC calculations : Yes
Used interface : Native Win32 interface for Win NT & 2000

Used output format : User Defined Encoder
Selected bitrate : 1024 kBit/s
Quality : High
Add ID3 tag : Yes
Command line compressor : C:Program Files (x86)FLAC_1.3.1win64flac.exe
Additional command line options : -6 -V -T "ARTIST=%artist%" -T "TITLE=%title%" -T "ALBUM=%albumtitle%" -T "DATE=%year%" -T "TRACKNUMBER=%tracknr%" -T "GENRE=%genre%" -T "COMMENT=ripped by wurensh for rutracker.org" %source% -o %dest%

TOC of the extracted CD

Track | Start | Length | Start sector | End sector
––––––––––––––––––––––––––––-
1 | 0:00.00 | 5:54.30 | 0 | 26579
2 | 5:54.30 | 4:38.70 | 26580 | 47499
3 | 10:33.25 | 5:26.60 | 47500 | 72009
4 | 16:00.10 | 7:18.10 | 72010 | 104869
5 | 23:18.20 | 2:46.67 | 104870 | 117386
6 | 26:05.12 | 5:14.48 | 117387 | 140984
7 | 31:19.60 | 5:57.35 | 140985 | 167794
8 | 37:17.20 | 4:23.25 | 167795 | 187544
9 | 41:40.45 | 5:16.70 | 187545 | 211314
10 | 46:57.40 | 6:08.60 | 211315 | 238974

Range status and errors

Selected range

Filename Y:EACwurenshEdithEdith – Dreams.wav

Peak level 100.0 %
Extraction speed 6.7 X
Range quality 100.0 %
Test CRC 1A3B2781
Copy CRC 1A3B2781
Copy OK

No errors occurred

AccurateRip summary

Track 1 not present in database
Track 2 not present in database
Track 3 not present in database
Track 4 not present in database
Track 5 not present in database
Track 6 not present in database
Track 7 not present in database
Track 8 not present in database
Track 9 not present in database
Track 10 not present in database

None of the tracks are present in the AccurateRip database

End of status report

–– CUETools DB Plugin V2.1.6

[CTDB TOCID: O64HLV2xv9v_OaVgMuOdU3Nao9Y-] found
Submit result: O64HLV2xv9v_OaVgMuOdU3Nao9Y- has been confirmed
Track | CTDB Status
1 | (2/2) Accurately ripped
2 | (2/2) Accurately ripped
3 | (2/2) Accurately ripped
4 | (2/2) Accurately ripped
5 | (2/2) Accurately ripped
6 | (2/2) Accurately ripped
7 | (2/2) Accurately ripped
8 | (2/2) Accurately ripped
9 | (2/2) Accurately ripped
10 | (2/2) Accurately ripped

==== Log checksum 4FB9F90F2E9899F21F6FC0073E70270C77B3CF656781DECE488550CD801B0722 ====

DR Log
foobar2000 1.2.6 / Dynamic Range Meter 1.1.1
log date: 2017-07-09 11:59:21

––––––––––––––––––––––––––––––––––––––––
Analyzed: Edith / Dreams
––––––––––––––––––––––––––––––––––––––––

DR Peak RMS Duration Track
––––––––––––––––––––––––––––––––––––––––
DR15 0.00 dB -18.01 dB 5:54 01-Balance of Love
DR14 0.00 dB -17.23 dB 4:39 02-In the Darkness
DR14 0.00 dB -17.37 dB 5:27 03-Silent Whispers
DR12 0.00 dB -14.88 dB 7:18 04-I Dream of You
DR14 0.00 dB -17.54 dB 2:47 05-The World Can’t See the Stars
DR15 0.00 dB -17.12 dB 5:15 06-Africa
DR15 0.00 dB -17.70 dB 5:57 07-Endless Times
DR15 0.00 dB -18.33 dB 4:23 08-Friends
DR16 0.00 dB -18.32 dB 5:17 09-Out
DR13 -0.61 dB -17.26 dB 6:09 10-Dreamland
––––––––––––––––––––––––––––––––––––––––

Number of tracks: 10
Official DR value: DR14

Samplerate: 44100 Hz
Channels: 2
Bits per sample: 16
Bitrate: 826 kbps
Codec: FLAC
================================================================================

CUETools Log
[CUETools log; Date: 09.07.2017 11:59:30; Version: 2.1.5]
[CTDB TOCID: O64HLV2xv9v_OaVgMuOdU3Nao9Y-] found.
Track | CTDB Status
1 | (4/4) Accurately ripped
2 | (4/4) Accurately ripped
3 | (4/4) Accurately ripped
4 | (4/4) Accurately ripped
5 | (4/4) Accurately ripped
6 | (4/4) Accurately ripped
7 | (4/4) Accurately ripped
8 | (4/4) Accurately ripped
9 | (4/4) Accurately ripped
10 | (4/4) Accurately ripped
[AccurateRip ID: 00141092-009fc7f0-860c720a] found.
Track [ CRC | V2 ] Status
01 [017b7862|a73f2abb] (0+1/1) Accurately ripped
02 [c825f157|40078333] (0+1/1) Accurately ripped
03 [e1266ba4|f4691ad3] (0+1/1) Accurately ripped
04 [f553f8c4|608a3d51] (0+1/1) Accurately ripped
05 [29d5f643|6bc0f5df] (0+1/1) Accurately ripped
06 [a0c9ac4d|db458848] (0+1/1) Accurately ripped
07 [528bfc73|c00bda14] (0+1/1) Accurately ripped
08 [cf2afda8|501c353f] (0+1/1) Accurately ripped
09 [5aa87fbe|1e46c952] (0+1/1) Accurately ripped
10 [5820dad8|550c9af4] (0+1/1) Accurately ripped

Track Peak [ CRC32 ] [W/O NULL] [ LOG ]
– 100,0 [1A3B2781] [2740D703] CRC32
01 100,0 [998DE6B6] [7542D407]
02 100,0 [CA272349] [28E2AB2A]
03 100,0 [A68238D7] [B44C1A56]
04 100,0 [95383DA9] [ED52FAD5]
05 100,0 [4876DF6B] [A86B7AB0]
06 100,0 [30812A97] [CF8AFF02]
07 100,0 [92BA2B51] [1B56B658]
08 100,0 [2FF455B8] [130B6D99]
09 100,0 [F8E166EE] [FE774585]
10 93,2 [2F464005] [97217B38]

Edith - Dreams (1993)

All thanks go to wurensh & hyperborea70

>>> My Blog <<<

Download from icerbox.com:

Edith – Dreams (1993) Download, Warez, DDL, Free, Full Album, Torrent, Legal.

Download