Eddie Jobson – Theme Of Secrets (1985)

Download
Eddie Jobson - Theme Of Secrets (1985)

Eddie Jobson – Theme Of Secrets (1985)
EAC Rip | APE (image+.cue+log) – 171 MB | MP3 CBR 320 kbps (LAME 3.93) – 96 MB | Covers – 24 MB
Genre: Progressive Electronic | RAR 3% Rec. | Label: Private Music (1501)

Edwin "Eddie" Jobson is an English keyboardist and violinist noted for his use of synthesizers. He has been a member of several progressive rock bands, including Curved Air, Roxy Music, UK, Jethro Tull and (very briefly) Yes. "Theme of Secrets" is his second solo album. "Theme of Secrets" contains very dreamy electronic tracks, showing evidence of progressive elements, although there are no drums, no guitars, no violins and no bass: actually this record could be a reference when it is time to define what is progressive New Age. He uses state-of-the-art technology for the year, on the occurrence the synclavier: it gives multi-layered, mystic, mysterious, melancholic and nostalgic tracks, with just a small amount of never frightening darkness. Jobson creates here atmospheric & ethereal textures through symphonic and melodic sequenced patterns.

Progarchives

Tracklist:
01. Inner Secrets
02. Spheres Of Influence
03. The Sojourn
04. Ice Festival
05. Theme Of Secrets
06. Memories Of Vienna
07. Lakemist
08. Outer Secrets

Total time: 41:06

EAC log
Exact Audio Copy V0.99 prebeta 4 from 23. January 2008

EAC extraction logfile from 12. October 2009, 18:05

Eddie Jobson / Theme Of Secrets

Used drive : Optiarc DVD RW AD-7630A Adapter: 1 ID: 0

Read mode : Secure
Utilize accurate stream : Yes
Defeat audio cache : Yes
Make use of C2 pointers : No

Read offset correction : 48
Overread into Lead-In and Lead-Out : No
Fill up missing offset samples with silence : Yes
Delete leading and trailing silent blocks : No
Null samples used in CRC calculations : Yes
Used interface : Installed external ASPI interface

Used output format : Monkey’s Audio Lossless Encoder
Selected bitrate : High Lossless Compression
Quality : High
Add ID3 tag : Yes
Command line compressor : C:Program FilesMonkey’s AudioMonkey’s Audio.exe

TOC of the extracted CD

Track | Start | Length | Start sector | End sector
––––––––––––––––––––––––––––-
1 | 0:00.00 | 3:50.40 | 0 | 17289
2 | 3:50.40 | 3:00.62 | 17290 | 30851
3 | 6:51.27 | 6:35.28 | 30852 | 60504
4 | 13:26.55 | 5:33.67 | 60505 | 85546
5 | 19:00.47 | 5:28.33 | 85547 | 110179
6 | 24:29.05 | 4:59.70 | 110180 | 132674
7 | 29:29.00 | 6:02.17 | 132675 | 159841
8 | 35:31.17 | 5:34.50 | 159842 | 184941

Range status and errors

Selected range

Filename \.PSFHomeDesktop RIPEddie Jobson – Theme Of SecretsEddie Jobson – Theme Of Secrets.wav

Peak level 100.0 %
Range quality 99.9 %
Test CRC 3B491902
Copy CRC 3B491902
Copy OK

No errors occurred

AccurateRip summary

Track 1 accurately ripped (confidence 3) [96349A80]
Track 2 accurately ripped (confidence 3) [E742F5E9]
Track 3 accurately ripped (confidence 3) [DBA77C8A]
Track 4 accurately ripped (confidence 3) [B114627A]
Track 5 accurately ripped (confidence 3) [BE7F1F4B]
Track 6 accurately ripped (confidence 3) [34EA45DC]
Track 7 accurately ripped (confidence 3) [7B0D30BF]
Track 8 accurately ripped (confidence 3) [97ABC13D]

All tracks accurately ripped

End of status report

CUETools log
[CUETools log; Date: 31.12.2016 15:30:50; Version: 2.1.4]
[CTDB TOCID: 7.kpS_ITp3E0Cb4_ECQEsGV7CUk-] found.
Track | CTDB Status
1 | (37/37) Accurately ripped
2 | (37/37) Accurately ripped
3 | (37/37) Accurately ripped
4 | (37/37) Accurately ripped
5 | (37/37) Accurately ripped
6 | (37/37) Accurately ripped
7 | (37/37) Accurately ripped
8 | (37/37) Accurately ripped
[AccurateRip ID: 000bee09-005153f7-4f09a108] found.
Track [ CRC | V2 ] Status
01 [96349a80|da3a8044] (06+04/60) Accurately ripped
02 [e742f5e9|8064aa11] (06+04/60) Accurately ripped
03 [dba77c8a|7ebef49d] (06+04/60) Accurately ripped
04 [b114627a|4fffaed2] (06+04/60) Accurately ripped
05 [be7f1f4b|c45f7235] (06+04/60) Accurately ripped
06 [34ea45dc|ae6506cd] (06+03/59) Accurately ripped
07 [7b0d30bf|d55860f1] (06+04/60) Accurately ripped
08 [97abc13d|f206599c] (06+04/59) Accurately ripped
Offsetted by -535:
01 [f4abe3e9] (18/60) Accurately ripped
02 [8490de02] (18/60) Accurately ripped
03 [7b5a5638] (18/60) Accurately ripped
04 [6c8d96d5] (18/60) Accurately ripped
05 [9d5a5b48] (18/60) Accurately ripped
06 [458dbda2] (18/59) Accurately ripped
07 [b5ed039f] (18/60) Accurately ripped
08 [8f05a5fc] (17/59) Accurately ripped
Offsetted by -532:
01 [055fab98] (09/60) Accurately ripped
02 [7a983251] (09/60) Accurately ripped
03 [936567b8] (09/60) Accurately ripped
04 [74fa013b] (09/60) Accurately ripped
05 [946e7e98] (09/60) Accurately ripped
06 [274b9011] (09/59) Accurately ripped
07 [b42c9d7d] (09/60) Accurately ripped
08 [00f64ff3] (09/59) Accurately ripped

Track Peak [ CRC32 ] [W/O NULL] [ LOG ]
– 100,0 [3B491902] [B3E3AF24] CRC32
01 60,4 [06A5F663] [3F2C6BB7]
02 69,1 [0FD9086F] [F3284C60]
03 100,0 [D98E2B33] [849E0613]
04 76,1 [D57FBACB] [0F6942F3]
05 73,4 [74BB2F6C] [54F0CFBC]
06 72,9 [321618EC] [F37DBECD]
07 59,6 [4F3B6663] [7DD6EAAA]
08 69,4 [E2C7B83E] [255F0459]

Thanks to Olaf der Weisse

Welcome to My Blog!

Eddie Jobson – Theme Of Secrets (1985) Download, Warez, DDL, Free, Full Album, Torrent, Legal.

Download