Echoes – Barefoot To The Moon: An Acoustic Tribute To Pink Floyd (2016) [Blu-ray]

Download
Echoes - Barefoot To The Moon: An Acoustic Tribute To Pink Floyd (2016) [Blu-ray]

Echoes – Barefoot To The Moon: An Acoustic Tribute To Pink Floyd (2016)
Blu-ray | BDMV | MPEG-4 AVC 17086 kbps | 1920×1080 | 25.000 fps | 16:9 | High Profile 4.1
LPCM 2.0 48 kHz 1536 kbps | LPCM 5.1 48 kHz 4608 kbps
Prog Rock | 1 h 56 min | 22.99 GB

The exceptional atmosphere of this acoustic concert reflects not only in the music but also the familiar setting; candles instead of a laser show, a string section instead of keyboard sounds, reduction instead of inflation. Floydian grandeur turns into intimate music experience, borne by creativity, wit, charm and respect for the makers who are Pink Floyd. This DVD, recorded at the sold out Stadttheater Aschaffenburg, impressively documents the memorable evening and manifests the music of Pink Floyd in a way that it has not been heard before.

echoes | amazon
BDInfo
Disc Title: Echoes.Barefoot To The Moon.An Acoustic Tribute To Pink Floyd.2016.BD1080i
Disc Size: 24 681 605 789 bytes
Protection: AACS
BD-Java: Yes
Extras: 50Hz Content
BDInfo: 0.5.8

Notes:

BDINFO HOME:
Cinema Squid
http://www.cinemasquid.com/blu-ray/tools/bdinfo

INCLUDES FORUMS REPORT FOR:
AVS Forum Blu-ray Audio and Video Specifications Thread
http://www.avsforum.com/avs-vb/showthread.php?t=1155731

WARNING: Report is incomplete because: Scan has not been run.

********************
PLAYLIST: 01001.MPLS
********************

<–- BEGIN FORUMS PASTE –->

                                                                                                                  Total   Video                                               Title                                                           Codec   Length  Movie Size      Disc Size       Bitrate Bitrate Main Audio Track                          Secondary Audio Track  -----                                                           ------  ------- --------------  --------------  ------- ------- ------------------                        ---------------------  01001.MPLS                                                      AVC     1:56:57 0               24 681 605 789  0,00    0,00    LPCM 2.0 1536Kbps (48kHz/16-bit)          LPCM 5.1 4608Kbps (48kHz/16-bit)  

    DISC INFO:    Disc Title:     Echoes.Barefoot To The Moon.An Acoustic Tribute To Pink Floyd.2016.BD1080i  Disc Size:      24 681 605 789 bytes  Protection:     AACS  BD-Java:        Yes  Extras:         50Hz Content  BDInfo:         0.5.8    PLAYLIST REPORT:    Name:                   01001.MPLS  Length:                 1:56:57.920 (h:m:s.ms)  Size:                   0 bytes  Total Bitrate:          0,00 Mbps    VIDEO:    Codec                   Bitrate             Description       -----                   -------             -----------       MPEG-4 AVC Video        0 kbps              1080i / 25 fps / 16:9 / High Profile 4.1    AUDIO:    Codec                           Language        Bitrate         Description       -----                           --------        -------         -----------       LPCM Audio                      Undetermined    1536 kbps       2.0 / 48 kHz / 1536 kbps / 16-bit  LPCM Audio                      Undetermined    4608 kbps       5.1 / 48 kHz / 4608 kbps / 16-bit    FILES:    Name            Time In         Length          Size            Total Bitrate     ----            -------         ------          ----            -------------     00001.M2TS      0:00:00.000     1:56:57.520     0               0                 00006.M2TS      1:56:57.520     0:00:00.400     0               0                   CHAPTERS:    Number          Time In         Length          Avg Video Rate  Max 1-Sec Rate  Max 1-Sec Time  Max 5-Sec Rate  Max 5-Sec Time  Max 10Sec Rate  Max 10Sec Time  Avg Frame Size  Max Frame Size  Max Frame Time    ------          -------         ------          --------------  --------------  --------------  --------------  --------------  --------------  --------------  --------------  --------------  --------------    1               0:00:00.000     0:02:10.000     0 kbps          0 kbps          00:00:00.000    0 kbps          00:00:00.000    0 kbps          00:00:00.000    0 bytes         0 bytes         00:00:00.000      2               0:02:10.000     0:13:29.000     0 kbps          0 kbps          00:00:00.000    0 kbps          00:00:00.000    0 kbps          00:00:00.000    0 bytes         0 bytes         00:00:00.000      3               0:15:39.000     0:04:35.000     0 kbps          0 kbps          00:00:00.000    0 kbps          00:00:00.000    0 kbps          00:00:00.000    0 bytes         0 bytes         00:00:00.000      4               0:20:14.000     0:08:49.000     0 kbps          0 kbps          00:00:00.000    0 kbps          00:00:00.000    0 kbps          00:00:00.000    0 bytes         0 bytes         00:00:00.000      5               0:29:03.000     0:09:23.000     0 kbps          0 kbps          00:00:00.000    0 kbps          00:00:00.000    0 kbps          00:00:00.000    0 bytes         0 bytes         00:00:00.000      6               0:38:26.000     0:06:24.000     0 kbps          0 kbps          00:00:00.000    0 kbps          00:00:00.000    0 kbps          00:00:00.000    0 bytes         0 bytes         00:00:00.000      7               0:44:50.000     0:06:37.000     0 kbps          0 kbps          00:00:00.000    0 kbps          00:00:00.000    0 kbps          00:00:00.000    0 bytes         0 bytes         00:00:00.000      8               0:51:27.000     0:04:46.000     0 kbps          0 kbps          00:00:00.000    0 kbps          00:00:00.000    0 kbps          00:00:00.000    0 bytes         0 bytes         00:00:00.000      9               0:56:13.000     0:06:12.000     0 kbps          0 kbps          00:00:00.000    0 kbps          00:00:00.000    0 kbps          00:00:00.000    0 bytes         0 bytes         00:00:00.000      10              1:02:25.000     0:04:57.000     0 kbps          0 kbps          00:00:00.000    0 kbps          00:00:00.000    0 kbps          00:00:00.000    0 bytes         0 bytes         00:00:00.000      11              1:07:22.000     0:03:26.000     0 kbps          0 kbps          00:00:00.000    0 kbps          00:00:00.000    0 kbps          00:00:00.000    0 bytes         0 bytes         00:00:00.000      12              1:10:48.000     0:01:18.000     0 kbps          0 kbps          00:00:00.000    0 kbps          00:00:00.000    0 kbps          00:00:00.000    0 bytes         0 bytes         00:00:00.000      13              1:12:06.000     0:04:49.000     0 kbps          0 kbps          00:00:00.000    0 kbps          00:00:00.000    0 kbps          00:00:00.000    0 bytes         0 bytes         00:00:00.000      14              1:16:55.000     0:05:14.000     0 kbps          0 kbps          00:00:00.000    0 kbps          00:00:00.000    0 kbps          00:00:00.000    0 bytes         0 bytes         00:00:00.000      15              1:22:09.000     0:05:25.000     0 kbps          0 kbps          00:00:00.000    0 kbps          00:00:00.000    0 kbps          00:00:00.000    0 bytes         0 bytes         00:00:00.000      16              1:27:34.000     0:09:27.000     0 kbps          0 kbps          00:00:00.000    0 kbps          00:00:00.000    0 kbps          00:00:00.000    0 bytes         0 bytes         00:00:00.000      17              1:37:01.000     0:10:10.000     0 kbps          0 kbps          00:00:00.000    0 kbps          00:00:00.000    0 kbps          00:00:00.000    0 bytes         0 bytes         00:00:00.000      18              1:47:11.000     0:09:46.920     0 kbps          0 kbps          00:00:00.000    0 kbps          00:00:00.000    0 kbps          00:00:00.000    0 bytes         0 bytes         00:00:00.000        STREAM DIAGNOSTICS:    File            PID             Type            Codec           Language                Seconds                 Bitrate                 Bytes           Packets           ----            ---             ----            -----           --------                --------------          --------------          -------------   -----             00001.M2TS      4113 (0x1011)   0x1B            AVC                                     0,720                   0                       0               0                 00001.M2TS      4352 (0x1100)   0x80            LPCM            und (Undetermined)      0,720                   0                       0               0                 00001.M2TS      4353 (0x1101)   0x80            LPCM            und (Undetermined)      0,720                   0                       0               0                 00006.M2TS      4113 (0x1011)   0x1B            AVC                                     0                       0                       0               0                   

<–– END FORUMS PASTE ––>

QUICK SUMMARY:

Disc Title: Echoes.Barefoot To The Moon.An Acoustic Tribute To Pink Floyd.2016.BD1080i
Disc Size: 24 681 605 789 bytes
Protection: AACS
BD-Java: Yes
Playlist: 01001.MPLS
Size: 0 bytes
Length: 1:56:57.920
Total Bitrate: 0,00 Mbps
Video: MPEG-4 AVC Video / 0 kbps / 1080i / 25 fps / 16:9 / High Profile 4.1
Audio: Undetermined / LPCM Audio / 2.0 / 48 kHz / 1536 kbps / 16-bit
Audio: Undetermined / LPCM Audio / 5.1 / 48 kHz / 4608 kbps / 16-bit

********************
PLAYLIST: 00001.MPLS
********************

<–- BEGIN FORUMS PASTE –->

                                                                                                                  Total   Video                                               Title                                                           Codec   Length  Movie Size      Disc Size       Bitrate Bitrate Main Audio Track                          Secondary Audio Track  -----                                                           ------  ------- --------------  --------------  ------- ------- ------------------                        ---------------------  00001.MPLS                                                      AVC     1:56:57 0               24 681 605 789  0,00    0,00    LPCM 2.0 1536Kbps (48kHz/16-bit)          LPCM 5.1 4608Kbps (48kHz/16-bit)  

    DISC INFO:    Disc Title:     Echoes.Barefoot To The Moon.An Acoustic Tribute To Pink Floyd.2016.BD1080i  Disc Size:      24 681 605 789 bytes  Protection:     AACS  BD-Java:        Yes  Extras:         50Hz Content  BDInfo:         0.5.8    PLAYLIST REPORT:    Name:                   00001.MPLS  Length:                 1:56:57.520 (h:m:s.ms)  Size:                   0 bytes  Total Bitrate:          0,00 Mbps    VIDEO:    Codec                   Bitrate             Description       -----                   -------             -----------       MPEG-4 AVC Video        0 kbps              1080i / 25 fps / 16:9 / High Profile 4.1    AUDIO:    Codec                           Language        Bitrate         Description       -----                           --------        -------         -----------       LPCM Audio                      Undetermined    1536 kbps       2.0 / 48 kHz / 1536 kbps / 16-bit  LPCM Audio                      Undetermined    4608 kbps       5.1 / 48 kHz / 4608 kbps / 16-bit    FILES:    Name            Time In         Length          Size            Total Bitrate     ----            -------         ------          ----            -------------     00001.M2TS      0:00:00.000     1:56:57.520     0               0                   CHAPTERS:    Number          Time In         Length          Avg Video Rate  Max 1-Sec Rate  Max 1-Sec Time  Max 5-Sec Rate  Max 5-Sec Time  Max 10Sec Rate  Max 10Sec Time  Avg Frame Size  Max Frame Size  Max Frame Time    ------          -------         ------          --------------  --------------  --------------  --------------  --------------  --------------  --------------  --------------  --------------  --------------    1               0:00:00.000     1:56:57.520     0 kbps          0 kbps          00:00:00.000    0 kbps          00:00:00.000    0 kbps          00:00:00.000    0 bytes         0 bytes         00:00:00.000        STREAM DIAGNOSTICS:    File            PID             Type            Codec           Language                Seconds                 Bitrate                 Bytes           Packets           ----            ---             ----            -----           --------                --------------          --------------          -------------   -----             00001.M2TS      4113 (0x1011)   0x1B            AVC                                     0,720                   0                       0               0                 00001.M2TS      4352 (0x1100)   0x80            LPCM            und (Undetermined)      0,720                   0                       0               0                 00001.M2TS      4353 (0x1101)   0x80            LPCM            und (Undetermined)      0,720                   0                       0               0                   

<–– END FORUMS PASTE ––>

QUICK SUMMARY:

Disc Title: Echoes.Barefoot To The Moon.An Acoustic Tribute To Pink Floyd.2016.BD1080i
Disc Size: 24 681 605 789 bytes
Protection: AACS
BD-Java: Yes
Playlist: 00001.MPLS
Size: 0 bytes
Length: 1:56:57.520
Total Bitrate: 0,00 Mbps
Video: MPEG-4 AVC Video / 0 kbps / 1080i / 25 fps / 16:9 / High Profile 4.1
Audio: Undetermined / LPCM Audio / 2.0 / 48 kHz / 1536 kbps / 16-bit
Audio: Undetermined / LPCM Audio / 5.1 / 48 kHz / 4608 kbps / 16-bit

********************
PLAYLIST: 01002.MPLS
********************

<–- BEGIN FORUMS PASTE –->

                                                                                                                  Total   Video                                               Title                                                           Codec   Length  Movie Size      Disc Size       Bitrate Bitrate Main Audio Track                          Secondary Audio Track  -----                                                           ------  ------- --------------  --------------  ------- ------- ------------------                        ---------------------  01002.MPLS                                                      AVC     0:12:59 0               24 681 605 789  0,00    0,00    LPCM 2.0 1536Kbps (48kHz/16-bit)            

    DISC INFO:    Disc Title:     Echoes.Barefoot To The Moon.An Acoustic Tribute To Pink Floyd.2016.BD1080i  Disc Size:      24 681 605 789 bytes  Protection:     AACS  BD-Java:        Yes  Extras:         50Hz Content  BDInfo:         0.5.8    PLAYLIST REPORT:    Name:                   01002.MPLS  Length:                 0:12:59.879 (h:m:s.ms)  Size:                   0 bytes  Total Bitrate:          0,00 Mbps    VIDEO:    Codec                   Bitrate             Description       -----                   -------             -----------       MPEG-4 AVC Video        0 kbps              1080i / 25 fps / 16:9 / High Profile 4.1    AUDIO:    Codec                           Language        Bitrate         Description       -----                           --------        -------         -----------       LPCM Audio                      Undetermined    1536 kbps       2.0 / 48 kHz / 1536 kbps / 16-bit    SUBTITLES:    Codec                           Language        Bitrate         Description       -----                           --------        -------         -----------       Presentation Graphics           English         0,000 kbps                          FILES:    Name            Time In         Length          Size            Total Bitrate     ----            -------         ------          ----            -------------     00002.M2TS      0:00:00.000     0:12:59.479     0               0                 00006.M2TS      0:12:59.479     0:00:00.400     0               0                   CHAPTERS:    Number          Time In         Length          Avg Video Rate  Max 1-Sec Rate  Max 1-Sec Time  Max 5-Sec Rate  Max 5-Sec Time  Max 10Sec Rate  Max 10Sec Time  Avg Frame Size  Max Frame Size  Max Frame Time    ------          -------         ------          --------------  --------------  --------------  --------------  --------------  --------------  --------------  --------------  --------------  --------------    1               0:00:00.000     0:12:59.879     0 kbps          0 kbps          00:00:00.000    0 kbps          00:00:00.000    0 kbps          00:00:00.000    0 bytes         0 bytes         00:00:00.000        STREAM DIAGNOSTICS:    File            PID             Type            Codec           Language                Seconds                 Bitrate                 Bytes           Packets           ----            ---             ----            -----           --------                --------------          --------------          -------------   -----             00002.M2TS      4113 (0x1011)   0x1B            AVC                                     0,720                   0                       0               0                 00002.M2TS      4352 (0x1100)   0x80            LPCM            und (Undetermined)      0,720                   0                       0               0                 00002.M2TS      4608 (0x1200)   0x90            PGS             eng (English)           0,720                   0                       0               0                 00006.M2TS      4113 (0x1011)   0x1B            AVC                                     0                       0                       0               0                   

<–– END FORUMS PASTE ––>

QUICK SUMMARY:

Disc Title: Echoes.Barefoot To The Moon.An Acoustic Tribute To Pink Floyd.2016.BD1080i
Disc Size: 24 681 605 789 bytes
Protection: AACS
BD-Java: Yes
Playlist: 01002.MPLS
Size: 0 bytes
Length: 0:12:59.879
Total Bitrate: 0,00 Mbps
Video: MPEG-4 AVC Video / 0 kbps / 1080i / 25 fps / 16:9 / High Profile 4.1
Audio: Undetermined / LPCM Audio / 2.0 / 48 kHz / 1536 kbps / 16-bit
Subtitle: English / 0,000 kbps

********************
PLAYLIST: 00002.MPLS
********************

<–- BEGIN FORUMS PASTE –->

                                                                                                                  Total   Video                                               Title                                                           Codec   Length  Movie Size      Disc Size       Bitrate Bitrate Main Audio Track                          Secondary Audio Track  -----                                                           ------  ------- --------------  --------------  ------- ------- ------------------                        ---------------------  00002.MPLS                                                      AVC     0:12:59 0               24 681 605 789  0,00    0,00    LPCM 2.0 1536Kbps (48kHz/16-bit)            

    DISC INFO:    Disc Title:     Echoes.Barefoot To The Moon.An Acoustic Tribute To Pink Floyd.2016.BD1080i  Disc Size:      24 681 605 789 bytes  Protection:     AACS  BD-Java:        Yes  Extras:         50Hz Content  BDInfo:         0.5.8    PLAYLIST REPORT:    Name:                   00002.MPLS  Length:                 0:12:59.479 (h:m:s.ms)  Size:                   0 bytes  Total Bitrate:          0,00 Mbps    VIDEO:    Codec                   Bitrate             Description       -----                   -------             -----------       MPEG-4 AVC Video        0 kbps              1080i / 25 fps / 16:9 / High Profile 4.1    AUDIO:    Codec                           Language        Bitrate         Description       -----                           --------        -------         -----------       LPCM Audio                      Undetermined    1536 kbps       2.0 / 48 kHz / 1536 kbps / 16-bit    SUBTITLES:    Codec                           Language        Bitrate         Description       -----                           --------        -------         -----------       Presentation Graphics           English         0,000 kbps                          FILES:    Name            Time In         Length          Size            Total Bitrate     ----            -------         ------          ----            -------------     00002.M2TS      0:00:00.000     0:12:59.479     0               0                   CHAPTERS:    Number          Time In         Length          Avg Video Rate  Max 1-Sec Rate  Max 1-Sec Time  Max 5-Sec Rate  Max 5-Sec Time  Max 10Sec Rate  Max 10Sec Time  Avg Frame Size  Max Frame Size  Max Frame Time    ------          -------         ------          --------------  --------------  --------------  --------------  --------------  --------------  --------------  --------------  --------------  --------------    1               0:00:00.000     0:12:59.479     0 kbps          0 kbps          00:00:00.000    0 kbps          00:00:00.000    0 kbps          00:00:00.000    0 bytes         0 bytes         00:00:00.000        STREAM DIAGNOSTICS:    File            PID             Type            Codec           Language                Seconds                 Bitrate                 Bytes           Packets           ----            ---             ----            -----           --------                --------------          --------------          -------------   -----             00002.M2TS      4113 (0x1011)   0x1B            AVC                                     0,720                   0                       0               0                 00002.M2TS      4352 (0x1100)   0x80            LPCM            und (Undetermined)      0,720                   0                       0               0                 00002.M2TS      4608 (0x1200)   0x90            PGS             eng (English)           0,720                   0                       0               0                   

<–– END FORUMS PASTE ––>

QUICK SUMMARY:

Disc Title: Echoes.Barefoot To The Moon.An Acoustic Tribute To Pink Floyd.2016.BD1080i
Disc Size: 24 681 605 789 bytes
Protection: AACS
BD-Java: Yes
Playlist: 00002.MPLS
Size: 0 bytes
Length: 0:12:59.479
Total Bitrate: 0,00 Mbps
Video: MPEG-4 AVC Video / 0 kbps / 1080i / 25 fps / 16:9 / High Profile 4.1
Audio: Undetermined / LPCM Audio / 2.0 / 48 kHz / 1536 kbps / 16-bit
Subtitle: English / 0,000 kbps

********************
PLAYLIST: 01005.MPLS
********************

<–- BEGIN FORUMS PASTE –->

                                                                                                                  Total   Video                                               Title                                                           Codec   Length  Movie Size      Disc Size       Bitrate Bitrate Main Audio Track                          Secondary Audio Track  -----                                                           ------  ------- --------------  --------------  ------- ------- ------------------                        ---------------------  01005.MPLS                                                      AVC     0:04:57 0               24 681 605 789  0,00    0,00    LPCM 2.0 1536Kbps (48kHz/16-bit)            

    DISC INFO:    Disc Title:     Echoes.Barefoot To The Moon.An Acoustic Tribute To Pink Floyd.2016.BD1080i  Disc Size:      24 681 605 789 bytes  Protection:     AACS  BD-Java:        Yes  Extras:         50Hz Content  BDInfo:         0.5.8    PLAYLIST REPORT:    Name:                   01005.MPLS  Length:                 0:04:57.880 (h:m:s.ms)  Size:                   0 bytes  Total Bitrate:          0,00 Mbps    VIDEO:    Codec                   Bitrate             Description       -----                   -------             -----------       MPEG-4 AVC Video        0 kbps              1080i / 25 fps / 16:9 / High Profile 4.1    AUDIO:    Codec                           Language        Bitrate         Description       -----                           --------        -------         -----------       LPCM Audio                      Undetermined    1536 kbps       2.0 / 48 kHz / 1536 kbps / 16-bit    FILES:    Name            Time In         Length          Size            Total Bitrate     ----            -------         ------          ----            -------------     00005.M2TS      0:00:00.000     0:04:57.480     0               0                 00006.M2TS      0:04:57.480     0:00:00.400     0               0                   CHAPTERS:    Number          Time In         Length          Avg Video Rate  Max 1-Sec Rate  Max 1-Sec Time  Max 5-Sec Rate  Max 5-Sec Time  Max 10Sec Rate  Max 10Sec Time  Avg Frame Size  Max Frame Size  Max Frame Time    ------          -------         ------          --------------  --------------  --------------  --------------  --------------  --------------  --------------  --------------  --------------  --------------    1               0:00:00.000     0:04:57.880     0 kbps          0 kbps          00:00:00.000    0 kbps          00:00:00.000    0 kbps          00:00:00.000    0 bytes         0 bytes         00:00:00.000        STREAM DIAGNOSTICS:    File            PID             Type            Codec           Language                Seconds                 Bitrate                 Bytes           Packets           ----            ---             ----            -----           --------                --------------          --------------          -------------   -----             00005.M2TS      4113 (0x1011)   0x1B            AVC                                     0,720                   0                       0               0                 00005.M2TS      4352 (0x1100)   0x80            LPCM            und (Undetermined)      0,720                   0                       0               0                 00006.M2TS      4113 (0x1011)   0x1B            AVC                                     0                       0                       0               0                   

<–– END FORUMS PASTE ––>

QUICK SUMMARY:

Disc Title: Echoes.Barefoot To The Moon.An Acoustic Tribute To Pink Floyd.2016.BD1080i
Disc Size: 24 681 605 789 bytes
Protection: AACS
BD-Java: Yes
Playlist: 01005.MPLS
Size: 0 bytes
Length: 0:04:57.880
Total Bitrate: 0,00 Mbps
Video: MPEG-4 AVC Video / 0 kbps / 1080i / 25 fps / 16:9 / High Profile 4.1
Audio: Undetermined / LPCM Audio / 2.0 / 48 kHz / 1536 kbps / 16-bit

********************
PLAYLIST: 00005.MPLS
********************

<–- BEGIN FORUMS PASTE –->

                                                                                                                  Total   Video                                               Title                                                           Codec   Length  Movie Size      Disc Size       Bitrate Bitrate Main Audio Track                          Secondary Audio Track  -----                                                           ------  ------- --------------  --------------  ------- ------- ------------------                        ---------------------  00005.MPLS                                                      AVC     0:04:57 0               24 681 605 789  0,00    0,00    LPCM 2.0 1536Kbps (48kHz/16-bit)            

    DISC INFO:    Disc Title:     Echoes.Barefoot To The Moon.An Acoustic Tribute To Pink Floyd.2016.BD1080i  Disc Size:      24 681 605 789 bytes  Protection:     AACS  BD-Java:        Yes  Extras:         50Hz Content  BDInfo:         0.5.8    PLAYLIST REPORT:    Name:                   00005.MPLS  Length:                 0:04:57.480 (h:m:s.ms)  Size:                   0 bytes  Total Bitrate:          0,00 Mbps    VIDEO:    Codec                   Bitrate             Description       -----                   -------             -----------       MPEG-4 AVC Video        0 kbps              1080i / 25 fps / 16:9 / High Profile 4.1    AUDIO:    Codec                           Language        Bitrate         Description       -----                           --------        -------         -----------       LPCM Audio                      Undetermined    1536 kbps       2.0 / 48 kHz / 1536 kbps / 16-bit    FILES:    Name            Time In         Length          Size            Total Bitrate     ----            -------         ------          ----            -------------     00005.M2TS      0:00:00.000     0:04:57.480     0               0                   CHAPTERS:    Number          Time In         Length          Avg Video Rate  Max 1-Sec Rate  Max 1-Sec Time  Max 5-Sec Rate  Max 5-Sec Time  Max 10Sec Rate  Max 10Sec Time  Avg Frame Size  Max Frame Size  Max Frame Time    ------          -------         ------          --------------  --------------  --------------  --------------  --------------  --------------  --------------  --------------  --------------  --------------    1               0:00:00.000     0:04:57.480     0 kbps          0 kbps          00:00:00.000    0 kbps          00:00:00.000    0 kbps          00:00:00.000    0 bytes         0 bytes         00:00:00.000        STREAM DIAGNOSTICS:    File            PID             Type            Codec           Language                Seconds                 Bitrate                 Bytes           Packets           ----            ---             ----            -----           --------                --------------          --------------          -------------   -----             00005.M2TS      4113 (0x1011)   0x1B            AVC                                     0,720                   0                       0               0                 00005.M2TS      4352 (0x1100)   0x80            LPCM            und (Undetermined)      0,720                   0                       0               0                   

<–– END FORUMS PASTE ––>

QUICK SUMMARY:

Disc Title: Echoes.Barefoot To The Moon.An Acoustic Tribute To Pink Floyd.2016.BD1080i
Disc Size: 24 681 605 789 bytes
Protection: AACS
BD-Java: Yes
Playlist: 00005.MPLS
Size: 0 bytes
Length: 0:04:57.480
Total Bitrate: 0,00 Mbps
Video: MPEG-4 AVC Video / 0 kbps / 1080i / 25 fps / 16:9 / High Profile 4.1
Audio: Undetermined / LPCM Audio / 2.0 / 48 kHz / 1536 kbps / 16-bit

********************
PLAYLIST: 01004.MPLS
********************

<–- BEGIN FORUMS PASTE –->

                                                                                                                  Total   Video                                               Title                                                           Codec   Length  Movie Size      Disc Size       Bitrate Bitrate Main Audio Track                          Secondary Audio Track  -----                                                           ------  ------- --------------  --------------  ------- ------- ------------------                        ---------------------  01004.MPLS                                                      AVC     0:03:48 0               24 681 605 789  0,00    0,00    LPCM 2.0 1536Kbps (48kHz/16-bit)            

    DISC INFO:    Disc Title:     Echoes.Barefoot To The Moon.An Acoustic Tribute To Pink Floyd.2016.BD1080i  Disc Size:      24 681 605 789 bytes  Protection:     AACS  BD-Java:        Yes  Extras:         50Hz Content  BDInfo:         0.5.8    PLAYLIST REPORT:    Name:                   01004.MPLS  Length:                 0:03:48.120 (h:m:s.ms)  Size:                   0 bytes  Total Bitrate:          0,00 Mbps    VIDEO:    Codec                   Bitrate             Description       -----                   -------             -----------       MPEG-4 AVC Video        0 kbps              1080i / 25 fps / 16:9 / High Profile 4.1    AUDIO:    Codec                           Language        Bitrate         Description       -----                           --------        -------         -----------       LPCM Audio                      Undetermined    1536 kbps       2.0 / 48 kHz / 1536 kbps / 16-bit    FILES:    Name            Time In         Length          Size            Total Bitrate     ----            -------         ------          ----            -------------     00004.M2TS      0:00:00.000     0:03:47.720     0               0                 00006.M2TS      0:03:47.720     0:00:00.400     0               0                   CHAPTERS:    Number          Time In         Length          Avg Video Rate  Max 1-Sec Rate  Max 1-Sec Time  Max 5-Sec Rate  Max 5-Sec Time  Max 10Sec Rate  Max 10Sec Time  Avg Frame Size  Max Frame Size  Max Frame Time    ------          -------         ------          --------------  --------------  --------------  --------------  --------------  --------------  --------------  --------------  --------------  --------------    1               0:00:00.000     0:03:48.120     0 kbps          0 kbps          00:00:00.000    0 kbps          00:00:00.000    0 kbps          00:00:00.000    0 bytes         0 bytes         00:00:00.000        STREAM DIAGNOSTICS:    File            PID             Type            Codec           Language                Seconds                 Bitrate                 Bytes           Packets           ----            ---             ----            -----           --------                --------------          --------------          -------------   -----             00004.M2TS      4113 (0x1011)   0x1B            AVC                                     0,720                   0                       0               0                 00004.M2TS      4352 (0x1100)   0x80            LPCM            und (Undetermined)      0,720                   0                       0               0                 00006.M2TS      4113 (0x1011)   0x1B            AVC                                     0                       0                       0               0                   

<–– END FORUMS PASTE ––>

QUICK SUMMARY:

Disc Title: Echoes.Barefoot To The Moon.An Acoustic Tribute To Pink Floyd.2016.BD1080i
Disc Size: 24 681 605 789 bytes
Protection: AACS
BD-Java: Yes
Playlist: 01004.MPLS
Size: 0 bytes
Length: 0:03:48.120
Total Bitrate: 0,00 Mbps
Video: MPEG-4 AVC Video / 0 kbps / 1080i / 25 fps / 16:9 / High Profile 4.1
Audio: Undetermined / LPCM Audio / 2.0 / 48 kHz / 1536 kbps / 16-bit

********************
PLAYLIST: 00004.MPLS
********************

<–- BEGIN FORUMS PASTE –->

                                                                                                                  Total   Video                                               Title                                                           Codec   Length  Movie Size      Disc Size       Bitrate Bitrate Main Audio Track                          Secondary Audio Track  -----                                                           ------  ------- --------------  --------------  ------- ------- ------------------                        ---------------------  00004.MPLS                                                      AVC     0:03:47 0               24 681 605 789  0,00    0,00    LPCM 2.0 1536Kbps (48kHz/16-bit)            

    DISC INFO:    Disc Title:     Echoes.Barefoot To The Moon.An Acoustic Tribute To Pink Floyd.2016.BD1080i  Disc Size:      24 681 605 789 bytes  Protection:     AACS  BD-Java:        Yes  Extras:         50Hz Content  BDInfo:         0.5.8    PLAYLIST REPORT:    Name:                   00004.MPLS  Length:                 0:03:47.720 (h:m:s.ms)  Size:                   0 bytes  Total Bitrate:          0,00 Mbps    VIDEO:    Codec                   Bitrate             Description       -----                   -------             -----------       MPEG-4 AVC Video        0 kbps              1080i / 25 fps / 16:9 / High Profile 4.1    AUDIO:    Codec                           Language        Bitrate         Description       -----                           --------        -------         -----------       LPCM Audio                      Undetermined    1536 kbps       2.0 / 48 kHz / 1536 kbps / 16-bit    FILES:    Name            Time In         Length          Size            Total Bitrate     ----            -------         ------          ----            -------------     00004.M2TS      0:00:00.000     0:03:47.720     0               0                   CHAPTERS:    Number          Time In         Length          Avg Video Rate  Max 1-Sec Rate  Max 1-Sec Time  Max 5-Sec Rate  Max 5-Sec Time  Max 10Sec Rate  Max 10Sec Time  Avg Frame Size  Max Frame Size  Max Frame Time    ------          -------         ------          --------------  --------------  --------------  --------------  --------------  --------------  --------------  --------------  --------------  --------------    1               0:00:00.000     0:03:47.720     0 kbps          0 kbps          00:00:00.000    0 kbps          00:00:00.000    0 kbps          00:00:00.000    0 bytes         0 bytes         00:00:00.000        STREAM DIAGNOSTICS:    File            PID             Type            Codec           Language                Seconds                 Bitrate                 Bytes           Packets           ----            ---             ----            -----           --------                --------------          --------------          -------------   -----             00004.M2TS      4113 (0x1011)   0x1B            AVC                                     0,720                   0                       0               0                 00004.M2TS      4352 (0x1100)   0x80            LPCM            und (Undetermined)      0,720                   0                       0               0                   

<–– END FORUMS PASTE ––>

QUICK SUMMARY:

Disc Title: Echoes.Barefoot To The Moon.An Acoustic Tribute To Pink Floyd.2016.BD1080i
Disc Size: 24 681 605 789 bytes
Protection: AACS
BD-Java: Yes
Playlist: 00004.MPLS
Size: 0 bytes
Length: 0:03:47.720
Total Bitrate: 0,00 Mbps
Video: MPEG-4 AVC Video / 0 kbps / 1080i / 25 fps / 16:9 / High Profile 4.1
Audio: Undetermined / LPCM Audio / 2.0 / 48 kHz / 1536 kbps / 16-bit

********************
PLAYLIST: 01003.MPLS
********************

<–- BEGIN FORUMS PASTE –->

                                                                                                                  Total   Video                                               Title                                                           Codec   Length  Movie Size      Disc Size       Bitrate Bitrate Main Audio Track                          Secondary Audio Track  -----                                                           ------  ------- --------------  --------------  ------- ------- ------------------                        ---------------------  01003.MPLS                                                      AVC     0:02:00 0               24 681 605 789  0,00    0,00    LPCM 2.0 1536Kbps (48kHz/16-bit)            

    DISC INFO:    Disc Title:     Echoes.Barefoot To The Moon.An Acoustic Tribute To Pink Floyd.2016.BD1080i  Disc Size:      24 681 605 789 bytes  Protection:     AACS  BD-Java:        Yes  Extras:         50Hz Content  BDInfo:         0.5.8    PLAYLIST REPORT:    Name:                   01003.MPLS  Length:                 0:02:00.880 (h:m:s.ms)  Size:                   0 bytes  Total Bitrate:          0,00 Mbps    VIDEO:    Codec                   Bitrate             Description       -----                   -------             -----------       MPEG-4 AVC Video        0 kbps              1080i / 25 fps / 16:9 / High Profile 4.1    AUDIO:    Codec                           Language        Bitrate         Description       -----                           --------        -------         -----------       LPCM Audio                      Undetermined    1536 kbps       2.0 / 48 kHz / 1536 kbps / 16-bit    FILES:    Name            Time In         Length          Size            Total Bitrate     ----            -------         ------          ----            -------------     00003.M2TS      0:00:00.000     0:02:00.480     0               0                 00006.M2TS      0:02:00.480     0:00:00.400     0               0       			  		   	  		      		 	    	 			   		   	  		 	 	  		  	   	 			   		   	  		 		   			     	 			   		   	  		   				             CHAPTERS:    Number          Time In         Length          Avg Video Rate  Max 1-Sec Rate  Max 1-Sec Time  Max 5-Sec Rate  Max 5-Sec Time  Max 10Sec Rate  Max 10Sec Time  Avg Frame Size  Max Frame Size  Max Frame Time    ------          -------         ------          --------------  --------------  --------------  --------------  --------------  --------------  --------------  --------------  --------------  --------------    1               0:00:00.000     0:02:00.880     0 kbps          0 kbps          00:00:00.000    0 kbps          00:00:00.000    0 kbps          00:00:00.000    0 bytes         0 bytes         00:00:00.000        STREAM DIAGNOSTICS:    File            PID             Type            Codec           Language                Seconds                 Bitrate                 Bytes           Packets           ----            ---             ----            -----           --------                --------------          --------------          -------------   -----             00003.M2TS      4113 (0x1011)   0x1B            AVC                                     0,640                   0                       0               0                 00003.M2TS      4352 (0x1100)   0x80            LPCM            und (Undetermined)      0,640                   0                       0               0                 00006.M2TS      4113 (0x1011)   0x1B            AVC                                     0                       0                       0               0                   

<–– END FORUMS PASTE ––>

QUICK SUMMARY:

Disc Title: Echoes.Barefoot To The Moon.An Acoustic Tribute To Pink Floyd.2016.BD1080i
Disc Size: 24 681 605 789 bytes
Protection: AACS
BD-Java: Yes
Playlist: 01003.MPLS
Size: 0 bytes
Length: 0:02:00.880
Total Bitrate: 0,00 Mbps
Video: MPEG-4 AVC Video / 0 kbps / 1080i / 25 fps / 16:9 / High Profile 4.1
Audio: Undetermined / LPCM Audio / 2.0 / 48 kHz / 1536 kbps / 16-bit

********************
PLAYLIST: 00003.MPLS
********************

<–- BEGIN FORUMS PASTE –->

                                                                                                                  Total   Video                                               Title                                                           Codec   Length  Movie Size      Disc Size       Bitrate Bitrate Main Audio Track                          Secondary Audio Track  -----                                                           ------  ------- --------------  --------------  ------- ------- ------------------                        ---------------------  00003.MPLS                                                      AVC     0:02:00 0               24 681 605 789  0,00    0,00    LPCM 2.0 1536Kbps (48kHz/16-bit)            

    DISC INFO:    Disc Title:     Echoes.Barefoot To The Moon.An Acoustic Tribute To Pink Floyd.2016.BD1080i  Disc Size:      24 681 605 789 bytes  Protection:     AACS  BD-Java:        Yes  Extras:         50Hz Content  BDInfo:         0.5.8    PLAYLIST REPORT:    Name:                   00003.MPLS  Length:                 0:02:00.480 (h:m:s.ms)  Size:                   0 bytes  Total Bitrate:          0,00 Mbps    VIDEO:    Codec                   Bitrate             Description       -----                   -------             -----------       MPEG-4 AVC Video        0 kbps              1080i / 25 fps / 16:9 / High Profile 4.1    AUDIO:    Codec                           Language        Bitrate         Description       -----                           --------        -------         -----------       LPCM Audio                      Undetermined    1536 kbps       2.0 / 48 kHz / 1536 kbps / 16-bit    FILES:    Name            Time In         Length          Size            Total Bitrate     ----            -------         ------          ----            -------------     00003.M2TS      0:00:00.000     0:02:00.480     0               0                   CHAPTERS:    Number          Time In         Length          Avg Video Rate  Max 1-Sec Rate  Max 1-Sec Time  Max 5-Sec Rate  Max 5-Sec Time  Max 10Sec Rate  Max 10Sec Time  Avg Frame Size  Max Frame Size  Max Frame Time    ------          -------         ------          --------------  --------------  --------------  --------------  --------------  --------------  --------------  --------------  --------------  --------------    1               0:00:00.000     0:02:00.480     0 kbps          0 kbps          00:00:00.000    0 kbps          00:00:00.000    0 kbps          00:00:00.000    0 bytes         0 bytes         00:00:00.000        STREAM DIAGNOSTICS:    File            PID             Type            Codec           Language                Seconds                 Bitrate                 Bytes           Packets           ----            ---             ----            -----           --------                --------------          --------------          -------------   -----             00003.M2TS      4113 (0x1011)   0x1B            AVC                                     0,640                   0                       0               0                 00003.M2TS      4352 (0x1100)   0x80            LPCM            und (Undetermined)      0,640                   0                       0               0                   

<–– END FORUMS PASTE ––>

QUICK SUMMARY:

Disc Title: Echoes.Barefoot To The Moon.An Acoustic Tribute To Pink Floyd.2016.BD1080i
Disc Size: 24 681 605 789 bytes
Protection: AACS
BD-Java: Yes
Playlist: 00003.MPLS
Size: 0 bytes
Length: 0:02:00.480
Total Bitrate: 0,00 Mbps
Video: MPEG-4 AVC Video / 0 kbps / 1080i / 25 fps / 16:9 / High Profile 4.1
Audio: Undetermined / LPCM Audio / 2.0 / 48 kHz / 1536 kbps / 16-bit

********************
PLAYLIST: 00000.MPLS
********************

<–- BEGIN FORUMS PASTE –->

                                                                                                                  Total   Video                                               Title                                                           Codec   Length  Movie Size      Disc Size       Bitrate Bitrate Main Audio Track                          Secondary Audio Track  -----                                                           ------  ------- --------------  --------------  ------- ------- ------------------                        ---------------------  00000.MPLS                                                      AVC     0:00:34 0               24 681 605 789  0,00    0,00    LPCM 2.0 2304Kbps (48kHz/24-bit)            

    DISC INFO:    Disc Title:     Echoes.Barefoot To The Moon.An Acoustic Tribute To Pink Floyd.2016.BD1080i  Disc Size:      24 681 605 789 bytes  Protection:     AACS  BD-Java:        Yes  Extras:         50Hz Content  BDInfo:         0.5.8    PLAYLIST REPORT:    Name:                   00000.MPLS  Length:                 0:00:34.200 (h:m:s.ms)  Size:                   0 bytes  Total Bitrate:          0,00 Mbps    VIDEO:    Codec                   Bitrate             Description       -----                   -------             -----------       MPEG-4 AVC Video        0 kbps              1080i / 25 fps / 16:9 / High Profile 4.1    AUDIO:    Codec                           Language        Bitrate         Description       -----                           --------        -------         -----------       LPCM Audio                      Undetermined    2304 kbps       2.0 / 48 kHz / 2304 kbps / 24-bit    FILES:    Name            Time In         Length          Size            Total Bitrate     ----            -------         ------          ----            -------------     00000.M2TS      0:00:00.000     0:00:34.200     0               0                   CHAPTERS:    Number          Time In         Length          Avg Video Rate  Max 1-Sec Rate  Max 1-Sec Time  Max 5-Sec Rate  Max 5-Sec Time  Max 10Sec Rate  Max 10Sec Time  Avg Frame Size  Max Frame Size  Max Frame Time    ------          -------         ------          --------------  --------------  --------------  --------------  --------------  --------------  --------------  --------------  --------------  --------------    1               0:00:00.000     0:00:34.200     0 kbps          0 kbps          00:00:00.000    0 kbps          00:00:00.000    0 kbps          00:00:00.000    0 bytes         0 bytes         00:00:00.000        STREAM DIAGNOSTICS:    File            PID             Type            Codec           Language                Seconds                 Bitrate                 Bytes           Packets           ----            ---             ----            -----           --------                --------------          --------------          -------------   -----             00000.M2TS      4113 (0x1011)   0x1B            AVC                                     0,720                   0                       0               0                 00000.M2TS      4352 (0x1100)   0x80            LPCM            und (Undetermined)      0,720                   0                       0               0                   

<–– END FORUMS PASTE ––>

QUICK SUMMARY:

Disc Title: Echoes.Barefoot To The Moon.An Acoustic Tribute To Pink Floyd.2016.BD1080i
Disc Size: 24 681 605 789 bytes
Protection: AACS
BD-Java: Yes
Playlist: 00000.MPLS
Size: 0 bytes
Length: 0:00:34.200
Total Bitrate: 0,00 Mbps
Video: MPEG-4 AVC Video / 0 kbps / 1080i / 25 fps / 16:9 / High Profile 4.1
Audio: Undetermined / LPCM Audio / 2.0 / 48 kHz / 2304 kbps / 24-bit

********************
PLAYLIST: 01000.MPLS
********************

<–- BEGIN FORUMS PASTE –->

                                                                                                                  Total   Video                                               Title                                                           Codec   Length  Movie Size      Disc Size       Bitrate Bitrate Main Audio Track                          Secondary Audio Track  -----                                                           ------  ------- --------------  --------------  ------- ------- ------------------                        ---------------------  01000.MPLS                                                      AVC     0:00:34 0               24 681 605 789  0,00    0,00    LPCM 2.0 2304Kbps (48kHz/24-bit)            

    DISC INFO:    Disc Title:     Echoes.Barefoot To The Moon.An Acoustic Tribute To Pink Floyd.2016.BD1080i  Disc Size:      24 681 605 789 bytes  Protection:     AACS  BD-Java:        Yes  Extras:         50Hz Content  BDInfo:         0.5.8    PLAYLIST REPORT:    Name:                   01000.MPLS  Length:                 0:00:34.200 (h:m:s.ms)  Size:                   0 bytes  Total Bitrate:          0,00 Mbps    VIDEO:    Codec                   Bitrate             Description       -----                   -------             -----------       MPEG-4 AVC Video        0 kbps              1080i / 25 fps / 16:9 / High Profile 4.1    AUDIO:    Codec                           Language        Bitrate         Description       -----                           --------        -------         -----------       LPCM Audio                      Undetermined    2304 kbps       2.0 / 48 kHz / 2304 kbps / 24-bit    FILES:    Name            Time In         Length          Size            Total Bitrate     ----            -------         ------          ----            -------------     00000.M2TS      0:00:00.000     0:00:34.200     0               0                   CHAPTERS:    Number          Time In         Length          Avg Video Rate  Max 1-Sec Rate  Max 1-Sec Time  Max 5-Sec Rate  Max 5-Sec Time  Max 10Sec Rate  Max 10Sec Time  Avg Frame Size  Max Frame Size  Max Frame Time    ------          -------         ------          --------------  --------------  --------------  --------------  --------------  --------------  --------------  --------------  --------------  --------------    1               0:00:00.000     0:00:34.200     0 kbps          0 kbps          00:00:00.000    0 kbps          00:00:00.000    0 kbps          00:00:00.000    0 bytes         0 bytes         00:00:00.000        STREAM DIAGNOSTICS:    File            PID             Type            Codec           Language                Seconds                 Bitrate                 Bytes           Packets           ----            ---             ----            -----           --------                --------------          --------------          -------------   -----             00000.M2TS      4113 (0x1011)   0x1B            AVC                                     0,720                   0                       0               0                 00000.M2TS      4352 (0x1100)   0x80            LPCM            und (Undetermined)      0,720                   0                       0               0                   

<–– END FORUMS PASTE ––>

QUICK SUMMARY:

Disc Title: Echoes.Barefoot To The Moon.An Acoustic Tribute To Pink Floyd.2016.BD1080i
Disc Size: 24 681 605 789 bytes
Protection: AACS
BD-Java: Yes
Playlist: 01000.MPLS
Size: 0 bytes
Length: 0:00:34.200
Total Bitrate: 0,00 Mbps
Video: MPEG-4 AVC Video / 0 kbps / 1080i / 25 fps / 16:9 / High Profile 4.1
Audio: Undetermined / LPCM Audio / 2.0 / 48 kHz / 2304 kbps / 24-bit

Tracklist:

1. Shine On You Crazy Diamond, Part I-V
2. Have Cigar
3. Us And Them
4. High Hopes
5. Welcome To The Machine
6. Wish You Were Here
7. Young Lust
8. Time
9. Great Gig In The Sky
10. Another Brick In The Wall, Part I
11. Happiest Day Of Our Lives
12. Another Brick In The Wall, Part II
13. Hey You
14. Nobody Home
15. Comfortably Numb
16. Money
17. Run Like Hell
Bonus Features:
• Making Of [00:12:59]
• Concert Slideshow [00:03:48]
• Production Slideshow [00:02:00]
• Trailer [00:04:57]

Echoes - Barefoot To The Moon: An Acoustic Tribute To Pink Floyd (2016) [Blu-ray]

Echoes - Barefoot To The Moon: An Acoustic Tribute To Pink Floyd (2016) [Blu-ray]

Echoes - Barefoot To The Moon: An Acoustic Tribute To Pink Floyd (2016) [Blu-ray]

Echoes - Barefoot To The Moon: An Acoustic Tribute To Pink Floyd (2016) [Blu-ray]

Echoes - Barefoot To The Moon: An Acoustic Tribute To Pink Floyd (2016) [Blu-ray]

Thanks to the original uploader

Echoes – Barefoot To The Moon: An Acoustic Tribute To Pink Floyd (2016) [Blu-ray] Download, Warez, DDL, Free, Full Album, Torrent, Legal.

Download