Earth – Pentastar: In The Style Of Demons (1996, Promo)

Download
Earth - Pentastar: In The Style Of Demons (1996, Promo)

Earth – Pentastar: In The Style Of Demons (1996, Promo)
EAC Rip | FLAC, IMG+CUE+LOG | 260 MB | MP3 CBR 320 Kbps | 110 MB | Complete HQ Scans | PNG -> 15 MB
Doom Metal | Label: Sub Pop Records #SP 361 | RAR 3% Rec. | IcerBox.com

If you’re a fan of the Earth we all know and love, that is, Special Low-Frequency Earth, you might be disappointed by this album. Gone are the minimalistic drone riffs and earth-shattering low end. The songs are shorter and faster by Earth 2 standards, but it’s not quite as bizarre or out there as 1990 or Extra-Capsular Extraction. But the truth is, behind those two extra guitarists, drummer, and organ player, it’s still the same old Earth.

Where Dylan Carlson began by inverting and insanely downtuning those first three chords, he moved on to draw from the same well as those primordial metalheads, Black Sabbath. The same bizarre song titles with barely an explanation can be found here, except now we benefit from an actual full set of lyrics and a whopping three (!) riffs on High Command (those lyrics don’t clear much up, though).

Imagine 10 1990 (or Sunn Amps and Smashed Guitars) more closely resembling traditional music. On Pentastar we find repetitive heavy metal riffs (when there is guitar to be found) and the occasional extended guitar lead. But I dare say that even this is more repetitive than their drone efforts at times: Sonar and Depth Charge consists almost entirely of two piano chords struck one after another for seven minutes (sounds like a great track to fall asleep to, by the way). Nonetheless, the more "traditional" songs in combination with the traditional Earth spirit make the whole thing that much more enjoyable.

Tracklist :

1. Introduction – 5:15
2. High Command – 5:51
3. Crooked Axis For String Quartet – 5:29
4. Tallahassee – 3:51
5. Charioteer (Temple Song) – 4:17
6. Peace In Mississippi – 5:56
7. Sonar And Depth Charge – 7:14
8. Coda Maestoso In F(Flat) Minor – 5:19

EAC extraction logfile
Exact Audio Copy V1.3 from 2. September 2016

EAC extraction logfile from 12. May 2017, 12:07

Earth / Pentastar – In The Style Of Demons

Used drive : TSSTcorpCDDVDW SH-S223F Adapter: 1 ID: 0

Read mode : Secure
Utilize accurate stream : Yes
Defeat audio cache : Yes
Make use of C2 pointers : No

Read offset correction : 6
Overread into Lead-In and Lead-Out : No
Fill up missing offset samples with silence : Yes
Delete leading and trailing silent blocks : No
Null samples used in CRC calculations : Yes
Used interface : Native Win32 interface for Win NT & 2000

Used output format : Internal WAV Routines
Sample format : 44.100 Hz; 16 Bit; Stereo

TOC of the extracted CD

Track | Start | Length | Start sector | End sector
––––––––––––––––––––––––––––-
1 | 0:00.32 | 5:15.00 | 32 | 23656
2 | 5:15.32 | 5:50.40 | 23657 | 49946
3 | 11:05.72 | 5:29.08 | 49947 | 74629
4 | 16:35.05 | 3:50.70 | 74630 | 91949
5 | 20:26.00 | 4:17.00 | 91950 | 111224
6 | 24:43.00 | 5:56.15 | 111225 | 137939
7 | 30:39.15 | 7:13.40 | 137940 | 170454
8 | 37:52.55 | 5:19.22 | 170455 | 194401

Range status and errors

Selected range

Filename Z:by NecromandusEarth – Pentastar – In The Style Of Demons.wav

Peak level 100.0 %
Extraction speed 6.5 X
Range quality 100.0 %
Test CRC D924357D
Copy CRC D924357D
Copy OK

No errors occurred

AccurateRip summary

Track 1 accurately ripped (confidence 12) [7E2BB680] (AR v2)
Track 2 accurately ripped (confidence 12) [CE74D456] (AR v2)
Track 3 accurately ripped (confidence 12) [54035112] (AR v2)
Track 4 accurately ripped (confidence 12) [3DDD98F0] (AR v2)
Track 5 accurately ripped (confidence 12) [388CDDF7] (AR v2)
Track 6 accurately ripped (confidence 12) [19036A36] (AR v2)
Track 7 accurately ripped (confidence 12) [7C5BB1FB] (AR v2)
Track 8 accurately ripped (confidence 12) [4EEE37E0] (AR v2)

All tracks accurately ripped

End of status report

–– CUETools DB Plugin V2.1.6

[CTDB TOCID: GtkGvUsy3SO_ATLJeiSmDspll0I-] found
Submit result: GtkGvUsy3SO_ATLJeiSmDspll0I- has been confirmed
Track | CTDB Status
1 | (21/21) Accurately ripped
2 | (21/21) Accurately ripped
3 | (21/21) Accurately ripped
4 | (21/21) Accurately ripped
5 | (21/21) Accurately ripped
6 | (21/21) Accurately ripped
7 | (21/21) Accurately ripped
8 | (21/21) Accurately ripped

==== Log checksum 87B95BE8B51E5BBB79243FEAF27CE8BC5A9EB212A954CED6B51988C879926221 ====

Earth – Pentastar: In The Style Of Demons (1996, Promo) Download, Warez, DDL, Free, Full Album, Torrent, Legal.

Download