Earth & F.H.B. – Coming Of The Heavy Lords (2014)

Download
Earth & F.H.B. - Coming Of The Heavy Lords (2014)

Earth & F.H.B. – Coming Of The Heavy Lords (2014)
EAC Rip | FLAC (Img) + Cue + Log ~ 220 Mb | MP3 CBR320 ~ 87 Mb
Scans Included (JPG, 600 dpi) | RAR 5% Recovery
Hard Rock | Great Barrier Records #GBR 52 0 47

Collection of rare material from Earth (Pre – Black Sabbath) and Flying Hat Band (Pre – Judas Priest) Earth are no others than the previous incarnation of Black Sabbath in 1969! The Flying Hat Band is the band Glenn Tipton had before joining Judas Priest in 1974. The Earth demo sessions are comprised of 3 heavy bluesy numbers and one cover of "Blue Suede Shoes" already when they changed their name to Black Sabbath. The F.H.B. have a similar sound to Sabbath but also makes remember other bands of the time like Horse, Fuzzy Duck or even Hard Stuff. Four songs were recorded with good quality sound as a demo in 1973 featuring the heavy blues guitar wailing of this later-to-be Metal master.

Discogs

***************

Earth & F.H.B. - Coming Of The Heavy Lords (2014)

Earth & F.H.B. - Coming Of The Heavy Lords (2014)

Track List:

01. The Rebel [2:47]
02. When I Came Down [2:06]
03. Early One Morning [4:47]
04. Blue Suede Shoes [2:06]
05. Seventh Plain [2:54]
06. Reaching for the Stars [4:40]
07. Lost Time [2:44]
08. Coming of the Lord [6:38]

EAC Log
Exact Audio Copy V1.3 from 2. September 2016

EAC extraction logfile from 13. July 2017, 15:10

Earth & F.H.B. / Coming of the Heavy Lords

Used drive : TSSTcorpCDDVDW TS-L633B Adapter: 1 ID: 0

Read mode : Secure
Utilize accurate stream : Yes
Defeat audio cache : Yes
Make use of C2 pointers : No

Read offset correction : 6
Overread into Lead-In and Lead-Out : No
Fill up missing offset samples with silence : Yes
Delete leading and trailing silent blocks : No
Null samples used in CRC calculations : Yes
Used interface : Native Win32 interface for Win NT & 2000

Used output format : Internal WAV Routines
Sample format : 44.100 Hz; 16 Bit; Stereo

TOC of the extracted CD

Track | Start | Length | Start sector | End sector
––––––––––––––––––––––––––––-
1 | 0:00.00 | 2:47.03 | 0 | 12527
2 | 2:47.03 | 2:05.44 | 12528 | 21946
3 | 4:52.47 | 4:46.51 | 21947 | 43447
4 | 9:39.23 | 2:06.26 | 43448 | 52923
5 | 11:45.49 | 2:53.46 | 52924 | 65944
6 | 14:39.20 | 4:39.50 | 65945 | 86919
7 | 19:18.70 | 2:44.02 | 86920 | 99221
8 | 22:02.72 | 6:38.22 | 99222 | 129093

Range status and errors

Selected range

Filename F:AlexharveyEarth & F.H.B. – Coming of the Heavy Lords.wav

Peak level 100.0 %
Extraction speed 2.6 X
Range quality 100.0 %
Test CRC B0E5AD1F
Copy CRC B0E5AD1F
Copy OK

No errors occurred

AccurateRip summary

Track 1 not present in database
Track 2 not present in database
Track 3 not present in database
Track 4 not present in database
Track 5 not present in database
Track 6 not present in database
Track 7 not present in database
Track 8 not present in database

None of the tracks are present in the AccurateRip database

End of status report

–– CUETools DB Plugin V2.1.6

[CTDB TOCID: LEivUXHDIbHjnraHa4NuRMlzVGc-] found
Submit result: LEivUXHDIbHjnraHa4NuRMlzVGc- has been confirmed
Track | CTDB Status
1 | (1/1) Accurately ripped
2 | (1/1) Accurately ripped
3 | (1/1) Accurately ripped
4 | (1/1) Accurately ripped
5 | (1/1) Accurately ripped
6 | (1/1) Accurately ripped
7 | (1/1) Accurately ripped
8 | (1/1) Accurately ripped

==== Log checksum 13613E099C9B5E07EDB6593768F4F4FD066A79060BFD570A75D3AAE16C865743 ====

DR Log
foobar2000 1.2.6 / Dynamic Range Meter 1.1.1
log date: 2017-07-14 01:50:57

––––––––––––––––––––––––––––––––––––––––
Analyzed: Earth / Coming of the Heavy Lords (1-3)
F.H.B. / Coming of the Heavy Lords (4-7)
––––––––––––––––––––––––––––––––––––––––

DR Peak RMS Duration Track
––––––––––––––––––––––––––––––––––––––––
DR10 -1.90 dB -14.11 dB 2:47 01-The Rebel
DR8 -2.89 dB -13.26 dB 2:06 02-When I Came Down
DR9 -1.04 dB -10.99 dB 4:47 03-Early One Morning
DR11 -0.03 dB -12.74 dB 2:54 05-Seventh Plain
DR12 -0.06 dB -14.09 dB 4:40 06-Reaching for the Stars
DR13 -0.06 dB -16.21 dB 2:44 07-Lost Time
DR13 0.00 dB -15.20 dB 6:38 08-Coming of the Lord
––––––––––––––––––––––––––––––––––––––––

Number of tracks: 7
Official DR value: DR11

Samplerate: 44100 Hz
Channels: 2
Bits per sample: 16
Bitrate: 937 kbps
Codec: FLAC
================================================================================

CUETools Log
[CUETools log; Date: 14.07.2017 1:50:46; Version: 2.1.5]
[CTDB TOCID: LEivUXHDIbHjnraHa4NuRMlzVGc-] found.
Track | CTDB Status
1 | (2/2) Accurately ripped
2 | (2/2) Accurately ripped
3 | (2/2) Accurately ripped
4 | (2/2) Accurately ripped
5 | (2/2) Accurately ripped
6 | (2/2) Accurately ripped
7 | (2/2) Accurately ripped
8 | (2/2) Accurately ripped
[AccurateRip ID: 0007d01c-00353d12-6006b908] disk not present in database.

Track Peak [ CRC32 ] [W/O NULL] [ LOG ]
– 100,0 [B0E5AD1F] [B19A0230] CRC32
01 80,3 [F2CED1C3] [29C34C68]
02 71,6 [73D9DD67] [63183328]
03 88,6 [AABE8F90] [C3105508]
04 83,7 [6F873EFD] [ED53B18F]
05 99,6 [33A28AA3] [AF86CB7D]
06 99,3 [0D838502] [5E28E2F5]
07 99,3 [ECDCA5D6] [7931CF78]
08 100,0 [A2C523D8] [9992E109]

Earth & F.H.B. - Coming Of The Heavy Lords (2014)

All thanks go to Alexharvey

>>> My Blog <<<

Download from icerbox.com:

Earth & F.H.B. – Coming Of The Heavy Lords (2014) Download, Warez, DDL, Free, Full Album, Torrent, Legal.

Download