Duke Ellington – Forever Gold (1999)

Download
Duke Ellington - Forever Gold (1999)

Duke Ellington – Forever Gold (1999)
EAC Rip | FLAC with CUE and log | scans | 172 mb
MP3 CBR 320kbps | RAR | 109 mb
Genre: jazz, big band, swing

Forever Gold is a 1999 compilation CD by American jazz great Duke Ellington. Released by St. Clair Entertainment Group, there is no information on the source of these recordings but they are songs which were made famous by Ellington and his band throughout their lives.

Duke Ellington - Forever Gold (1999)

01. Take The ”A” Train
02. Caravan
03. Sophisticated Lady
04. Perdido
05. Come Rain Or Come Shine
06. Passion Flower
07. Primpin’ At The Prom
08. Honeysuckle Rose
09. Satin Doll
10. Mood Indigo
11. Pretty Woman
12. 9-20 Special
13. How High The Moon
14. Crosstown

EAC Log
Exact Audio Copy V1.1 from 23. June 2015

EAC extraction logfile from 31. January 2017, 16:25

Duke Ellington / Forever Gold

Used drive : TEAC DVD-ROM DV-28SW Adapter: 1 ID: 0

Read mode : Secure
Utilize accurate stream : Yes
Defeat audio cache : Yes
Make use of C2 pointers : No

Read offset correction : 6
Overread into Lead-In and Lead-Out : No
Fill up missing offset samples with silence : Yes
Delete leading and trailing silent blocks : No
Null samples used in CRC calculations : Yes
Used interface : Native Win32 interface for Win NT & 2000
Gap handling : Appended to previous track

Used output format : Internal WAV Routines
Sample format : 44.100 Hz; 16 Bit; Stereo

TOC of the extracted CD

Track | Start | Length | Start sector | End sector
––––––––––––––––––––––––––––-
1 | 0:00.00 | 3:02.70 | 0 | 13719
2 | 3:02.70 | 2:49.26 | 13720 | 26420
3 | 5:52.21 | 3:00.64 | 26421 | 39984
4 | 8:53.10 | 2:24.66 | 39985 | 50850
5 | 11:18.01 | 2:46.65 | 50851 | 63365
6 | 14:04.66 | 3:29.59 | 63366 | 79099
7 | 17:34.50 | 3:06.72 | 79100 | 93121
8 | 20:41.47 | 3:17.42 | 93122 | 107938
9 | 23:59.14 | 9:04.34 | 107939 | 148772
10 | 33:03.48 | 5:06.48 | 148773 | 171770
11 | 38:10.21 | 2:48.32 | 171771 | 184402
12 | 40:58.53 | 2:58.46 | 184403 | 197798
13 | 43:57.24 | 2:31.53 | 197799 | 209176
14 | 46:29.02 | 2:48.07 | 209177 | 221783

Track 1

Filename C:My DocumentsMy FLACDuke Ellington – Forever Gold (1999) [FLAC]1 – Take The ”A” Train.wav

Pre-gap length 0:00:02.00

Peak level 73.5 %
Extraction speed 2.0 X
Track quality 99.9 %
Test CRC E37E7665
Copy CRC E37E7665
Accurately ripped (confidence 3) [6F7FE192] (AR v2)
Copy OK

Track 2

Filename C:My DocumentsMy FLACDuke Ellington – Forever Gold (1999) [FLAC]2 – Caravan.wav

Pre-gap length 0:00:01.46

Peak level 67.6 %
Extraction speed 2.6 X
Track quality 100.0 %
Test CRC 7F1DB62E
Copy CRC 7F1DB62E
Accurately ripped (confidence 3) [9B6D2F52] (AR v2)
Copy OK

Track 3

Filename C:My DocumentsMy FLACDuke Ellington – Forever Gold (1999) [FLAC]3 – Sophisticated Lady.wav

Pre-gap length 0:00:00.54

Peak level 97.4 %
Extraction speed 2.9 X
Track quality 100.0 %
Test CRC 250796CC
Copy CRC 250796CC
Accurately ripped (confidence 3) [B9E1263C] (AR v2)
Copy OK

Track 4

Filename C:My DocumentsMy FLACDuke Ellington – Forever Gold (1999) [FLAC]4 – Perdido.wav

Pre-gap length 0:00:01.54

Peak level 66.6 %
Extraction speed 2.9 X
Track quality 100.0 %
Test CRC A9CC14BB
Copy CRC A9CC14BB
Accurately ripped (confidence 3) [29199408] (AR v2)
Copy OK

Track 5

Filename C:My DocumentsMy FLACDuke Ellington – Forever Gold (1999) [FLAC]5 – Come Rain Or Come Shine.wav

Pre-gap length 0:00:02.11

Peak level 79.8 %
Extraction speed 3.2 X
Track quality 100.0 %
Test CRC A97432BC
Copy CRC A97432BC
Accurately ripped (confidence 3) [6BAD124D] (AR v2)
Copy OK

Track 6

Filename C:My DocumentsMy FLACDuke Ellington – Forever Gold (1999) [FLAC]6 – Passion Flower.wav

Pre-gap length 0:00:01.70

Peak level 89.2 %
Extraction speed 2.9 X
Track quality 99.9 %
Test CRC 69AF5FEE
Copy CRC 69AF5FEE
Accurately ripped (confidence 3) [F4265F89] (AR v2)
Copy OK

Track 7

Filename C:My DocumentsMy FLACDuke Ellington – Forever Gold (1999) [FLAC]7 – Primpin’ At The Prom.wav

Pre-gap length 0:00:02.50

Peak level 69.9 %
Extraction speed 3.7 X
Track quality 100.0 %
Test CRC 79441A61
Copy CRC 79441A61
Accurately ripped (confidence 3) [8C8B6EC6] (AR v2)
Copy OK

Track 8

Filename C:My DocumentsMy FLACDuke Ellington – Forever Gold (1999) [FLAC]8 – Honeysuckle Rose.wav

Pre-gap length 0:00:01.63

Peak level 88.0 %
Extraction speed 3.1 X
Track quality 99.9 %
Test CRC DBB408FE
Copy CRC DBB408FE
Accurately ripped (confidence 3) [F003AAE3] (AR v2)
Copy OK

Track 9

Filename C:My DocumentsMy FLACDuke Ellington – Forever Gold (1999) [FLAC]9 – Satin Doll.wav

Pre-gap length 0:00:02.21

Peak level 100.0 %
Extraction speed 4.2 X
Track quality 99.9 %
Test CRC 2DE1144A
Copy CRC 2DE1144A
Accurately ripped (confidence 3) [D0636088] (AR v2)
Copy OK

Track 10

Filename C:My DocumentsMy FLACDuke Ellington – Forever Gold (1999) [FLAC]10 – Mood Indigo.wav

Pre-gap length 0:00:01.55

Peak level 84.8 %
Extraction speed 4.3 X
Track quality 100.0 %
Test CRC 6EC2208A
Copy CRC 6EC2208A
Accurately ripped (confidence 3) [6EE37579] (AR v2)
Copy OK

Track 11

Filename C:My DocumentsMy FLACDuke Ellington – Forever Gold (1999) [FLAC]11 – Pretty Woman.wav

Pre-gap length 0:00:02.58

Peak level 98.9 %
Extraction speed 4.2 X
Track quality 100.0 %
Test CRC 6A2CEF5D
Copy CRC 6A2CEF5D
Accurately ripped (confidence 3) [496C8EFB] (AR v2)
Copy OK

Track 12

Filename C:My DocumentsMy FLACDuke Ellington – Forever Gold (1999) [FLAC]12 – 9-20 Special.wav

Pre-gap length 0:00:02.15

Peak level 90.5 %
Extraction speed 3.5 X
Track quality 99.9 %
Test CRC 2267BA8F
Copy CRC 2267BA8F
Accurately ripped (confidence 3) [F9ED7001] (AR v2)
Copy OK

Track 13

Filename C:My DocumentsMy FLACDuke Ellington – Forever Gold (1999) [FLAC]13 – How High The Moon.wav

Pre-gap length 0:00:02.20

Peak level 56.5 %
Extraction speed 3.4 X
Track quality 99.9 %
Test CRC 2B570B8A
Copy CRC 2B570B8A
Accurately ripped (confidence 3) [2AEF9E43] (AR v2)
Copy OK

Track 14

Filename C:My DocumentsMy FLACDuke Ellington – Forever Gold (1999) [FLAC]14 – Crosstown.wav

Pre-gap length 0:00:01.03

Peak level 52.7 %
Extraction speed 3.1 X
Track quality 100.0 %
Test CRC EBC97876
Copy CRC EBC97876
Accurately ripped (confidence 3) [E299D354] (AR v2)
Copy OK

All tracks accurately ripped

No errors occurred

End of status report

–– CUETools DB Plugin V2.1.6

[CTDB TOCID: EEUTMXVqD.qI9Hm4m.lqvs0UCOM-] found
Submit result: EEUTMXVqD.qI9Hm4m.lqvs0UCOM- has been confirmed
Track | CTDB Status
1 | (7/7) Accurately ripped
2 | (7/7) Accurately ripped
3 | (7/7) Accurately ripped
4 | (7/7) Accurately ripped
5 | (7/7) Accurately ripped
6 | (7/7) Accurately ripped
7 | (7/7) Accurately ripped
8 | (7/7) Accurately ripped
9 | (7/7) Accurately ripped
10 | (7/7) Accurately ripped
11 | (7/7) Accurately ripped
12 | (7/7) Accurately ripped
13 | (7/7) Accurately ripped
14 | (7/7) Accurately ripped

==== Log checksum DF86394271E19FAD9F1BAA386C9C4914A18B972ECCB6340927EE95D5BED37199 ====

Duke Ellington - Forever Gold (1999)

Duke Ellington – Forever Gold (1999) Download, Warez, DDL, Free, Full Album, Torrent, Legal.

Download