Duello Madre – Duello Madre (1973) [Reissue 1993] | ViralVideoPk

Daily Dose of Free Downloads

Duello Madre – Duello Madre (1973) [Reissue 1993]

Download

Duello Madre - Duello Madre (1973) [Reissue 1993]

Duello Madre – Duello Madre (1973) [Reissue 1993]
EAC Rip | APE (image+.cue+log) – 181 MB | MP3 CBR 320 kbps (LAME 3.93) – 86 MB | Covers – 18 MB
Genre: Progressive/Jazz Rock | RAR 3% Rec. | Label: Mellow Records (MMP 180)

Duello Madre was an Italian group that released one album in the seventies. The group consisted of Pippo Trentin (saxophone, flute), Marco Zoccheddu (guitars), Bob Callero (bass) and Dede Lo Previte (drums). Many of the band members have been in other Italian groups. Zoccheddu has also been a member of Nuova Idea and Osage Tribe, Callero a member of Osage Tribe and Il Volo, and Lo Previte a member of Circus 2000 and Nova. The only album, simply titled "Duello Madre", was released in 1973. It is a jazz oriented, mostly instrumental album. Only the first track includes some minimal vocals. The musicianship in this album is good and it occasionally results in jamming like playing. Nice saxophone playing by Pippo Trentin is most notable. The rhythm section deserves a mention too.

Progarchives

Tracklist:
01. Aquile Blu
02. Momento
03. Otto
04. Madre
05. Duello

Total time: 36:40

EAC log
Exact Audio Copy V0.99 prebeta 5 from 4. May 2009

EAC extraction logfile from 19. May 2010, 21:16

Duello Madre / Duello Madre

Used drive : TSSTcorpDVD+-RW TS-U633A Adapter: 0 ID: 1

Read mode : Secure
Utilize accurate stream : Yes
Defeat audio cache : Yes
Make use of C2 pointers : No

Read offset correction : 6
Overread into Lead-In and Lead-Out : No
Fill up missing offset samples with silence : Yes
Delete leading and trailing silent blocks : No
Null samples used in CRC calculations : Yes
Used interface : Native Win32 interface for Win NT & 2000

Used output format : Internal WAV Routines
Sample format : 44.100 Hz; 16 Bit; Stereo

TOC of the extracted CD

Track | Start | Length | Start sector | End sector
––––––––––––––––––––––––––––-
1 | 0:00.32 | 6:54.65 | 32 | 31146
2 | 6:55.22 | 5:29.13 | 31147 | 55834
3 | 12:24.35 | 5:58.07 | 55835 | 82691
4 | 18:22.42 | 10:22.65 | 82692 | 129406
5 | 28:45.32 | 7:55.00 | 129407 | 165031

Range status and errors

Selected range

Filename C:_ArcEAC_OutDuello Madre – Duello MadreDuello Madre – Duello Madre.wav

Peak level 82.6 %
Range quality 100.0 %
Copy CRC 2FBE4654
Copy OK

No errors occurred

AccurateRip summary

Track 1 not present in database
Track 2 not present in database
Track 3 not present in database
Track 4 not present in database
Track 5 not present in database

None of the tracks are present in the AccurateRip database

End of status report

CUETools log
[CUETools log; Date: 24.12.2016 2:49:28; Version: 2.1.4]
Pregap length 00:00:32.
[CTDB TOCID: RgD8UcGCYc2yalWI0PZa5dZZrfE-] found.
Track | CTDB Status
1 | (4/4) Accurately ripped
2 | (4/4) Accurately ripped
3 | (4/4) Accurately ripped
4 | (4/4) Accurately ripped
5 | (4/4) Accurately ripped
[AccurateRip ID: 00071511-00218942-36089805] found.
Track [ CRC | V2 ] Status
01 [235b74fa|e092b655] (0+0/2) No match
02 [3af759a5|6c4699cb] (0+0/2) No match
03 [0b010a31|8ed9c628] (0+0/2) No match
04 [e2b53455|80cf0cb0] (0+0/2) No match
05 [44a8d476|ffad1f2e] (0+0/2) No match
Offsetted by -1294:
01 [26e88dec] (2/2) Accurately ripped
02 [9b60bd9d] (2/2) Accurately ripped
03 [e95a4e89] (2/2) Accurately ripped
04 [b24fb3b5] (2/2) Accurately ripped
05 [405306da] (2/2) Accurately ripped

Track Peak [ CRC32 ] [W/O NULL] [ LOG ]
– 82,6 [2FBE4654] [E30E3F02] CRC32
01 82,6 [F880C789] [2A8D764D]
02 74,5 [7A8EA5D4] [7038014F]
03 69,6 [0A080BD0] [F978B9ED]
04 62,1 [BAF274E9] [9BC3BD71]
05 73,2 [D7718C62] [B0484AEE]

Thanks to barin99

Welcome to My Blog!

Duello Madre – Duello Madre (1973) [Reissue 1993] Download, Warez, DDL, Free, Full Album, Torrent, Legal.

Download


  • Recent Posts

  • Recent Tags