Dream Machine – The Illusion (2017)

Download
Dream Machine - The Illusion (2017)

Dream Machine – The Illusion (2017)
EAC Rip | FLAC (Tracks) +cue, log, m3u, scans – 245 MB | 00:34:16
Pop Rock, Psychedelic Rock, Garage Rock | Label: Castle Face Records

The debut album from ex-Warm Soda bandleader Matthew Melton’s ostensibly retro sounding psych-rock manifestation Dream Machine, The Illusion invokes names like Iron Butterfly, Heart, Deep Purple, Strawberry Alarm Clock, and the Doors. The logical next sonic step for the Austin, Texas-based artist’s quartet (Warm Soda was a period-specific sounding power-pop unit), which also includes Melton’s wife Doris on organ, synth, and vocals, Ruth Spencer on bass and vocals, and Dillon Fernandez on drums, have certainly captured the sound of the era, even going so far as to record their instruments tuned to 432 Hertz (a frequency that some audiophiles feel is more pure, and even transmits healing energy), not the standard 440. They also got the look down via a deep purple (go figure) album jacket with Melton dressed like hirsute ’70 magician Doug Henning while Doris levitates beneath his magic fingertips. What they don’t have are any original ideas, with each track working off a template that usually starts with a bluesy, minor guitar lick that eventually locks up with the organ and bass, and then makes its way into a chorus that sounds like a confluence of the Electric Prunes’ "I Had Too Much to Dream Last Night" and Jefferson Airplane’s "Somebody to Love." There are a few moments when the band flirt with innovation (the dreamy "Nothing Left" and "Weeping Statue" suggest that their musical interests extend beyond " In-A-Gadda-Da-Vida"), but the aptly named Illusion is a confection of the highest order; it’s meticulously crafted and expertly rendered, but so are most sugar cereals.

TRACKLIST

01. The Illusion
02. Eye For An Eye
03. I Walked In The Fire
04. Buried Alive
05. Torn From The Hands Of Another
06. All For A Chance
07. Lose My Place In Time
08. Caught In A Trap
09. Nothing Left
10. Back To You
11. Weeping Statue

EAC
Exact Audio Copy V1.3 from 2. September 2016

EAC extraction logfile from 21. June 2017, 21:30

Dream Machine / The Illusion

Used drive : TSSTcorpCDDVDW SH-224DB Adapter: 1 ID: 0

Read mode : Secure
Utilize accurate stream : Yes
Defeat audio cache : Yes
Make use of C2 pointers : No

Read offset correction : 6
Overread into Lead-In and Lead-Out : No
Fill up missing offset samples with silence : Yes
Delete leading and trailing silent blocks : No
Null samples used in CRC calculations : Yes
Used interface : Native Win32 interface for Win NT & 2000
Gap handling : Appended to previous track

Used output format : User Defined Encoder
Selected bitrate : 1024 kBit/s
Quality : High
Add ID3 tag : No
Command line compressor : C:Program Files (x86)Exact Audio CopyFlacflac.exe
Additional command line options : -8 -V -T "ARTIST=%artist%" -T "TITLE=%title%" -T "ALBUM=%albumtitle%" -T "DATE=%year%" -T "TRACKNUMBER=%tracknr%" -T "GENRE=%genre%" -T "PERFORMER=%albuminterpret%" -T "COMPOSER=%composer%" %haslyrics%–tag-from-file=LYRICS="%lyricsfile%"%haslyrics% -T "ALBUMARTIST=%albumartist%" -T "DISCNUMBER=%cdnumber%" -T "TOTALDISCS=%totalcds%" -T "TOTALTRACKS=%numtracks%" -T "COMMENT=%comment%" %hascover%–picture="%coverfile%"%hascover% %source% -o %dest%

TOC of the extracted CD

Track | Start | Length | Start sector | End sector
––––––––––––––––––––––––––––-
1 | 0:00.00 | 3:20.38 | 0 | 15037
2 | 3:20.38 | 2:33.72 | 15038 | 26584
3 | 5:54.35 | 2:20.00 | 26585 | 37084
4 | 8:14.35 | 3:42.72 | 37085 | 53806
5 | 11:57.32 | 3:00.00 | 53807 | 67306
6 | 14:57.32 | 2:13.48 | 67307 | 77329
7 | 17:11.05 | 3:16.72 | 77330 | 92101
8 | 20:28.02 | 2:53.19 | 92102 | 105095
9 | 23:21.21 | 2:49.70 | 105096 | 117840
10 | 26:11.16 | 4:49.57 | 117841 | 139572
11 | 31:00.73 | 3:20.49 | 139573 | 154621

Track 1

Filename D:UsersjpaulMusicneraissa13Dream Machine – The Illusion1 – The Illusion.wav

Pre-gap length 0:00:02.00

Peak level 98.8 %
Extraction speed 1.4 X
Track quality 99.9 %
Test CRC 3F4BBAD5
Copy CRC 3F4BBAD5
Track not present in AccurateRip database
Copy OK

Track 2

Filename D:UsersjpaulMusicneraissa13Dream Machine – The Illusion2 – Eye For An Eye.wav

Peak level 98.8 %
Extraction speed 1.7 X
Track quality 100.0 %
Test CRC 0C3EE9D3
Copy CRC 0C3EE9D3
Track not present in AccurateRip database
Copy OK

Track 3

Filename D:UsersjpaulMusicneraissa13Dream Machine – The Illusion3 – I Walked In The Fire.wav

Peak level 98.8 %
Extraction speed 1.7 X
Track quality 100.0 %
Test CRC D541571C
Copy CRC D541571C
Track not present in AccurateRip database
Copy OK

Track 4

Filename D:UsersjpaulMusicneraissa13Dream Machine – The Illusion4 – Buried Alive.wav

Peak level 98.8 %
Extraction speed 2.0 X
Track quality 100.0 %
Test CRC 62A19188
Copy CRC 62A19188
Track not present in AccurateRip database
Copy OK

Track 5

Filename D:UsersjpaulMusicneraissa13Dream Machine – The Illusion5 – Torn From The Hands Of Another.wav

Peak level 98.8 %
Extraction speed 2.1 X
Track quality 100.0 %
Test CRC B11F18BC
Copy CRC B11F18BC
Track not present in AccurateRip database
Copy OK

Track 6

Filename D:UsersjpaulMusicneraissa13Dream Machine – The Illusion6 – All For A Chance.wav

Peak level 98.8 %
Extraction speed 2.0 X
Track quality 100.0 %
Test CRC C447EA8C
Copy CRC C447EA8C
Track not present in AccurateRip database
Copy OK

Track 7

Filename D:UsersjpaulMusicneraissa13Dream Machine – The Illusion7 – Lose My Place In Time.wav

Peak level 98.8 %
Extraction speed 2.3 X
Track quality 100.0 %
Test CRC 8AFF2794
Copy CRC 8AFF2794
Track not present in AccurateRip database
Copy OK

Track 8

Filename D:UsersjpaulMusicneraissa13Dream Machine – The Illusion8 – Caught In A Trap.wav

Peak level 98.8 %
Extraction speed 2.0 X
Track quality 99.9 %
Test CRC 1E353AD4
Copy CRC 1E353AD4
Track not present in AccurateRip database
Copy OK

Track 9

Filename D:UsersjpaulMusicneraissa13Dream Machine – The Illusion9 – Nothing Left.wav

Peak level 98.8 %
Extraction speed 2.4 X
Track quality 100.0 %
Test CRC 90DFB327
Copy CRC 90DFB327
Track not present in AccurateRip database
Copy OK

Track 10

Filename D:UsersjpaulMusicneraissa13Dream Machine – The Illusion10 – Back To You.wav

Peak level 98.8 %
Extraction speed 2.8 X
Track quality 100.0 %
Test CRC B72356EA
Copy CRC B72356EA
Track not present in AccurateRip database
Copy OK

Track 11

Filename D:UsersjpaulMusicneraissa13Dream Machine – The Illusion11 – Weeping Statue.wav

Peak level 98.8 %
Extraction speed 2.7 X
Track quality 100.0 %
Test CRC A7B1ED79
Copy CRC A7B1ED79
Track not present in AccurateRip database
Copy OK

None of the tracks are present in the AccurateRip database

No errors occurred

End of status report

–– CUETools DB Plugin V2.1.6

[CTDB TOCID: qiFor4aEwakiuu67nw.g2yl41lM-] found
Submit result: qiFor4aEwakiuu67nw.g2yl41lM- has been confirmed
Track | CTDB Status
1 | (1/1) Accurately ripped
2 | (1/1) Accurately ripped
3 | (1/1) Accurately ripped
4 | (1/1) Accurately ripped
5 | (1/1) Accurately ripped
6 | (1/1) Accurately ripped
7 | (1/1) Accurately ripped
8 | (1/1) Accurately ripped
9 | (1/1) Accurately ripped
10 | (1/1) Accurately ripped
11 | (1/1) Accurately ripped

==== Log checksum 2A6066946D00D8CFE2E5D51C731AC010DCC6469C236A8F71A755012636903D5D ====

All thanks go to the original releaser

Dream Machine – The Illusion (2017) Download, Warez, DDL, Free, Full Album, Torrent, Legal.

Download