Download Jeff Beck – Loud Hailer (2016)

Download
Jeff Beck - Loud Hailer (2016)

Jeff Beck – Loud Hailer (2016)
EAC Rip | FLAC (tracks & cue & log) | 282 MB | MP3 CBR 320 kbps | 105 MB | Artwork (PNG) | 78 MB | 45:08
Genre: Blues Rock / Alt. Rock | Country: UK | Label: ATCO Records | 081227944452

LOUD HAILER, legendary guitarist Jeff Beck’s first studio album in six years, combines fluid fretwork with topical lyrics to make a powerful statement about everything from the love of power, to the power of love. Loud hailer, which is another name for a megaphone, is a suitable moniker for an album that isn’t shy about speaking its mind. The two-time Rock and Roll Hall of Famer explains, "I really wanted to make a statement about some of the nasty things I see going on in the world today, and I loved the idea of being at a rally and using this loud device to shout my point of view."

Jeff Beck - Loud Hailer (2016)

Arriving six years after Emotion & Commotion, a largely instrumental album that found Jeff Beck pushing at his prog boundaries, Loud Hailer is a very different beast than its predecessor. Revived by the presence of two female collaborators – vocalist Rosie Bones and guitarist Carmen Vandenberg, both proving to be worthy sparring partners – Beck returns to gnarled, loud guitar rock on Loud Hailer, not so much reveling in the psychedelic skronk of the Yardbirds or the heavy stomp of the Jeff Beck Group but favoring an arena-ready rock that places an emphasis on such old-fashioned values as chops and social consciousness. The latter helps Loud Hailer feel tied to its time: Bones sings about reality television, loss of innocence, and any number of ills plaguing modern society. That Loud Hailer doesn’t feel especially contemporary isn’t much of a drawback: perhaps Beck doesn’t truck with the sounds of the 2010s – "Shame" quite clearly uses "A Change Is Gonna Come" as its template – but he’s not in revivalist mode, either, choosing to use his personal overblown traditions as a way to sound other. As always, his playing is startling: he’s restless and exploratory, as susceptible to lyricism as he is to outright noise, and what makes his performance better is how he always cedes the spotlight to Rosie Bones. Letting his vocalist be the focal point winds up giving his guitar a boost, letting it command attention even in short bursts. Sometimes, the old-fashionedness can lead Beck and band toward embarrassing territory – the funk workout of "O.I.L. (Can’t Get Enough of That Sticky)" inspires cringes – but usually it allows everybody space to stretch out, to let Beck turn out great squalls of feedback and sweet runs while still retaining the attention on the song. Compared to the floating ambition of Emotion & Commotion, this album feels invigorating and suggests that Beck doesn’t want to rest on his laurels, even if he’s not fully committed to embracing the turmoil of the present.

Review by Stephen Thomas Erlewine
Jeff Beck - Loud Hailer (2016)
Wikipedia | Allmusic | Discogs

Tracklist :

01. – The Revolution Will Be Televised (3:52)
02. – Live In The Dark (3:47)
03. – Pull It (2:09)
04. – Thugs Club (5:15)
05. – Scared For The Children (6:07)
06. – Right Now (3:57)
07. – Shame (4:40)
08. – Edna (1:03)
09. – The Ballad Of The Jersey Wives (3:50)
10. – O.I.L. (4:41)
11. – Shrine (5:47)

EAC log
Exact Audio Copy V1.0 beta 3 from 29. August 2011

EAC extraction logfile from 15. August 2016, 19:34

Jeff Beck / Loud Hailer

Used drive : ASUS DRW-24F1MT Adapter: 5 ID: 1

Read mode : Secure
Utilize accurate stream : Yes
Defeat audio cache : Yes
Make use of C2 pointers : No

Read offset correction : 6
Overread into Lead-In and Lead-Out : No
Fill up missing offset samples with silence : Yes
Delete leading and trailing silent blocks : No
Null samples used in CRC calculations : Yes
Used interface : Native Win32 interface for Win NT & 2000
Gap handling : Appended to previous track

Used output format : User Defined Encoder
Selected bitrate : 1024 kBit/s
Quality : High
Add ID3 tag : No
Command line compressor : C:Program FilesEAC1.3Flacflac.exe
Additional command line options : -8 -V -T "ARTIST=%artist%" -T "TITLE=%title%" -T "ALBUM=%albumtitle%" -T "DATE=%year%" -T "TRACKNUMBER=%tracknr%" -T "TOTALTRACKS=%numtracks%" -T "GENRE=%genre%" -T "ALBUMARTIST=%albumartist%" -T "ALBUM ARTIST=%albumartist%" -T "COMMENT=EAC Secure Mode, Test & Copy, AccurateRip, FLAC -8" %source%

TOC of the extracted CD

Track | Start | Length | Start sector | End sector
––––––––––––––––––––––––––––-
1 | 0:00.00 | 3:52.33 | 0 | 17432
2 | 3:52.33 | 3:47.24 | 17433 | 34481
3 | 7:39.57 | 2:09.23 | 34482 | 44179
4 | 9:49.05 | 5:14.49 | 44180 | 67778
5 | 15:03.54 | 6:06.48 | 67779 | 95276
6 | 21:10.27 | 3:56.49 | 95277 | 113025
7 | 25:07.01 | 4:39.73 | 113026 | 134023
8 | 29:46.74 | 1:03.26 | 134024 | 138774
9 | 30:50.25 | 3:49.41 | 138775 | 155990
10 | 34:39.66 | 4:40.48 | 155991 | 177038
11 | 39:20.39 | 5:46.71 | 177039 | 203059

Track 1

Filename C:EACcd1 – The Revolution Will Be Televised.wav

Pre-gap length 0:00:02.00

Peak level 94.3 %
Extraction speed 1.7 X
Track quality 100.0 %
Test CRC CC321B0F
Copy CRC CC321B0F
Accurately ripped (confidence 12) [AF30BA28] (AR v2)
Copy OK

Track 2

Filename C:EACcd2 – Live In The Dark.wav

Peak level 94.3 %
Extraction speed 1.8 X
Track quality 100.0 %
Test CRC 0D850833
Copy CRC 0D850833
Accurately ripped (confidence 12) [E7B8C178] (AR v2)
Copy OK

Track 3

Filename C:EACcd3 – Pull It.wav

Peak level 94.3 %
Extraction speed 1.8 X
Track quality 100.0 %
Test CRC B339D44F
Copy CRC B339D44F
Accurately ripped (confidence 12) [659B1C8B] (AR v2)
Copy OK

Track 4

Filename C:EACcd4 – Thugs Club.wav

Peak level 94.3 %
Extraction speed 2.2 X
Track quality 100.0 %
Test CRC 90A7C488
Copy CRC 90A7C488
Accurately ripped (confidence 12) [631795C4] (AR v2)
Copy OK

Track 5

Filename C:EACcd5 – Scared For The Children.wav

Peak level 94.3 %
Extraction speed 2.5 X
Track quality 100.0 %
Test CRC 46758F81
Copy CRC 46758F81
Accurately ripped (confidence 12) [85B9EBF5] (AR v2)
Copy OK

Track 6

Filename C:EACcd6 – Right Now.wav

Peak level 94.3 %
Extraction speed 2.5 X
Track quality 100.0 %
Test CRC 0DB8A2E0
Copy CRC 0DB8A2E0
Accurately ripped (confidence 12) [27584603] (AR v2)
Copy OK

Track 7

Filename C:EACcd7 – Shame.wav

Peak level 92.5 %
Extraction speed 2.7 X
Track quality 100.0 %
Test CRC B55271F6
Copy CRC B55271F6
Accurately ripped (confidence 12) [29C5D199] (AR v2)
Copy OK

Track 8

Filename C:EACcd8 – Edna.wav

Peak level 89.0 %
Extraction speed 1.9 X
Track quality 100.0 %
Test CRC 8F86E19A
Copy CRC 8F86E19A
Accurately ripped (confidence 12) [B45D0F96] (AR v2)
Copy OK

Track 9

Filename C:EACcd9 – The Ballad Of The Jersey Wives.wav

Peak level 94.0 %
Extraction speed 2.8 X
Track quality 100.0 %
Test CRC 798D01D1
Copy CRC 798D01D1
Accurately ripped (confidence 12) [03F307BE] (AR v2)
Copy OK

Track 10

Filename C:EACcd10 – O.I.L..wav

Peak level 94.3 %
Extraction speed 3.0 X
Track quality 100.0 %
Test CRC 4FAB6E04
Copy CRC 4FAB6E04
Accurately ripped (confidence 12) [DFBC81EB] (AR v2)
Copy OK

Track 11

Filename C:EACcd11 – Shrine.wav

Peak level 93.7 %
Extraction speed 2.6 X
Track quality 99.9 %
Test CRC 31D2979C
Copy CRC 31D2979C
Accurately ripped (confidence 11) [35D4545A] (AR v2)
Copy OK

All tracks accurately ripped

No errors occurred

End of status report

–– CUETools DB Plugin V2.1.3

[CTDB TOCID: 7hQHbNYn_hVxfyZBJAcQMcfNGOs-] found, Submit result: 7hQHbNYn_hVxfyZBJAcQMcfNGOs- has been confirmed
[f081e2ae] (106/108) Accurately ripped
[54370e0b] (001/108) No match
[ffe99971] (001/108) No match

==== Log checksum 4E82BB1CD2A340C721DD9DD01725DECC458748D4A5E114389308C979F2B78569 ====

[CUETools log; Date: 16.08.2016 14:10:09; Version: 2.1.5]
[CTDB TOCID: 7hQHbNYn_hVxfyZBJAcQMcfNGOs-] found.
Track | CTDB Status
1 | (110/110) Accurately ripped
2 | (109/110) Accurately ripped
3 | (109/110) Accurately ripped
4 | (109/110) Accurately ripped
5 | (109/110) Accurately ripped
6 | (109/110) Accurately ripped
7 | (109/110) Accurately ripped
8 | (109/110) Accurately ripped
9 | (109/110) Accurately ripped
10 | (109/110) Accurately ripped
11 | (108/110) Accurately ripped
[AccurateRip ID: 0012058a-009ce40e-8e0a930b] found.
Track [ CRC | V2 ] Status
01 [d5712584|af30ba28] (02+12/14) Accurately ripped
02 [534bf92c|e7b8c178] (02+12/14) Accurately ripped
03 [b28a3d54|659b1c8b] (02+12/14) Accurately ripped
04 [e5be51e7|631795c4] (02+12/14) Accurately ripped
05 [f0bea784|85b9ebf5] (02+12/14) Accurately ripped
06 [42217348|27584603] (02+12/14) Accurately ripped
07 [c9c42ac8|29c5d199] (02+12/14) Accurately ripped
08 [b84127c8|b45d0f96] (02+12/14) Accurately ripped
09 [04b5332b|03f307be] (02+12/14) Accurately ripped
10 [207d1e55|dfbc81eb] (02+12/14) Accurately ripped
11 [3d482ed2|35d4545a] (00+11/11) Accurately ripped

Track Peak [ CRC32 ] [W/O NULL] [ LOG ]
– 94,3 [1A3F36A1] [BF5E8608]
01 94,3 [CC321B0F] [0E989C52] CRC32
02 94,3 [0D850833] [0243CE91] CRC32
03 94,3 [B339D44F] [C69A7707] CRC32
04 94,3 [90A7C488] [CAE18D8F] CRC32
05 94,3 [46758F81] [A9048227] CRC32
06 94,3 [0DB8A2E0] [C5862020] CRC32
07 92,5 [B55271F6] [DD49D20C] CRC32
08 89,0 [8F86E19A] [10A215D2] CRC32
09 94,0 [798D01D1] [BE564BF5] CRC32
10 94,3 [4FAB6E04] [2CD91AAF] CRC32
11 93,7 [31D2979C] [310C8887] CRC32

Musicians

Bass – Giovanni Pallotti
Drums – Davide Sollazzi
Lead Guitar – Jeff Beck
Rhythm Guitar – Carmen Vandenberg
Vocals – Rosie Bones

All thanks goes to the original releaser
=====

Jeff Beck – Loud Hailer (2016) Download, Warez, DDL, Free, Full Album, Torrent, Legal.

Download