Doug Sahm & The Sir Douglas Quintet – The Best Of Doug Sahm & The Sir Douglas Quintet 1968-1975 (1990)

Download
Doug Sahm & The Sir Douglas Quintet - The Best Of Doug Sahm & The Sir Douglas Quintet 1968-1975 (1990)

Doug Sahm & The Sir Douglas Quintet – The Best Of 1968-1975 (1990)
EAC | FLAC | Tracks (Cue&Log) ~ 456 Mb (incl 5%) | Mp3 (CBR320) ~ 185 Mb (incl 5%) | Scans included
Country-Rock, Rock & Roll, Blues-Rock, Tex-Mex | Label: Mercury | # 846 586-2 | Time: 01:12:46

Doug Sahm once sang, "You just can’t live in Texas if you don’t have a lot of soul," and, as a proud son of the Lone Star state, he seemed bent on proving that every time he stepped in front of a microphone. Whether he was playing roots rock, garage punk, blues, country, norteƱo, or (as was often the case) something that mixed up several of the above-mentioned ingredients, Doug Sahm always sounded like Doug Sahm – a little wild, a little loose, but always good company, and a guy with a whole lot of soul who knew a lot of musicians upon whom the same praise could be bestowed. Pulling together a single disc compilation that would make sense of the length and breadth of the artist’s recording career (which spanned five decades) would be just about impossible (the licensing hassles involved with the many labels involved would probably scotch such a project anyway), but this disc, which boasts 22 songs recorded over the course of eight years, is a pretty good starter for anyone wanting to get to know Sahm’s music. You get two almost-hits ("Mendocino" and "[Is Anybody Going To] San Antone"), a healthy portion of memorable album cuts, and even a few unreleased songs as Sir Doug and his pals (among them fellow future Texas Tornado Augie Meyers and Doug’s pal Bob Dylan) swing through vintage blues, country weepers, rootsy hippie jams, and a few cuts that defy convenient description, all dominated by Sahm’s warm, expressive drawl, distinctive guitar work, and the loose but emphatic sound he knew how to draw from a band. Put it this way – there’s one guy in a million who could write and record a song called "You Never Get Too Big and You Sure Don’t Get Too Heavy That You Don’t Have to Stop and Pay Some Dues Sometime" and not sound like a fool. Doug Sahm was that man, and you get to hear him sing it on The Best of Doug Sham, along with 21 other equally cool tunes.

Review by Mark Deming, Allmusic.com

Doug Sahm & The Sir Douglas Quintet - The Best Of Doug Sahm & The Sir Douglas Quintet 1968-1975 (1990)

The Sir Douglas Quintet at Allmusic
The Sir Douglas Quintet at Wiki
Doug Sahm at Wiki

Tracklist:

01. Mendocino (02:39)
02. Sunday Sunny Mill Valley Groove Day (03:26)
03. I’m Glad For Your Sake (But I’m Sorry For Mine) (03:39)
04. Texas Me (02:36)
05. You Never Get Too Big And You Sure Don’t Get Too Heavy That You Don’t Have To Stop And Pay Some Dues Sometime (03:18)
06. Song Of Everything (04:05)
07. Catch The Man On The Rise (02:20)
08. At The Crossroads (04:37)
09. In The Dark (03:00)
10. Nuevo Laredo (02:42)
11. I Wanna Be Your Mama Again (02:20)
12. I Don’t Want To Go Home (02:44)
13. Be Real (02:35)
14. Papa Ain’t Salty (03:51)
15. The Gypsy (03:32)
16. Wasted Days And Wasted Nights (03:37)
17. Michoacan (03:21)
18. Westside Blues Again (06:19)
19. (Is Anybody Going To) San Antone (03:04)
20. Texas Tornado (02:53)
21. Baby, Let’s Go To Mexico (02:43)
22. I’m Not That Kat Anymore (03:14)

EAC log
Exact Audio Copy V1.0 beta 1 from 15. November 2010

EAC extraction logfile from 25. April 2011, 20:50

Doug Sahm & The Sir Douglas Quintet / The Best Of 1968 – 1975

Used drive : SlimtypeeTAU208 2 Adapter: 1 ID: 0

Read mode : Secure
Utilize accurate stream : Yes
Defeat audio cache : Yes
Make use of C2 pointers : No

Read offset correction : 6
Overread into Lead-In and Lead-Out : No
Fill up missing offset samples with silence : Yes
Delete leading and trailing silent blocks : No
Null samples used in CRC calculations : Yes
Used interface : Native Win32 interface for Win NT & 2000
Gap handling : Appended to previous track

Used output format : User Defined Encoder
Selected bitrate : 256 kBit/s
Quality : High
Add ID3 tag : No
Command line compressor : C:Program FilesExact Audio CopyFlacflac.exe
Additional command line options : -8 -V -T "ARTIST=%a" -T "TITLE=%t" -T "ALBUM=%g" -T "DATE=%y" -T "TRACKNUMBER=%n" -T "TOTALTRACKS=%x" -T "GENRE=%m" -T "ALBUMARTIST=%v" -T "ALBUM ARTIST=%v" -T
"COMMENT=EAC Secure Mode, Test & Copy, AccurateRip, FLAC -8" %s

TOC of the extracted CD

Track | Start | Length | Start sector | End sector
––––––––––––––––––––––––––––-
1 | 0:00.33 | 2:39.05 | 33 | 11962
2 | 2:39.38 | 3:26.52 | 11963 | 27464
3 | 6:06.15 | 3:39.58 | 27465 | 43947
4 | 9:45.73 | 2:36.17 | 43948 | 55664
5 | 12:22.15 | 3:18.10 | 55665 | 70524
6 | 15:40.25 | 4:05.65 | 70525 | 88964
7 | 19:46.15 | 2:20.33 | 88965 | 99497
8 | 22:06.48 | 4:37.57 | 99498 | 120329
9 | 26:44.30 | 3:00.63 | 120330 | 133892
10 | 29:45.18 | 2:42.72 | 133893 | 146114
11 | 32:28.15 | 2:20.40 | 146115 | 156654
12 | 34:48.55 | 2:44.55 | 156655 | 169009
13 | 37:33.35 | 2:35.05 | 169010 | 180639
14 | 40:08.40 | 3:51.13 | 180640 | 197977
15 | 43:59.53 | 3:32.70 | 197978 | 213947
16 | 47:32.48 | 3:37.20 | 213948 | 230242
17 | 51:09.68 | 3:21.60 | 230243 | 245377
18 | 54:31.53 | 6:19.30 | 245378 | 273832
19 | 60:51.08 | 3:04.05 | 273833 | 287637
20 | 63:55.13 | 2:53.07 | 287638 | 300619
21 | 66:48.20 | 2:43.53 | 300620 | 312897
22 | 69:31.73 | 3:14.45 | 312898 | 327492

Track 1

Filename C:downloadscompletedDoug Sahm & The Sir Douglas Quintet – The Best Of 1968 – 1975 (1990) [FLAC]1 – Mendocino.wav

Pre-gap length 0:00:02.33

Peak level 77.6 %
Extraction speed 0.9 X
Track quality 99.9 %
Test CRC A32B1428
Copy CRC A32B1428
Accurately ripped (confidence 1) [18258B3E]
Copy OK

Track 2

Filename C:downloadscompletedDoug Sahm & The Sir Douglas Quintet – The Best Of 1968 – 1975 (1990) [FLAC]2 – Sunday Sunny Mill Valley Groove Day.wav

Pre-gap length 0:00:00.48

Peak level 97.1 %
Extraction speed 1.2 X
Track quality 100.0 %
Test CRC 86C4B004
Copy CRC 86C4B004
Accurately ripped (confidence 1) [341E97DC]
Copy OK

Track 3

Filename C:downloadscompletedDoug Sahm & The Sir Douglas Quintet – The Best Of 1968 – 1975 (1990) [FLAC]3 – I’m Glad For Your Sake (But I’m Sorry For Mine).wav

Pre-gap length 0:00:00.02

Peak level 64.1 %
Extraction speed 1.3 X
Track quality 100.0 %
Test CRC B7D60E95
Copy CRC B7D60E95
Accurately ripped (confidence 1) [A7ABE443]
Copy OK

Track 4

Filename C:downloadscompletedDoug Sahm & The Sir Douglas Quintet – The Best Of 1968 – 1975 (1990) [FLAC]4 – Texas Me.wav

Pre-gap length 0:00:00.20

Peak level 59.7 %
Extraction speed 1.3 X
Track quality 100.0 %
Test CRC 5F9F9A36
Copy CRC 5F9F9A36
Accurately ripped (confidence 1) [488A59FC]
Copy OK

Track 5

Filename C:downloadscompletedDoug Sahm & The Sir Douglas Quintet – The Best Of 1968 – 1975 (1990) [FLAC]5 – You Never Get Too Big And You Sure Don’t Get Too Heavy.wav

Peak level 76.9 %
Extraction speed 1.5 X
Track quality 100.0 %
Test CRC A0ED4EA0
Copy CRC A0ED4EA0
Accurately ripped (confidence 1) [9319AD0E]
Copy OK

Track 6

Filename C:downloadscompletedDoug Sahm & The Sir Douglas Quintet – The Best Of 1968 – 1975 (1990) [FLAC]6 – Song Of Everything.wav

Peak level 56.9 %
Extraction speed 1.6 X
Track quality 100.0 %
Test CRC 02C7E0E9
Copy CRC 02C7E0E9
Accurately ripped (confidence 1) [4CD8197F]
Copy OK

Track 7

Filename C:downloadscompletedDoug Sahm & The Sir Douglas Quintet – The Best Of 1968 – 1975 (1990) [FLAC]7 – Catch The Man On The Rise.wav

Pre-gap length 0:00:01.00

Peak level 97.2 %
Extraction speed 1.2 X
Track quality 99.9 %
Test CRC F2FC7022
Copy CRC F2FC7022
Accurately ripped (confidence 1) [FE87C050]
Copy OK

Track 8

Filename C:downloadscompletedDoug Sahm & The Sir Douglas Quintet – The Best Of 1968 – 1975 (1990) [FLAC]8 – At The Crossroads.wav

Pre-gap length 0:00:01.48

Peak level 75.3 %
Extraction speed 1.8 X
Track quality 100.0 %
Test CRC 40300578
Copy CRC 40300578
Accurately ripped (confidence 1) [EC7CC229]
Copy OK

Track 9

Filename C:downloadscompletedDoug Sahm & The Sir Douglas Quintet – The Best Of 1968 – 1975 (1990) [FLAC]9 – In The Dark.wav

Pre-gap length 0:00:00.27

Peak level 96.3 %
Extraction speed 1.7 X
Track quality 100.0 %
Test CRC 0169B7E7
Copy CRC 0169B7E7
Accurately ripped (confidence 1) [C93BA990]
Copy OK

Track 10

Filename C:downloadscompletedDoug Sahm & The Sir Douglas Quintet – The Best Of 1968 – 1975 (1990) [FLAC]10 – Nuevo Laredo.wav

Pre-gap length 0:00:00.35

Peak level 89.6 %
Extraction speed 1.7 X
Track quality 100.0 %
Test CRC C45FEF63
Copy CRC C45FEF63
Accurately ripped (confidence 1) [AB7C8065]
Copy OK

Track 11

Filename C:downloadscompletedDoug Sahm & The Sir Douglas Quintet – The Best Of 1968 – 1975 (1990) [FLAC]11 – I Wanna Be Your Mama Again.wav

Pre-gap length 0:00:01.62

Peak level 91.7 %
Extraction speed 1.7 X
Track quality 100.0 %
Test CRC 6FA0B733
Copy CRC 6FA0B733
Accurately ripped (confidence 1) [DEBD5DE1]
Copy OK

Track 12

Filename C:downloadscompletedDoug Sahm & The Sir Douglas Quintet – The Best Of 1968 – 1975 (1990) [FLAC]12 – I Don’t Want To Go Home.wav

Peak level 82.5 %
Extraction speed 1.8 X
Track quality 100.0 %
Test CRC A3675F2D
Copy CRC A3675F2D
Accurately ripped (confidence 1) [2E2C87BB]
Copy OK

Track 13

Filename C:downloadscompletedDoug Sahm & The Sir Douglas Quintet – The Best Of 1968 – 1975 (1990) [FLAC]13 – Be Real.wav

Pre-gap length 0:00:01.62

Peak level 97.5 %
Extraction speed 1.5 X
Track quality 99.9 %
Test CRC 35D0E626
Copy CRC 35D0E626
Accurately ripped (confidence 1) [46F2215C]
Copy OK

Track 14

Filename C:downloadscompletedDoug Sahm & The Sir Douglas Quintet – The Best Of 1968 – 1975 (1990) [FLAC]14 – Papa Ain’t Salty.wav

Pre-gap length 0:00:00.27

Peak level 100.0 %
Extraction speed 2.1 X
Track quality 100.0 %
Test CRC A66E995B
Copy CRC A66E995B
Accurately ripped (confidence 1) [AF90E44C]
Copy OK

Track 15

Filename C:downloadscompletedDoug Sahm & The Sir Douglas Quintet – The Best Of 1968 – 1975 (1990) [FLAC]15 – The Gypsy.wav

Pre-gap length 0:00:01.40

Peak level 100.0 %
Extraction speed 2.1 X
Track quality 100.0 %
Test CRC 794D67AD
Copy CRC 794D67AD
Accurately ripped (confidence 1) [1077F98A]
Copy OK

Track 16

Filename C:downloadscompletedDoug Sahm & The Sir Douglas Quintet – The Best Of 1968 – 1975 (1990) [FLAC]16 – Wasted Days And Wasted Nights.wav

Peak level 97.6 %
Extraction speed 2.2 X
Track quality 100.0 %
Test CRC 0EFC6496
Copy CRC 0EFC6496
Accurately ripped (confidence 1) [AB6BBE2E]
Copy OK

Track 17

Filename C:downloadscompletedDoug Sahm & The Sir Douglas Quintet – The Best Of 1968 – 1975 (1990) [FLAC]17 – Michoacan.wav

Pre-gap length 0:00:00.15

Peak level 93.5 %
Extraction speed 2.2 X
Track quality 100.0 %
Test CRC 3E542377
Copy CRC 3E542377
Accurately ripped (confidence 1) [4F5C6043]
Copy OK

Track 18

Filename C:downloadscompletedDoug Sahm & The Sir Douglas Quintet – The Best Of 1968 – 1975 (1990) [FLAC]18 – Westside Blues Again.wav

Pre-gap length 0:00:01.18

Peak level 100.0 %
Extraction speed 2.5 X
Track quality 100.0 %
Test CRC F9C7D4DB
Copy CRC F9C7D4DB
Accurately ripped (confidence 1) [C364232D]
Copy OK

Track 19

Filename C:downloadscompletedDoug Sahm & The Sir Douglas Quintet – The Best Of 1968 – 1975 (1990) [FLAC]19 – (Is Anybody Going To) San Antone.wav

Pre-gap length 0:00:01.23

Peak level 88.7 %
Extraction speed 2.2 X
Track quality 100.0 %
Test CRC 81197815
Copy CRC 81197815
Accurately ripped (confidence 1) [77EEA842]
Copy OK

Track 20

Filename C:downloadscompletedDoug Sahm & The Sir Douglas Quintet – The Best Of 1968 – 1975 (1990) [FLAC]20 – Texas Tornado.wav

Pre-gap length 0:00:02.03

Peak level 81.3 %
Extraction speed 2.3 X
Track quality 100.0 %
Test CRC 0EAFB5ED
Copy CRC 0EAFB5ED
Accurately ripped (confidence 1) [1DC90369]
Copy OK

Track 21

Filename C:downloadscompletedDoug Sahm & The Sir Douglas Quintet – The Best Of 1968 – 1975 (1990) [FLAC]21 – Baby, Let’s Go To Mexico.wav

Pre-gap length 0:00:01.00

Peak level 81.6 %
Extraction speed 1.9 X
Track quality 99.9 %
Test CRC 7ED5A3B8
Copy CRC 7ED5A3B8
Accurately ripped (confidence 1) [883B674A]
Copy OK

Track 22

Filename C:downloadscompletedDoug Sahm & The Sir Douglas Quintet – The Best Of 1968 – 1975 (1990) [FLAC]22 – I’m Not That Kat Anymore.wav

Pre-gap length 0:00:00.70

Peak level 99.0 %
Extraction speed 2.1 X
Track quality 99.9 %
Test CRC BBDD406E
Copy CRC BBDD406E
Accurately ripped (confidence 1) [895893B3]
Copy OK

All tracks accurately ripped

No errors occurred

End of status report

==== Log checksum A6944BA42F7064E71ADA6CE17E4A458CECB681248416410DCAB620879E9B162B ====

DR log
foobar2000 1.2 / Dynamic Range Meter 1.1.1
log date: 2016-12-28 21:34:07

––––––––––––––––––––––––––––––––––––––––
Analyzed: Doug Sahm & The Sir Douglas Quintet / The Best Of 1968 – 1975
––––––––––––––––––––––––––––––––––––––––

DR Peak RMS Duration Track
––––––––––––––––––––––––––––––––––––––––
DR10 -2.20 dB -14.96 dB 2:39 01-Mendocino
DR13 -0.25 dB -15.71 dB 3:27 02-Sunday Sunny Mill Valley Groove Day
DR11 -3.86 dB -17.87 dB 3:40 03-I’m Glad For Your Sake (But I’m Sorry For Mine)
DR9 -4.47 dB -15.68 dB 2:36 04-Texas Me
DR11 -2.28 dB -16.68 dB 3:18 05-You Never Get Too Big And You Sure Don’t Get Too Heavy
DR9 -4.88 dB -16.40 dB 4:06 06-Song Of Everything
DR11 -0.24 dB -13.63 dB 2:20 07-Catch The Man On The Rise
DR9 -2.46 dB -14.31 dB 4:38 08-At The Crossroads
DR12 -0.32 dB -15.45 dB 3:01 09-In The Dark
DR12 -0.95 dB -15.45 dB 2:43 10-Nuevo Laredo
DR12 -0.75 dB -15.68 dB 2:21 11-I Wanna Be Your Mama Again
DR13 -1.67 dB -17.94 dB 2:45 12-I Don’t Want To Go Home
DR11 -0.22 dB -14.56 dB 2:35 13-Be Real
DR11 0.00 dB -13.63 dB 3:51 14-Papa Ain’t Salty
DR13 0.00 dB -14.72 dB 3:33 15-The Gypsy
DR12 -0.21 dB -14.46 dB 3:37 16-Wasted Days And Wasted Nights
DR12 -0.58 dB -15.66 dB 3:22 17-Michoacan
DR13 0.00 dB -15.25 dB 6:19 18-Westside Blues Again
DR13 -1.04 dB -16.41 dB 3:04 19-(Is Anybody Going To) San Antone
DR11 -1.80 dB -15.23 dB 2:53 20-Texas Tornado
DR13 -1.76 dB -16.71 dB 2:44 21-Baby, Let’s Go To Mexico
DR12 -0.08 dB -15.67 dB 3:15 22-I’m Not That Kat Anymore
––––––––––––––––––––––––––––––––––––––––

Number of tracks: 22
Official DR value: DR12

Samplerate: 44100 Hz
Channels: 2
Bits per sample: 16
Bitrate: 856 kbps
Codec: FLAC
================================================================================

Doug Sahm & The Sir Douglas Quintet - The Best Of Doug Sahm & The Sir Douglas Quintet 1968-1975 (1990)

Doug Sahm & The Sir Douglas Quintet - The Best Of Doug Sahm & The Sir Douglas Quintet 1968-1975 (1990)

All thanks to Btmusic

More interesting music in My Blog

Doug Sahm & The Sir Douglas Quintet – The Best Of Doug Sahm & The Sir Douglas Quintet 1968-1975 (1990) Download, Warez, DDL, Free, Full Album, Torrent, Legal.

Download