Doug Carn – Infant Eyes (1971) {Black Jazz} | ViralVideoPk

Daily Dose of Free Downloads

Doug Carn – Infant Eyes (1971) {Black Jazz}

Download

Doug Carn - Infant Eyes (1971) {Black Jazz}

Doug Carn – Infant Eyes (1971) {Black Jazz}
EAC 1.0b4 | FLAC tracks level 8 | Cue+Log+M3U | Full Scans 500dpi | 267MB + 5% Recovery
MP3 CBR 320 Kbps | 118MB + 5% Recovery
Genre: Jazz, Bop, Fusion, Soul
Doug Carn - Infant Eyes (1971) {Black Jazz}

My absolute favorite Black Jazz album was Infant Eyes, by pianist Doug Carn and his wife, Jean Carn. The record had a sensual, powerful feel. What made the album a hit were the soulful lyrics the Carns crafted for jazz standards such as Bobby Hutcherson’s Little B’s Poem, Wayne Shorter’s Infant Eyes, John Coltrane’s Acknowledgment from A Love Supreme, and Horace Silver’s Peace. Doug’s arrangements and Jean’s searing, passionate vocals gave the album a distinctly 1970s African-American feel.

Track List
1. Welcome (01:15)
2. Little B’s Poem (03:50)
3. Moon Child (07:56)
4. Infant Eyes (09:50)
5. Passion Dance (05:58)
6. Acknowledgement (08:45)
7. Peace (04:30)

musicians
Piano, Electric Piano, Organ – Doug Carn
Bass – Henry Franklin
Drums – Michael Carvin
Flugelhorn, Trumpet – Bob Frazier
Flute, Tenor Saxophone – George Harper
Trombone, Valve Trombone – Al Hall Jr.
Vocals – Jean Carn

Produced by Gene Russell

EAC Logfile
Exact Audio Copy V1.0 beta 4 from 7. December 2014

EAC extraction logfile from 11. January 2017, 18:00

Doug Carn / Infant Eyes

Used drive : TSSTcorpDVD+-RW TS-H653B Adapter: 1 ID: 0

Read mode : Secure
Utilize accurate stream : Yes
Defeat audio cache : Yes
Make use of C2 pointers : No

Read offset correction : 6
Overread into Lead-In and Lead-Out : No
Fill up missing offset samples with silence : Yes
Delete leading and trailing silent blocks : No
Null samples used in CRC calculations : Yes
Used interface : Native Win32 interface for Win NT & 2000
Gap handling : Appended to previous track

Used output format : User Defined Encoder
Selected bitrate : 128 kBit/s
Quality : High
Add ID3 tag : No
Command line compressor : C:Program Files (x86)Exact Audio CopyFlacflac.exe
Additional command line options : -8 -V -T "ARTIST=%artist%" -T "TITLE=%title%" -T "ALBUM=%albumtitle%" -T "DATE=%year%" -T "TRACKNUMBER=%tracknr%" -T "TOTALTRACKS=%numtracks%" -T "GENRE=%genre%" -T "ALBUMARTIST=%albumartist%" -T "ALBUM ARTIST=%albumartist%" -T "COMMENT=EAC Secure Mode, Test & Copy, AccurateRip, FLAC -8" %source%

TOC of the extracted CD

Track | Start | Length | Start sector | End sector
––––––––––––––––––––––––––––-
1 | 0:00.00 | 1:19.22 | 0 | 5946
2 | 1:19.22 | 3:54.05 | 5947 | 23501
3 | 5:13.27 | 7:41.68 | 23502 | 58144
4 | 12:55.20 | 10:07.60 | 58145 | 103729
5 | 23:03.05 | 6:01.40 | 103730 | 130844
6 | 29:04.45 | 8:50.20 | 130845 | 170614
7 | 37:54.65 | 4:32.20 | 170615 | 191034

Track 1

Filename C:extractalbumsDoug Carn – Infant Eyes (1971) [FLAC]1 – Welcome.wav

Pre-gap length 0:00:02.00

Peak level 65.9 %
Extraction speed 3.2 X
Track quality 100.0 %
Test CRC 1354DDEE
Copy CRC 1354DDEE
Accurately ripped (confidence 1) [B31C4A71] (AR v2)
Copy OK

Track 2

Filename C:extractalbumsDoug Carn – Infant Eyes (1971) [FLAC]2 – Little B’s Poem.wav

Pre-gap length 0:00:02.37

Peak level 90.6 %
Extraction speed 3.6 X
Track quality 99.9 %
Test CRC D03E819C
Copy CRC D03E819C
Accurately ripped (confidence 1) [C12EDF01] (AR v2)
Copy OK

Track 3

Filename C:extractalbumsDoug Carn – Infant Eyes (1971) [FLAC]3 – Moonchild.wav

Pre-gap length 0:00:02.42

Peak level 98.8 %
Extraction speed 5.5 X
Track quality 100.0 %
Test CRC 9BDD2300
Copy CRC 9BDD2300
Accurately ripped (confidence 1) [D48DEEBA] (AR v2)
Copy OK

Track 4

Filename C:extractalbumsDoug Carn – Infant Eyes (1971) [FLAC]4 – Infant Eyes.wav

Pre-gap length 0:00:02.42

Peak level 81.7 %
Extraction speed 6.5 X
Track quality 100.0 %
Test CRC 312A03FA
Copy CRC 312A03FA
Accurately ripped (confidence 1) [76D55267] (AR v2)
Copy OK

Track 5

Filename C:extractalbumsDoug Carn – Infant Eyes (1971) [FLAC]5 – Passion Dance.wav

Pre-gap length 0:00:02.43

Peak level 98.8 %
Extraction speed 6.0 X
Track quality 99.9 %
Test CRC 87661B41
Copy CRC 87661B41
Accurately ripped (confidence 1) [11432141] (AR v2)
Copy OK

Track 6

Filename C:extractalbumsDoug Carn – Infant Eyes (1971) [FLAC]6 – Acknowledgement.wav

Pre-gap length 0:00:02.42

Peak level 98.8 %
Extraction speed 7.7 X
Track quality 100.0 %
Test CRC CD095B9C
Copy CRC CD095B9C
Accurately ripped (confidence 1) [33DC154A] (AR v2)
Copy OK

Track 7

Filename C:extractalbumsDoug Carn – Infant Eyes (1971) [FLAC]7 – Peace.wav

Pre-gap length 0:00:02.41

Peak level 92.6 %
Extraction speed 6.4 X
Track quality 99.9 %
Test CRC F7B94868
Copy CRC F7B94868
Accurately ripped (confidence 1) [F8BCBC88] (AR v2)
Copy OK

All tracks accurately ripped

No errors occurred

End of status report

–– CUETools DB Plugin V2.1.4

[CTDB TOCID: 5lwHhCY9PdhtN4_1tnwEi4USiMM-] found
Submit result: 5lwHhCY9PdhtN4_1tnwEi4USiMM- has been confirmed
Track | CTDB Status
1 | (1/1) Accurately ripped
2 | (1/1) Accurately ripped
3 | (1/1) Accurately ripped
4 | (1/1) Accurately ripped
5 | (1/1) Accurately ripped
6 | (1/1) Accurately ripped
7 | (1/1) Accurately ripped

==== Log checksum BCC8ABDFB7F2727E2FD719AFE2713253E633898E36BDA40D8621481D20BD1CE8 ====

Dynamic Range Analysis
––––––––––––––––––––––––––––––––––––––––
Analyzed: Doug Carn / Infant Eyes
––––––––––––––––––––––––––––––––––––––––

DR Peak RMS Duration Track
––––––––––––––––––––––––––––––––––––––––
DR10 -3.62 dB -17.13 dB 1:19 01-Welcome
DR11 -0.86 dB -14.55 dB 3:54 02-Little B’s Poem
DR12 -0.10 dB -14.25 dB 7:42 03-Moonchild
DR12 -1.75 dB -18.22 dB 10:08 04-Infant Eyes
DR12 -0.10 dB -14.65 dB 6:02 05-Passion Dance
DR13 -0.10 dB -15.42 dB 8:50 06-Acknowledgement
DR12 -0.66 dB -16.62 dB 4:32 07-Peace
––––––––––––––––––––––––––––––––––––––––

Number of tracks: 7
Official DR value: DR12

Samplerate: 44100 Hz
Channels: 2
Bits per sample: 16
Bitrate: 763 kbps
Codec: FLAC
================================================================================

Doug Carn - Infant Eyes (1971) {Black Jazz}
Doug Carn - Infant Eyes (1971) {Black Jazz}
Doug Carn - Infant Eyes (1971) {Black Jazz}
Thanks to the original ripper

Doug Carn – Infant Eyes (1971) {Black Jazz} Download, Warez, DDL, Free, Full Album, Torrent, Legal.

Download


  • Recent Posts

  • Recent Tags